#TITLE:世界は踊る;
#SUBTITLE:;
#ARTIST:BREAKERZ;
#TITLETRANSLIT:SEKAI HA ODORU;
#SUBTITLETRANSLIT:;
#ARTISTTRANSLIT:;
#GENRE:;
#CREDIT:;
#BANNER:SEKAI HA ODORU.png;
#BACKGROUND:SEKAI HA ODORU-bg.png;
#LYRICSPATH:;
#CDTITLE:;
#MUSIC:SEKAI HA ODORU.ogg;
#OFFSET:0.000000;
#SAMPLESTART:2.180000;
#SAMPLELENGTH:15.000000;
#SELECTABLE:YES;
#DISPLAYBPM:110.000000;
#BPMS:0.000000=110.092003
,4.000000=110.003998
;
#STOPS:
;
#BGCHANGES:;
#KEYSOUNDS:;
#ATTACKS:;

//---------------dance-single - ----------------
#NOTES:
     dance-single:
     :
     Beginner:
     1:
     0.068041,0.106715,0.000000,0.017973,0.000000,53.000000,53.000000,0.000000,2.000000,0.000000,0.000000,0.068041,0.106715,0.000000,0.017973,0.000000,53.000000,53.000000,0.000000,2.000000,0.000000,0.000000:
0000
0000
0000
0000
,
0000
0000
0000
0000
,
0000
0000
0000
0000
,
0000
0000
0000
0000
,
0000
0000
0000
0000
,
0001
0000
0000
0000
,
0001
0000
0000
0000
,
1000
0000
0000
0000
,
1000
0000
0000
0000
,
0010
0000
0000
0000
,
0000
0000
0000
0000
,
0010
0000
0010
0000
,
0000
0000
0000
0000
,
0001
0000
0001
0000
,
0000
0000
0000
0000
,
1000
0000
1000
0000
,
0000
0000
0000
0000
,
0001
0000
1000
0000
,
0000
0000
0000
0000
,
1000
0000
0001
0000
,
0000
0000
0000
0000
,
0001
0000
0001
0000
,
1000
0000
0000
0000
,
1000
0000
1000
0000
,
0001
0000
0000
0000
,
0010
0000
0000
0000
,
0010
0000
0000
0000
,
0100
0000
0000
0000
,
0100
0000
0000
0000
,
0000
0000
0000
0000
,
0001
0000
1000
0000
,
0001
0000
0000
0000
,
1000
0000
0001
0000
,
1000
0000
0000
0000
,
0001
0001
0000
0000
,
1000
1000
0000
0000
,
0001
0000
1000
0000
,
0001
0000
0000
0000
,
0010
0000
0010
0000
,
0100
0000
0000
0000
,
0100
0000
0100
0000
,
0010
0000
0000
0000
,
0010
0010
0000
0000
,
0100
0100
0000
0000
,
0010
0000
0100
0000
,
0010
0000
0000
0000
,
2000
0000
3000
0000
,
0002
0000
0003
0000
,
0000
0000
0000
0000
;

//---------------dance-single - ----------------
#NOTES:
     dance-single:
     :
     Easy:
     3:
     0.120676,0.170744,0.017973,0.089865,0.000000,94.000000,92.000000,2.000000,10.000000,0.000000,0.000000,0.120676,0.170744,0.017973,0.089865,0.000000,94.000000,92.000000,2.000000,10.000000,0.000000,0.000000:
0000
0000
0000
0000
,
0000
0000
0000
0000
,
0000
0000
0000
0000
,
0000
0000
0000
0000
,
0000
0000
0000
0000
,
0001
0000
0001
0000
,
1000
0000
0000
0000
,
1000
0000
1000
0000
,
0001
0000
0000
0000
,
2000
0000
3000
0000
,
0002
0000
0003
0000
,
0020
0000
0030
0000
,
0200
0000
0300
0000
,
0001
0000
0001
0000
,
0100
0000
0000
0000
,
1000
0000
1000
0000
,
0100
0000
0000
0000
,
0001
0000
0100
0000
,
0001
0000
0000
0000
,
1000
0000
0100
0000
,
1000
0000
0000
0000
,
0001
0001
0100
0000
,
0001
0000
0001
0000
,
1000
1000
0100
0000
,
1000
0000
1000
0000
,
0001
0001
0010
0000
,
0001
0000
0001
0000
,
1000
1000
0010
0000
,
1000
0000
1000
0000
,
0000
0000
0000
0000
,
0001
1000
0001
0001
,
1000
0001
1000
0000
,
1000
0001
1000
1000
,
0001
1000
0001
0000
,
1000
1000
0100
0000
,
0001
0001
0100
0000
,
1000
0000
0001
0000
,
1001
0000
0000
0000
,
0001
0100
0001
0100
,
0001
0001
0100
0000
,
1000
0100
1000
0100
,
1000
1000
0100
0000
,
0002
0000
0103
0000
,
2000
0000
3100
0000
,
0002
0003
2000
3000
,
2002
0000
3003
0000
,
0001
0010
0001
0000
,
1000
0010
1000
0000
,
0000
0000
0000
0000
;

//---------------dance-single - ----------------
#NOTES:
     dance-single:
     :
     Medium:
     7:
     0.231081,0.298801,0.143784,0.089865,0.000000,180.000000,164.000000,16.000000,10.000000,0.000000,0.000000,0.231081,0.298801,0.143784,0.089865,0.000000,180.000000,164.000000,16.000000,10.000000,0.000000,0.000000:
0000
0000
0000
0000
,
0000
0000
0000
0000
,
0000
0000
0000
0000
,
0000
0000
0000
0000
,
0000
0000
0000
0000
,
0001
0010
1000
0100
,
0110
0000
1001
0000
0100
0100
0100
0000
,
0001
0100
0100
0000
1000
0100
0100
0000
,
0010
0100
0110
0000
,
0001
0010
1000
0010
,
0001
0100
1000
0010
,
0002
0000
0000
0000
2000
3003
0000
0220
,
0000
0000
0000
0330
,
0010
1000
0100
1000
,
0010
0000
0000
0000
0100
0100
0100
0000
,
0001
0100
1000
0100
,
0001
0010
1000
0000
,
0010
0001
0100
0001
,
0010
0000
0000
0000
0100
0100
0100
0000
,
1000
0100
0001
0100
,
1000
0010
0001
0000
,
1000
0010
1000
0000
0100
0000
0000
0000
,
0001
0010
0001
0000
0100
0000
0000
0000
,
0010
0100
0001
0010
,
1000
0000
0001
0000
,
0001
0100
0001
0000
0100
0000
0000
0000
,
1000
0100
1000
0000
0100
0000
0000
0000
,
1000
0100
0001
0010
,
0001
0100
1000
0010
,
2002
0000
0000
3003
,
1000
1000
0001
1000
,
0110
0000
1001
0000
0100
0100
0100
0000
,
0001
0100
1000
0100
,
0001
0010
1000
0000
,
0001
0001
1000
0001
,
0110
0000
1001
0000
0100
0100
0100
0000
,
0002
0103
2000
3100
,
0001
1000
1001
0000
,
1000
0010
0001
0100
,
0110
0000
1001
0000
0100
0100
0100
0000
,
1000
0100
0100
0000
0001
0100
0100
0000
,
0010
0100
0110
0000
,
0001
0010
1000
0100
,
0110
0000
1001
0000
0100
0100
0100
0000
,
0001
0100
0100
0000
1000
0100
0100
0000
,
0010
0100
0110
0000
,
0002
0010
0013
0000
,
2000
0010
3010
0000
,
0000
0000
0000
0000
;

//---------------dance-single - ----------------
#NOTES:
     dance-single:
     :
     Hard:
     10:
     0.320947,0.362830,0.089865,0.053919,0.000000,250.000000,240.000000,10.000000,6.000000,0.000000,0.000000,0.320947,0.362830,0.089865,0.053919,0.000000,250.000000,240.000000,10.000000,6.000000,0.000000,0.000000:
0000
0000
0000
0000
,
0000
0000
0000
0000
,
0000
0000
0000
0000
,
0000
0000
0000
0000
,
0000
0000
0000
0000
,
0100
0001
0010
1000
0100
1000
0010
0001
,
0100
1000
0010
1000
0100
0001
0010
0000
,
0010
0100
1100
0000
0010
0100
0101
0000
,
0010
0100
0001
0010
1000
0100
0001
0000
,
0001
0100
1000
0000
0100
0000
0100
0000
,
1000
0100
0001
0000
0100
0000
0100
0000
,
0001
1000
0100
0000
0010
0100
2000
0002
,
0000
0000
0000
3003
,
0001
0000
0000
0100
0100
0000
0001
0000
,
1000
0000
0010
0000
0100
1000
0001
0000
,
0010
0001
0100
0000
0010
1000
0100
1000
,
0010
0100
0001
0010
,
1000
0000
0000
0100
0100
0000
1000
0000
,
0001
0000
0010
0000
0100
0001
1000
0000
,
0010
1000
0100
0000
0010
0001
0100
0001
,
0010
0100
1000
0010
,
0001
0100
0010
0100
0001
0000
0000
0000
,
1000
0010
0001
0100
,
1000
0100
0010
0100
1000
0000
0000
0000
,
0001
0010
1000
0100
,
0002
0010
1000
0103
,
2000
0010
0001
3100
,
1000
0100
0001
0000
0001
0100
1000
0000
,
0001
0100
1000
0100
0001
0010
1000
0000
,
2002
0000
0000
3003
,
0001
0100
1000
0010
1000
0100
0001
0001
,
1000
0100
0001
0010
0001
0100
1000
0000
,
0001
0010
1000
0100
1000
0010
0001
0100
,
1000
1000
0100
0000
0001
0000
0010
0000
,
1000
0010
0001
0100
0001
0010
1000
1000
,
0001
0010
1000
0100
1000
0010
0001
0000
,
1000
0100
0001
0010
0001
0100
1000
0010
,
0001
0001
0010
0000
1000
0000
1100
0000
,
0010
0001
0100
1000
0010
1000
0100
0001
,
0010
1000
0100
1000
0010
0001
0100
0000
,
0010
1001
0100
1001
,
0010
1001
0100
1001
,
0100
1000
0010
0001
0100
0001
0010
1000
,
0100
0001
0010
0001
0100
1000
0010
0000
,
0010
0100
0101
0000
0010
0100
1100
0000
,
0010
0100
1000
0010
0001
0100
1000
0000
,
0001
0100
0001
0000
0100
0000
0000
0000
,
1000
0100
1000
0000
0100
0000
0000
0000
,
0000
0000
0000
0000
;

//---------------dance-double - ----------------
#NOTES:
     dance-double:
     :
     Easy:
     2:
     0.114257,0.128058,0.026960,0.000000,0.000000,89.000000,86.000000,3.000000,0.000000,0.000000,0.000000,0.114257,0.128058,0.026960,0.000000,0.000000,89.000000,86.000000,3.000000,0.000000,0.000000,0.000000:
00000000
00000000
00000000
00000000
,
00000000
00000000
00000000
00000000
,
00000000
00000000
00000000
00000000
,
00000000
00000000
00000000
00000000
,
00000000
00000000
00000000
00000000
,
10000000
00000000
00000000
00000000
,
00010000
00000000
00000000
00000000
,
00001000
00000000
00000001
00000000
,
00001000
00000000
00000000
00000000
,
00000001
00000000
00000000
00000000
,
00001000
00000000
00000000
00000000
,
00010000
00000000
00001000
00000000
,
00011000
00000000
00000000
00000000
,
00100000
00000000
00000000
00000000
,
10000000
01000000
10000000
00000000
,
00100000
00000000
00000000
00000000
,
00010000
01000000
00010000
00000000
,
00001000
00000000
00000000
00000000
,
00010000
00001000
00010000
00000000
,
00000100
00000000
00000000
00000000
,
00000001
00000010
00000001
00000000
,
00000100
00000000
00000100
00000000
,
00001000
00001000
00010000
00000000
,
00100000
00000000
00100000
00000000
,
10000000
10000000
01000000
00000000
,
00100000
00000000
00100000
00000000
,
00001000
00010000
00001000
00000000
,
00000100
00000000
00000100
00000000
,
00000001
00001000
00000001
00000000
,
00000000
00000000
00000000
00000000
,
00000010
00000000
00000001
00000000
,
00000100
00001000
00010000
00000000
,
00100000
00000000
10000000
00000000
,
01000000
00010000
00001000
00000000
,
00000010
00000000
00010000
00000000
,
00001000
00000000
00100000
00000000
,
10000000
00000000
00010000
00000000
,
10010000
00000000
00000000
00000000
,
00100000
00000000
01000000
00000000
,
00100000
00001000
00010000
00000000
,
00000010
00000000
00000100
00000000
,
00000010
00010000
00001000
00000000
,
00100000
00000000
10000000
00000000
,
01000000
00000000
00010000
00000000
,
00001000
00000000
00000100
00000000
,
00001001
00000000
00000000
00000000
,
00000001
00000100
00000001
00000000
,
00001000
00000100
00001000
00000000
,
00000000
00000000
00000000
00000000
;

//---------------dance-double - ----------------
#NOTES:
     dance-double:
     :
     Medium:
     6:
     0.216960,0.277458,0.080879,0.035946,0.000000,169.000000,160.000000,9.000000,4.000000,0.000000,0.000000,0.216960,0.277458,0.080879,0.035946,0.000000,169.000000,160.000000,9.000000,4.000000,0.000000,0.000000:
00000000
00000000
00000000
00000000
,
00000000
00000000
00000000
00000000
,
00000000
00000000
00000000
00000000
,
00000000
00000000
00000000
00000000
,
00000000
00000000
00000000
00000000
,
00100000
10000000
01000000
10000000
,
00100000
00000000
00010000
00000000
00001000
00010000
00001000
00000000
,
00000010
00010000
00000100
00010000
,
00001000
00000010
00001001
00000000
,
00000010
00000001
00000100
00002000
,
00010000
00000100
00010000
00003100
,
00010000
00000000
00000000
00000000
00100000
00000000
00000000
02000000
,
00000000
00000000
00000000
03000000
,
00100000
10000000
00010000
01000000
,
00001000
00010000
00001000
00001000
,
00000010
00000001
00001000
00000100
,
00010000
00000000
00000000
00000000
00001000
00001000
00001000
00000000
,
01000000
10000000
00010000
00100000
,
00001000
00010000
00001000
00001000
,
00000100
00000001
00001000
00000010
,
00010000
00000000
00000000
00000000
00001000
00001000
00001000
00000000
,
00010000
01000000
10000000
00100000
,
00010000
00001000
00010000
00000000
,
00001000
00000100
00000001
00000010
,
00001000
00010000
00001000
00000000
,
00100000
00001000
00100000
00000000
00010000
00000000
00000000
00000000
,
00000010
00010000
00000010
00000000
00001000
00000000
00000000
00000000
,
00000010
00010000
00000100
00001000
,
00000010
00010000
00001000
00100000
,
20020000
00000000
00000000
30030000
,
10000000
01000000
00010000
00001000
,
00000010
00000000
00001001
00000000
00000100
00000100
00000100
00000000
,
00000001
00000100
00001000
00000100
,
00000010
00000100
00000010
00000000
,
00000001
00000100
00001000
00010000
,
00100000
00000000
10010000
00000000
01000000
01000000
01000000
00000000
,
10000000
01000000
01000000
00000000
00010000
01000000
01000000
00000000
,
00100000
01000000
10010000
00000000
,
10000000
10000000
00010000
00010000
,
00001000
00001000
00000001
00000001
,
00000010
00000001
00000100
00001000
,
00000110
00001001
00000110
00000000
,
00000001
00000001
00001000
00001000
,
00010000
00010000
10000000
10000000
,
00100000
10000000
01000000
00010000
,
00100000
00001000
00011000
00000000
,
00000010
00000001
00001000
00000000
,
00000010
00001000
00000001
00000000
,
00000000
00000000
00000000
00000000
;

//---------------dance-double - ----------------
#NOTES:
     dance-double:
     :
     Hard:
     9:
     0.315811,0.362830,0.044933,0.053919,0.000000,246.000000,241.000000,5.000000,6.000000,0.000000,0.000000,0.315811,0.362830,0.044933,0.053919,0.000000,246.000000,241.000000,5.000000,6.000000,0.000000,0.000000:
00000000
00000000
00000000
00000000
,
00000000
00000000
00000000
00000000
,
00000000
00000000
00000000
00000000
,
00000000
00000000
00000000
00000000
,
00000000
00000000
00000000
00000000
,
00100000
00010000
01000000
10000000
00100000
10000000
01000000
00010000
,
00001000
00000100
00000001
00000010
00000001
00000100
00001000
00000000
,
00000010
00000100
00000001
00000000
00000010
00000100
00010000
00001000
,
00100000
00010000
01000000
00001000
00100000
00000000
10010000
00000000
,
10000000
00010000
01000000
00000000
00001000
00000000
00010000
00000000
,
00000010
00001000
00000001
00000000
00000010
00000000
00000001
00000000
,
00001000
00000000
00000100
00000000
00010000
00001000
01000000
00200000
,
00000000
00000000
00000000
00300000
,
10000000
00000000
01000000
00000000
00010000
00000000
00100000
01000000
,
00010000
00000010
00000100
00000001
,
00001000
00000000
00000100
00000000
00000001
00000000
00000100
00001000
,
00010000
01000000
10000000
00010000
,
01000000
00000000
00100000
00000000
00010000
00000000
00000100
00000010
,
00000001
00001000
00000010
00000100
,
00001000
01000000
00010000
00100000
,
00001000
00010000
00000100
00000000
,
00001000
00000010
00001000
00000100
00001000
00000000
00000000
00000000
,
00000001
00001000
00010000
10000000
,
00010000
00100000
00010000
01000000
00010000
00000000
00000000
00000000
,
10000000
00010000
00001000
00000001
,
00002000
00000010
00000001
00003100
,
00020000
00100000
10000000
01030000
,
00002010
00003100
00120000
01030000
,
00100000
10000000
01000000
10000000
00100000
00010000
00001000
00010000
,
02000000
00000000
00000000
03000000
,
00100000
00010000
01000000
10000000
00100000
10000000
01000000
00010000
,
00001000
00000100
00000001
00000010
00000001
00000100
00001000
00000000
,
00000010
00000100
00000001
00000000
00000010
00000100
00010000
00001000
,
00100000
00010000
01000000
00001000
00100000
00000000
10010000
00000000
,
01000000
00010000
00100000
10000000
01000000
10000000
00100000
00010000
,
00001000
00000010
00000001
00000100
00000001
00000010
00001000
00000000
,
00000100
00000010
00000001
00000000
00000100
00000010
00010000
00001000
,
01000000
00010000
00100000
00001000
01000000
00000000
10010000
00000000
,
00100000
10000000
01000000
00010000
00001000
00000100
00000001
00000010
,
00000001
00000100
00001000
00010000
01000000
10000000
00100000
00000000
,
10000000
00100000
10000000
00100000
10000000
00010000
10000000
00010000
,
00001000
00010000
00001000
00010000
00001000
00000001
00000100
00000000
,
00000010
00000001
00000100
00001000
00010000
01000000
10000000
00100000
,
10000000
01000000
00010000
00001000
00000100
00000001
00000010
00000000
,
00000001
00000010
00000001
00000010
00000001
00001000
00000001
00001000
,
00010000
00001000
00010000
00001000
00010000
10000000
01000000
00000000
,
00100000
00000000
01000000
10000000
01000000
00000000
00000000
00000000
,
00100000
00000000
01000000
00010000
01000000
00000000
00000000
00000000
,
00000000
00000000
00000000
00000000
;

//---------------dance-single - ----------------
#NOTES:
     dance-single:
     :
     Challenge:
     13:
     0.539190,0.741386,0.431352,0.080879,0.548177,420.000000,372.000000,48.000000,9.000000,324.000000,0.000000,0.539190,0.741386,0.431352,0.080879,0.548177,420.000000,372.000000,48.000000,9.000000,324.000000,0.000000:
// measure 0
0000
0000
0000
0000
,  // measure 1
0000
0000
0000
0000
,  // measure 2
0000
0000
0000
0000
,  // measure 3
0000
0000
0000
0000
,  // measure 4
0000
0000
0000
0000
,  // measure 5
0100
0000
0001
0010
1000
0000
0001
0010
1000
0000
1000
0100
0001
0000
1000
0100
,  // measure 6
0001
0100
0010
1000
0100
0000
MMMM
0000
,  // measure 7
1000
1000
0010
0010
0100
0100
0001
MMMM
,  // measure 8
1001
0000
0001
0010
0100
1000
0010
0100
0001
0000
0000
0000
1001
0000
MMMM
0000
,  // measure 9
1000
0100
0010
0100
1000
0010
0100
0001
1000
0000
0000
0000
MMMM
0000
0000
0000
,  // measure 10
0010
0001
0100
0001
0010
0100
1000
0100
0010
0000
0000
0000
MMMM
0000
0000
0000
,  // measure 11
0100
0100
0010
0100
0010
0000
MMMM
0000
0010
0010
0100
0010
0100
0000
2002
0000
,  // measure 12
0000
0000
0000
0000
3003
0000
MMMM
0000
0000
0000
0110
0000
0110
0000
0100
0010
,  // measure 13
0001
0010
0100
0010
1000
0001
0100
0010
,  // measure 14
1000
MMMM
MMMM
MMMM
MMMM
MMMM
MMMM
MMMM
,  // measure 15
1010
0000
0000
1000
0010
0100
0000
0101
0000
0000
1000
0000
0100
0000
0010
0000
,  // measure 16
0001
0100
0000
0101
MMMM
MMMM
MMMM
MMMM
,  // measure 17
1100
0000
0000
0100
1000
0100
0000
0110
0000
0010
0001
0000
0100
0000
0010
0000
,  // measure 18
0001
0000
1000
0100
0010
0000
0001
0000
MMMM
0000
MMMM
0000
MMMM
0000
0001
0010
,  // measure 19
0100
0000
0000
0000
1100
0000
MMMM
0000
0101
0000
0000
0000
1000
0100
0010
0001
,  // measure 20
0100
0000
0110
1001
0110
MMMM
MMMM
MMMM
,  // measure 21
1000
0000
0010
0100
0001
0000
0100
0010
1000
0000
0010
0100
0001
0000
0100
0010
,  // measure 22
1000
0100
0010
0100
1000
0100
0010
0100
1000
0000
MMMM
0000
1100
0000
MMMM
0000
,  // measure 23
0101
0000
0001
0010
0100
0000
0010
0100
1000
0000
0010
0000
0100
0000
0001
0000
,  // measure 24
1000
0000
0000
0000
0000
0000
0000
0000
0000
0000
0000
0000
0000
0000
0000
0000
0000
0000
0000
0000
0000
0000
0000
0000
MMMM
0000
0000
0000
0000
0000
0000
0000
0000
0000
0000
0000
0000
0000
0000
0000
0000
0000
0000
0000
0000
0000
0000
0000
0010
0000
0000
0000
0000
0000
0000
0000
0000
0000
0000
0000
0000
0000
0000
0000
0000
0000
0000
0000
0000
0000
0000
0000
0100
0000
0000
0000
0000
0000
0000
0000
0000
0000
0000
0000
0001
0000
0000
0000
0000
0000
0000
0000
0000
0000
0000
0000
0000
0000
0000
0000
0000
0000
MMMM
0000
0000
0000
0000
0000
0000
0000
0000
0000
0000
0000
0000
0000
0000
0000
0000
0000
0100
0000
0000
0000
0000
0000
0000
0000
0001
0000
0000
0000
0000
0000
0000
0000
0100
0000
0000
0000
0000
0000
0000
0000
0001
0000
0000
0000
0000
0000
0000
0000
0000
0000
0000
0000
0000
0000
0000
0000
0000
0000
0000
0000
0000
0000
0000
0000
MMMM
0000
0000
0000
0000
0000
0000
0000
0000
0000
0000
0000
0000
0000
0000
0000
0000
0000
0000
0000
0000
0000
0000
0000
,  // measure 25
1010
0000
0001
0010
0100
0000
0010
0100
1000
0000
1000
0100
0010
0000
0001
0010
,  // measure 26
1000
0000
0100
1100
0000
0000
0000
0000
1100
0000
MMMM
0000
0101
0000
0000
0000
,  // measure 27
1010
0000
0010
0100
0001
0000
0110
0000
1010
0000
1000
0100
0010
0000
0110
0000
,  // measure 28
0101
1000
0100
0000
0000
0000
0010
0001
0100
0010
1000
0001
0010
0100
1000
0010
,  // measure 29
0100
0100
0100
0100
MMMM
MMMM
0100
0100
0100
0100
MMMM
0100
0100
0100
0100
0100
,  // measure 30
0100
1000
0010
0100
0001
0010
0100
1000
,  // measure 31
0010
0001
0100
0010
1000
0000
MMMM
0000
,  // measure 32
0010
0100
0001
1000
0100
0010
0001
0100
,  // measure 33
0010
0001
1000
0010
MMMM
MMMM
MMMM
MMMM
,  // measure 34
0001
0010
0100
1000
0010
0001
0100
0010
,  // measure 35
1000
0100
0001
0100
1000
0000
MMMM
0000
,  // measure 36
1000
0100
0010
0001
1000
0010
0001
0100
,  // measure 37
1000
0001
0010
0100
MMMM
MMMM
MMMM
MMMM
,  // measure 38
1010
0000
0010
1000
0100
0000
0110
0000
0011
0000
0001
0100
0010
0000
1010
0000
,  // measure 39
1000
0000
0100
1000
0010
0000
0100
0001
0010
0000
0100
0001
1000
0100
0010
0000
,  // measure 40
0011
0000
0001
0010
0100
0000
0110
0000
1010
0000
1000
0100
0010
0000
0101
0000
,  // measure 41
0110
0000
0010
1000
0001
0000
0101
0000
1000
0000
0100
0010
1000
0000
1100
0000
,  // measure 42
1010
0000
0010
1000
0001
0000
0101
0000
0110
0000
0010
0001
1000
0000
1001
0000
,  // measure 43
0101
0000
0100
0010
1000
0000
0010
0100
0001
0000
0100
0010
1000
0010
0001
0000
,  // measure 44
1001
0000
1000
0010
0100
0000
0101
0000
0011
0000
0010
0100
1000
0000
1001
0000
,  // measure 45
0011
0001
0100
0000
0110
0010
1000
0000
0010
0001
0100
0010
1000
0001
0100
1000
,  // measure 46
0020
0130
0001
0100
0020
0130
0001
0100
0020
0130
0001
0100
0020
0130
0001
0100
,  // measure 47
0020
1030
0100
1000
0020
1030
0100
1000
0020
1030
0100
1000
MMMM
MMMM
MMMM
MMMM
,  // measure 48
MMMM
MMMM
MMMM
MMMM
MMMM
MMMM
MMMM
MMMM
MMMM
MMMM
MMMM
MMMM
MMMM
MMMM
MMMM
MMMM
,  // measure 49
MMMM
MMMM
MMMM
MMMM
MMMM
MMMM
MMMM
MMMM
MMMM
MMMM
MMMM
MMMM
MMMM
MMMM
MMMM
MMMM
,  // measure 50
MMMM
0000
0000
0000
;
