#VERSION:0.83;
#TITLE:Second Heaven;
#SUBTITLE:;
#ARTIST:Ryu☆;
#TITLETRANSLIT:;
#SUBTITLETRANSLIT:;
#ARTISTTRANSLIT:;
#GENRE:;
#ORIGIN:;
#CREDIT:;
#BANNER:Second Heaven.png;
#BACKGROUND:Second Heaven-bg.png;
#PREVIEWVID:;
#JACKET:Second Heaven-jacket.png;
#CDIMAGE:;
#DISCIMAGE:;
#LYRICSPATH:;
#CDTITLE:;
#MUSIC:Second Heaven.ogg;
#OFFSET:0.000000;
#SAMPLESTART:59.599998;
#SAMPLELENGTH:15.000000;
#SELECTABLE:YES;
#DISPLAYBPM:149.000000;
#BPMS:0.000=149.500,
4.000=149.000;
#STOPS:;
#DELAYS:;
#WARPS:;
#TIMESIGNATURES:0.000=4=4;
#TICKCOUNTS:0.000=4;
#COMBOS:0.000=1;
#SPEEDS:0.000=1.000=0.000=0;
#SCROLLS:0.000=1.000;
#FAKES:;
#LABELS:0.000=Song Start;
#BGCHANGES:0.000=Second Heaven.avi=1.000=0=0=0=StretchNoLoop====,
99999=-nosongbg-=1.000=0=0=0 // don't automatically add -songbackground-
;
#KEYSOUNDS:;
#ATTACKS:
;

//---------------dance-single - ----------------
#NOTEDATA:;
#CHARTNAME:;
#STEPSTYPE:dance-single;
#DESCRIPTION:;
#CHARTSTYLE:;
#DIFFICULTY:Beginner;
#METER:2;
#RADARVALUES:0.117448,0.178688,0.041946,0.000000,0.000000,98.000000,93.000000,5.000000,0.000000,0.000000,0.000000,0.000000,0.000000,0.000000,0.117448,0.178688,0.041946,0.000000,0.000000,98.000000,93.000000,5.000000,0.000000,0.000000,0.000000,0.000000,0.000000,0.000000;
#CREDIT:;
#DISPLAYBPM:149.000000;
#NOTES:
0000
0000
0000
0000
,
0000
0000
0000
0000
,
1000
0000
0000
0000
,
0000
0000
0000
0000
,
0001
0000
0000
0000
,
0000
0000
0000
0000
,
1000
0000
0000
0000
,
0001
0000
0000
0000
,
1000
0000
0000
0000
,
0001
0000
0000
0000
,
1001
0000
0000
0000
,
0000
0000
0000
0000
,
0010
0000
0000
0000
,
0010
0000
0000
0000
,
0010
0000
0010
0000
,
0010
0000
0000
0000
,
0100
0000
0000
0000
,
0100
0000
0000
0000
,
0100
0000
0100
0000
,
0100
0000
0000
0000
,
1000
0000
0000
0000
,
0001
0000
0000
0000
,
1000
0000
0000
0000
,
0010
0000
0000
0000
,
0001
0000
0000
0000
,
1000
0000
0000
0000
,
0001
0000
0000
0000
,
0010
0000
0000
0000
,
1001
0000
0000
0000
,
1000
0000
0000
0000
,
1000
0000
0000
0000
,
1000
0000
1000
0000
,
1000
1000
1000
0000
,
0001
0000
0000
0000
,
0001
0000
0000
0000
,
0001
0000
0001
0000
,
0001
0001
0001
0000
,
0010
0000
0000
0000
,
0010
0000
0000
0000
,
0010
0000
0010
0000
,
0010
0000
0000
0000
,
0100
0000
0000
0000
,
0100
0000
0000
0000
,
0100
0000
0100
0000
,
0100
0000
0000
0000
,
1000
0000
0000
0000
,
0100
0000
0000
0000
,
0001
0000
0000
0000
,
0100
0000
0000
0000
,
1000
1000
0000
0000
,
0001
0001
0000
0000
,
1000
0000
0001
0000
,
1000
0000
0000
0000
,
1000
0000
1000
0000
,
0001
0000
0001
0000
,
1000
0000
1000
0000
,
0001
0000
0001
0000
,
0010
0000
0000
0000
,
0010
0000
0000
0000
,
0010
0000
0010
0000
,
0010
0000
0000
0000
,
1001
0000
0000
0000
,
1001
0000
0000
0000
,
1000
0000
1000
0000
,
0001
0000
0100
0000
,
0001
0000
0001
0000
,
1000
0000
0100
0000
,
0001
0000
0001
0000
,
1000
0000
0100
0000
,
0001
0000
0001
0000
,
0100
0000
1000
0000
,
1001
0000
0000
0000
,
0000
0000
0000
0000
;

//---------------dance-single - ----------------
#NOTEDATA:;
#CHARTNAME:;
#STEPSTYPE:dance-single;
#DESCRIPTION:;
#CHARTSTYLE:;
#DIFFICULTY:Easy;
#METER:5;
#RADARVALUES:0.212125,0.421344,0.159393,0.134226,0.000000,177.000000,158.000000,19.000000,16.000000,0.000000,0.000000,0.000000,0.000000,0.000000,0.212125,0.421344,0.159393,0.134226,0.000000,177.000000,158.000000,19.000000,16.000000,0.000000,0.000000,0.000000,0.000000,0.000000;
#CREDIT:;
#DISPLAYBPM:149.000000;
#NOTES:
0000
0000
0000
0000
,
0000
0000
0000
0000
,
1000
0000
1000
0000
,
0001
0001
0001
0000
,
1000
0000
1000
0000
,
0001
0001
0001
0000
,
1000
1000
0001
0000
,
1000
1000
0001
0000
,
1000
1000
0001
0001
,
1000
0001
1000
0001
,
0020
0000
0000
0000
0000
0000
0000
0030
,
0000
0000
0000
0000
,
0100
0000
0000
0000
,
0010
0000
0000
0000
,
0100
0000
0000
0000
,
2000
0000
3000
0000
,
0100
0000
0000
0000
,
0010
0000
0000
0000
,
0100
0000
0000
0000
,
0002
0000
0003
0000
,
2000
0000
3000
0000
,
0200
0000
0300
0000
,
0002
0000
0003
0000
,
2000
0000
3000
0000
,
1001
0000
0000
0000
,
1001
0000
0000
0000
,
0110
0000
0110
0000
,
1001
1001
0110
0110
,
2002
0000
3003
0000
,
1000
0000
1000
0000
,
0001
0100
1000
0000
,
0001
0000
0001
0000
,
1000
0100
0001
0000
,
0010
0000
0010
0000
,
0001
0100
1000
0000
,
0010
0000
0010
0000
,
1000
0100
0001
0000
,
0100
0000
0010
0000
,
0100
0000
1000
1000
,
0100
0000
0010
0000
,
0100
0000
0001
0001
,
0100
0010
0200
0000
,
0300
0000
1000
1000
,
0100
0010
0200
0000
,
0300
0000
0001
0001
,
1000
0000
1000
0000
,
0001
0001
0001
0000
,
1000
0000
1000
0000
,
0001
0001
0001
0000
,
1000
1000
0000
0000
0000
0000
0000
0000
,
0001
0001
0000
0000
0000
0000
0000
0000
,
1000
1000
0000
0000
0001
0001
0000
0000
,
1000
1000
0000
0000
0000
0000
0000
0000
,
1000
0000
1000
0000
,
0001
0100
1000
0000
,
0001
0000
0001
0000
,
1000
0100
0001
0000
,
1000
0000
1000
0000
,
0001
0000
0001
0000
,
1000
1000
0001
0001
,
1001
1001
0110
0110
,
2002
0000
3003
0000
,
0020
0000
0030
0000
,
1000
1000
0001
0001
,
1000
0100
0001
0100
,
1000
1000
0001
0001
,
1000
0100
0001
0000
,
1001
0000
1001
0000
,
0001
0100
1000
0100
,
1001
0000
1001
0000
,
0010
0010
0100
0100
,
2002
0000
0000
3003
,
0000
0000
0000
0000
;

//---------------dance-single - ----------------
#NOTEDATA:;
#CHARTNAME:;
#STEPSTYPE:dance-single;
#DESCRIPTION:;
#CHARTSTYLE:;
#DIFFICULTY:Medium;
#METER:9;
#RADARVALUES:0.331969,0.481536,0.201339,0.117448,0.000000,277.000000,253.000000,24.000000,14.000000,0.000000,0.000000,0.000000,0.000000,0.000000,0.331969,0.481536,0.201339,0.117448,0.000000,277.000000,253.000000,24.000000,14.000000,0.000000,0.000000,0.000000,0.000000,0.000000;
#CREDIT:;
#DISPLAYBPM:149.000000;
#NOTES:
0000
0000
0000
0000
,
0000
0000
0000
0000
,
1000
0000
0001
0000
,
1000
0100
0001
0000
1000
0000
0000
0000
,
0001
0000
1000
0000
,
0001
0100
1000
0000
0001
0000
0000
0000
,
0010
0020
0000
0000
0000
0130
0000
0100
,
1000
2000
0000
0000
3000
0001
0000
0001
,
1000
0010
0000
0000
1000
0010
0000
0000
,
0001
0100
0000
0000
0000
0000
0000
0000
,
2002
0000
0000
0000
,
0000
3003
0000
0000
,
0100
0000
0000
0000
,
0010
0000
0000
0000
,
0100
0000
0000
0000
,
0002
0000
0000
0003
,
1000
0100
1000
0000
,
0001
0100
0001
0000
,
0010
0100
0010
0000
,
0010
1000
0001
0000
,
1000
0010
1000
0000
0100
1000
0100
0000
,
1000
0001
0100
0000
0010
0000
0100
0000
,
0001
0010
0001
0000
0100
0001
0100
0000
,
0010
1000
0100
0010
0001
0000
0000
0000
,
1100
0000
0000
0000
,
0101
0000
0000
0000
,
0011
0000
1010
0000
,
1100
1100
0101
0101
,
2200
0000
0000
3300
,
0100
0100
1000
0001
,
0100
0100
0001
1000
,
0100
1000
0100
0001
,
0110
0110
1001
0000
,
0001
1000
0000
1000
0000
0100
0000
0100
,
0000
0001
0000
0001
0010
0100
0100
0000
,
1000
0001
0000
0001
0000
0010
0000
0010
,
0001
1000
0100
0000
1001
0000
0000
0000
,
0010
0001
1000
0001
,
0100
0000
1000
0000
0001
0000
0100
0001
,
0010
1000
0100
0001
,
0010
1000
0001
0000
,
0010
1000
0100
0000
0010
1000
0100
0000
,
1000
0010
1010
0101
,
0010
0010
1000
0000
0010
0010
0001
0000
,
0110
0110
1001
0000
,
0010
0100
0010
0000
0010
0100
0010
0000
,
0010
1000
0010
1000
0100
0000
0100
0000
,
0010
0100
0010
0000
0010
0100
0010
0000
,
0010
0001
0010
0001
0100
0000
0100
0000
,
0010
1000
0000
0000
0000
0000
0000
0000
,
0010
1000
0000
0000
0000
0000
0000
0000
,
0010
1000
0000
0000
0100
0010
0000
0000
,
0002
2000
0000
0000
0000
0000
3003
0000
,
1000
0001
0100
0010
,
1000
0000
0001
0000
0010
0100
0100
0000
,
1000
1000
0010
0010
,
1000
0001
0100
0000
1001
0000
0000
0000
,
0100
0000
0000
0000
0010
0001
0100
0000
,
0010
0000
0000
0000
1000
0100
0010
0000
,
1000
1000
0001
0001
,
1000
0001
0100
0000
0001
1000
0100
0000
,
0020
0000
0000
0030
,
2002
0000
0000
3003
,
0001
1000
0000
1000
0010
0100
0001
0000
,
1000
0001
0000
0001
0010
0100
1000
0000
,
0001
0100
0001
0000
1000
0100
1000
0000
,
1000
0001
0100
0000
1001
0000
0000
0000
,
0100
1000
0000
0000
0001
0000
0100
0000
,
0100
0001
0000
0000
1000
0000
0100
0000
,
0100
0100
0000
0000
0010
0010
0000
0000
,
0001
1000
0100
0000
0110
0000
0000
0000
,
2002
0000
0000
3003
,
0000
0000
0000
0000
;

//---------------dance-single - ----------------
#NOTEDATA:;
#CHARTNAME:;
#STEPSTYPE:dance-single;
#DESCRIPTION:;
#CHARTSTYLE:;
#DIFFICULTY:Hard;
#METER:11;
#RADARVALUES:0.494958,0.722303,0.469791,0.109059,0.000000,413.000000,357.000000,56.000000,13.000000,0.000000,0.000000,0.000000,0.000000,0.000000,0.494958,0.722303,0.469791,0.109059,0.000000,413.000000,357.000000,56.000000,13.000000,0.000000,0.000000,0.000000,0.000000,0.000000;
#CREDIT:;
#DISPLAYBPM:149.000000;
#NOTES:
0000
0000
0000
0000
,
0000
0000
0000
0000
,
0001
0100
1000
0000
0001
0100
1000
0000
,
0001
0100
0001
0000
0100
0000
0100
0000
,
1000
0010
0001
0000
1000
0010
0001
0000
,
1000
0010
1000
0000
0100
0000
0100
0000
,
1001
1001
0000
0000
0000
0001
0100
0010
,
0110
0110
0000
0000
0000
0010
1000
0001
,
1001
1001
0000
0000
1001
1001
0000
0000
,
0110
0110
0000
0000
0000
0000
0000
0000
,
0200
0000
0000
0000
,
0000
0000
0300
0000
,
0010
1000
0100
0000
0010
0100
1000
0000
,
0010
0001
0100
0000
1010
0000
0101
0000
,
0010
1000
0100
0000
0010
0100
1000
0000
,
0010
0001
1000
0000
0011
0000
0000
0000
,
0010
0001
0100
0000
0010
0100
0001
0000
,
0010
1000
0100
0000
0011
0000
1100
0000
,
0010
0001
0100
0000
0010
0100
0001
0000
,
0010
1000
0001
0000
1100
0000
0000
0000
,
0000
0100
1000
0010
0000
0100
1000
0010
,
0000
0100
0001
0010
1000
0000
0101
0000
,
0000
0100
1000
0010
0000
0100
1000
0010
,
1000
0010
0001
0100
0010
0000
0000
0000
,
0000
0100
0001
0010
0000
0100
0001
0010
,
0000
0100
1000
0010
0001
0000
1100
0000
,
0000
0100
0001
0010
0000
0100
0001
0010
,
0100
1000
0100
0010
0100
0000
0000
0000
,
2002
0000
0000
3003
,
0001
0100
1000
0000
0010
1000
0100
0000
,
0100
1000
0001
0000
0100
0100
0100
0000
,
1000
0100
0001
0000
0010
0001
0100
0000
,
0100
0001
1000
0010
0200
0000
0300
0000
,
1000
0100
0001
0000
0010
0001
0100
0000
,
0100
0001
1000
0000
0100
0100
0100
0000
,
0001
0100
1000
0000
0010
1000
0100
0000
,
0100
1000
0001
0010
0200
0000
0300
0000
,
0010
1000
0100
0000
0010
1000
0100
0000
,
0010
0001
0100
0000
1010
0000
0101
0000
,
0010
1000
0100
0000
0010
1000
0100
0000
,
0010
0001
1000
0000
0011
0000
1100
0000
,
0010
0001
0100
0000
0010
0001
0100
0000
,
0010
1000
0100
0000
0011
0000
1100
0000
,
0010
0001
0100
0000
0010
0001
0100
0000
,
0010
1000
0001
0000
1100
0000
0000
0000
,
1000
0100
1000
0000
1000
0100
1000
0000
,
0001
0100
0001
0000
1000
0010
0001
0000
,
0001
0010
0001
0000
0001
0010
0001
0000
,
1000
0010
1000
0000
0001
0100
1000
0000
,
1001
1001
0000
0000
0000
0001
0100
0010
,
0110
0110
0000
0000
0000
0010
1000
0001
,
1001
1001
0000
0000
1001
1001
0000
0000
,
1010
1010
0000
0000
0000
0000
0000
0000
,
0001
0100
1000
0000
0010
1000
0100
0000
,
0100
1000
0001
0100
0010
0010
0010
0000
,
1000
0100
0001
0000
0010
0001
0100
0010
,
0100
0001
1000
0010
0200
0000
0300
0000
,
1000
0100
0001
0000
0010
0001
0100
0010
,
1000
0100
0001
0000
0010
0001
0100
0010
,
1000
1001
0010
0110
,
1000
0001
1000
0001
0100
0010
0100
0010
,
2002
0000
0000
3003
,
0220
0000
0000
0330
,
0001
0100
1000
0100
0010
1000
0100
0000
,
0100
1000
0001
0010
0100
0100
0100
0000
,
1000
0100
0001
0100
0010
0001
0100
0010
,
0100
0001
1000
0010
0200
0000
0300
0000
,
1100
0000
0001
0010
0101
0000
0101
0000
,
0010
1000
0001
0100
1010
1010
1010
0000
,
0101
0101
0101
0000
1010
1010
1010
0000
,
1100
0101
0110
0000
,
2002
0000
0000
3003
,
0000
0000
0000
0000
;

//---------------dance-single - ----------------
#NOTEDATA:;
#CHARTNAME:;
#STEPSTYPE:dance-single;
#DESCRIPTION:;
#CHARTSTYLE:;
#DIFFICULTY:Challenge;
#METER:14;
#RADARVALUES:0.588437,0.783858,0.176172,0.151004,0.302008,491.000000,470.000000,21.000000,18.000000,0.000000,0.000000,0.000000,0.000000,0.000000,0.588437,0.783858,0.176172,0.151004,0.302008,491.000000,470.000000,21.000000,18.000000,0.000000,0.000000,0.000000,0.000000,0.000000;
#CREDIT:;
#DISPLAYBPM:149.000000;
#NOTES:
0000
0000
0000
0000
,
0000
0000
0000
0000
,
0000
0010
0000
0010
0000
0010
0000
0010
,
1000
0000
0001
0000
0000
0100
0100
0100
,
0000
0010
0000
0010
0000
0010
0000
0010
,
0001
0000
1000
0000
0000
0100
0100
0100
,
0010
0110
0000
0000
0000
1000
0100
0001
,
0010
0110
0000
0000
0000
0001
0100
1000
,
0010
0110
0000
0100
0010
0110
0000
0100
,
1001
1001
0000
0000
0000
0000
0000
0000
,
0220
0000
0000
0000
,
0000
0000
0000
0330
,
0000
0001
0100
1000
0000
0100
1000
0010
,
0000
0100
1000
0010
1000
0001
1000
0100
,
0000
0001
0100
1000
0000
0100
1000
0010
,
0001
0010
1000
0100
0001
0001
0100
0010
,
0000
1000
0100
0001
0000
0100
0001
0010
,
0000
0100
0001
0010
1000
0010
0001
0100
,
0000
1000
0100
0001
0000
0100
0001
0010
,
0001
0010
0100
1000
0001
0000
0000
0000
,
0000
1000
0100
0020
0030
0001
0100
0020
,
0030
1000
0001
0010
1000
0010
0001
0100
,
0000
1000
0100
0020
0030
0001
0100
0020
,
1030
0100
0001
0100
1000
0000
0000
0000
,
1001
0000
0000
0000
,
0010
0000
0000
0000
,
1000
0000
0001
0000
,
0100
0001
1000
0010
,
2002
0000
0000
3003
,
1000
0000
1000
0000
0010
0001
0010
1000
0010
0000
0100
0000
0100
0000
0000
0000
,
0001
0000
0001
0010
0000
0100
1000
0100
0010
0000
0001
0000
0100
0000
0100
0000
,
0010
0000
1000
0000
0001
0010
1000
0010
0001
0000
0100
0000
0100
0000
0000
0000
,
1000
0001
0010
0100
2000
0000
0000
3000
,
0001
0000
0001
0000
0010
1000
0010
0001
0010
0000
0100
0000
0100
0000
0000
0000
,
1000
0000
1000
0010
0000
0100
0001
0100
0010
0000
1000
0000
0100
0000
0100
0000
,
0010
0000
0001
0000
1000
0010
0001
0010
1000
0000
0100
0000
0100
0000
0100
0010
,
0001
1000
0010
0100
0002
0000
0000
0003
,
1000
0000
0001
0000
1000
0100
0001
0000
0100
0000
0010
0000
0100
1000
0010
0000
,
0001
0000
1000
0000
0001
0010
1000
0000
0001
0000
0010
0000
0100
0000
0100
0000
,
0000
0001
0100
1000
0000
0001
1000
0010
,
0100
0001
1000
0001
1000
1100
0011
0000
,
0001
0000
1000
0000
0001
0100
1000
0000
0100
0000
0010
0000
0100
0001
0010
0000
,
1000
0000
0001
0000
1000
0010
0001
0000
1000
0000
0010
0000
0100
0000
0100
0000
,
0000
1000
0100
0001
0000
1000
0001
0010
,
0100
1000
0001
1000
0001
0101
1010
0000
,
0100
0010
0100
0010
0100
0010
0100
0010
,
0001
0000
1000
0000
0000
0010
0010
0100
,
0100
0010
0100
0010
0100
0010
0100
0010
,
1000
0000
0001
0000
0000
0010
0010
0100
,
0010
0100
0010
0000
0000
0000
0000
0000
0000
0000
0001
0000
0100
0000
1000
0000
,
0010
0100
0010
0000
0000
0000
0000
0000
0000
0000
1000
0000
0100
0000
0001
0000
,
0010
0100
0010
0000
0000
0000
0100
0000
0010
0100
0010
0000
0000
0000
0100
0000
,
1000
0001
1000
0000
0000
0000
0000
0000
0000
0000
0000
0000
0000
0000
0000
0000
,
1000
0000
1000
0000
0100
0001
0010
1000
0010
0000
0001
0000
0100
0000
0100
0010
,
1000
0000
1000
0010
0000
0010
0001
0010
1000
0000
0100
0000
0010
0000
0010
0000
,
0100
0000
0100
0000
0001
0100
1000
0100
0001
0000
0010
0000
0010
0000
0010
0100
,
1000
0001
0100
0010
2200
0000
0000
3300
,
0001
0000
0001
0000
0100
1000
0010
0001
0010
0000
1000
0000
0100
0000
0000
0000
,
1000
0000
1000
0000
0100
0001
0010
1000
0010
0000
0001
0000
0100
0000
0001
0010
,
0001
0000
0001
0100
1000
0000
1000
0100
0001
0000
0001
0100
1000
0000
1000
0100
,
0001
0010
0001
0000
1000
0100
1000
0000
0001
0010
0001
0000
1000
0100
1000
0000
,
2002
0000
0000
3003
,
0010
0100
0010
0001
1000
0100
0001
0100
0000
0000
0000
0000
0000
0000
0000
0000
,
1000
0000
1000
0100
0010
0001
0010
1000
0010
0000
0100
0000
0100
0000
0100
0010
,
0001
0000
0001
0010
0000
0100
1000
0100
0010
0000
0001
0000
0100
0000
0100
0000
,
0010
0000
0010
0100
0001
0010
1000
0010
0001
0000
0100
0000
0100
0000
0100
0010
,
1000
0001
0010
0100
2200
0000
0000
3300
,
1001
0000
0101
0000
0010
1000
0100
1000
0010
0000
0110
0000
0100
0010
0100
0000
,
0001
0000
0001
0000
0010
0100
0010
0100
0010
0000
1000
0000
0010
0000
0010
0000
,
0100
0000
0100
0000
0010
0001
0010
0001
1000
0000
0001
0000
0010
1000
0010
0001
,
1000
0010
0100
0001
0101
0000
0000
0000
,
2002
0000
0000
0000
0000
0000
0000
3003
,
0000
0000
0000
0000
;

//---------------dance-double - ----------------
#NOTEDATA:;
#CHARTNAME:;
#STEPSTYPE:dance-double;
#DESCRIPTION:;
#CHARTSTYLE:;
#DIFFICULTY:Easy;
#METER:5;
#RADARVALUES:0.209728,0.391248,0.075502,0.125837,0.000000,175.000000,166.000000,9.000000,15.000000,0.000000,0.000000,0.000000,0.000000,0.000000,0.209728,0.391248,0.075502,0.125837,0.000000,175.000000,166.000000,9.000000,15.000000,0.000000,0.000000,0.000000,0.000000,0.000000;
#CREDIT:;
#DISPLAYBPM:149.000000;
#NOTES:
00000000
00000000
00000000
00000000
,
00000000
00000000
00000000
00000000
,
00010000
00000000
00001000
00000000
,
00000010
00001000
00010000
00000000
,
00001000
00000000
00010000
00000000
,
00100000
00010000
00001000
00000000
,
00000010
00000010
00000000
00000000
00001000
00000000
00010000
00000000
,
00100000
00100000
00000000
00000000
10000000
00000000
01000000
00000000
,
00010000
00001000
00000000
00000000
00010000
00001000
00000000
00000000
,
00010000
01000000
00001000
00000100
,
00022000
00000000
00000000
00000000
,
00000000
00000000
00033000
00000000
,
00000010
00000000
00000000
00000000
,
00001000
00000000
00000000
00000000
,
00010000
00000000
00000000
00000000
,
01000000
00000000
10000000
00000000
,
00100000
00000000
00000000
00000000
,
00010000
00000000
00000000
00000000
,
00001000
00000000
00000000
00000000
,
00000200
00000000
00000000
00000300
,
00000002
00000000
00000000
00000000
,
00000020
00000003
00000000
00000000
,
00002000
00000030
00000000
00000000
,
00020000
00033000
00000000
00000000
,
00011000
00000000
00000000
00000000
,
00000010
00000000
00000000
00000000
,
00011000
00000000
00100000
00000000
,
00011000
00010010
00011000
00101000
,
00022000
00000000
00033000
00000000
,
00000010
00000000
00000010
00000000
,
00000010
00001000
00010000
00000000
,
00100000
00000000
00100000
00000000
,
00100000
00010000
00001000
00000000
,
00000010
00000000
00000001
00000000
,
00000010
00001000
00010000
00000000
,
00100000
00000000
10000000
00000000
,
00100000
00010000
00001000
00000000
,
00000010
00000000
00000001
00000000
,
00000010
00000000
00001000
00010000
,
00100000
00000000
10000000
00000000
,
00100000
00000000
00010000
00001000
,
00000010
00000001
00000200
00000000
,
00000000
00000300
00001000
00010000
,
00100000
10000000
02000000
00000000
,
00000000
03000000
00010000
00001000
,
00010000
00000000
00001000
00000000
,
00000010
00001000
00010000
00000000
,
00001000
00000000
00010000
00000000
,
00100000
00010000
00001000
00000000
,
00000010
00000010
00000000
00000000
00001000
00000000
00010000
00000000
,
00100000
00100000
00000000
00000000
10000000
00000000
01000000
00000000
,
00010000
00001000
00000000
00000000
00010000
00001000
00000000
00000000
,
00010000
00001000
00000000
00000000
00000000
00000000
00000000
00000000
,
00100000
00000000
00100000
00000000
,
00100000
00010000
00001000
00000000
,
00000010
00000000
00000010
00000000
,
00000010
00001000
00010000
00000000
,
00100000
00000000
00010000
00001000
,
00000100
00000000
00001000
00010000
,
01000000
00001000
00000100
00010000
,
01000000
00001000
00000100
00010000
,
00002000
00000000
00000000
00003000
,
00020000
00000000
00000000
00030000
,
00100000
00010000
00001000
00000000
,
00000010
00001000
00010000
00000000
,
00100000
01000000
00100000
01000000
,
00100000
00010000
00001000
00000000
,
00000010
00001000
00010000
00000000
,
00100000
00010000
00001000
00000000
,
00000010
00000100
00000010
00000100
,
00000010
00001000
00010000
00000000
,
00022000
00000000
00000000
00033000
,
00000000
00000000
00000000
00000000
;

//---------------dance-double - ----------------
#NOTEDATA:;
#CHARTNAME:;
#STEPSTYPE:dance-double;
#DESCRIPTION:;
#CHARTSTYLE:;
#DIFFICULTY:Medium;
#METER:9;
#RADARVALUES:0.333168,0.451440,0.268452,0.058724,0.000000,278.000000,246.000000,32.000000,7.000000,0.000000,0.000000,0.000000,0.000000,0.000000,0.333168,0.451440,0.268452,0.058724,0.000000,278.000000,246.000000,32.000000,7.000000,0.000000,0.000000,0.000000,0.000000,0.000000;
#CREDIT:;
#DISPLAYBPM:149.000000;
#NOTES:
00000000
00000000
00000000
00000000
,
00000000
00000000
00000000
00000000
,
10000000
00000000
10000000
00000000
,
00100000
00010000
00001000
00000000
00000100
00000000
00000000
00000000
,
00000001
00000000
00000001
00000000
,
00000010
00001000
00010000
00000000
01000000
00000000
00000000
00000000
,
00100000
00000000
00000000
00000000
00000000
00010000
00001000
00000000
,
00000010
00000000
00000000
00000000
00000000
00001000
00010000
00000000
,
00100000
00000000
00100000
00000000
,
00010000
00001000
00000000
00000000
00000000
00000000
00000000
00000000
,
00000020
00000000
00000000
00000000
,
00000000
00000000
00000030
00000000
,
00010000
00000000
00001000
00000000
,
00000100
00000000
00000000
00000001
00000010
00000000
00000000
00000000
,
00001000
00000000
00000000
00000000
00010000
00000000
00000000
00100000
,
10000000
00000000
00000000
01000000
00010000
00000000
00000000
00000000
,
00001000
00000000
00010000
00000000
,
01000000
10000000
00100000
00000000
00010000
00001000
00000100
00000000
,
00000001
00000000
00000000
00000000
00000010
00000000
00000000
00001000
,
00010000
00000000
00000000
00010000
00001000
00000000
00000000
00000000
,
00010000
00000000
01000000
00000000
,
10000000
00000000
00100000
00000000
00100000
00010000
00001000
00000000
,
00001000
00000000
00000010
00000000
,
00001000
00010000
00001000
00000000
00000100
00000000
00000000
00000000
,
00001000
00000000
00000100
00000000
,
00000001
00000010
00000010
00000000
,
00000010
00001000
00010000
00000000
00001000
00010000
01000000
00000000
,
00010000
00010000
00001000
00001000
,
00000200
00000000
00000000
00000300
,
00000100
00000001
00000010
00000000
,
00001000
00000000
00010000
01000000
01000000
00000000
00000000
00000000
,
00100000
00001000
00010000
00000100
,
00001100
00011000
00110000
00000000
,
01000000
10000000
00100000
00000000
,
00010000
00000000
00001000
00000010
00000010
00000000
00000000
00000000
,
00000100
00010000
00001000
00100000
,
00010000
01000000
00001000
00000000
00010000
00000000
00000000
00000000
,
00001000
00010000
01000000
10000000
,
00100000
00010000
00001000
00000000
00010000
00000000
00000000
00000000
,
00010000
00001000
00000100
00000000
00000001
00000000
00000010
00000000
,
00001000
00010000
00001000
00000000
00011000
00000000
00000000
00000000
,
00010000
00001000
00000100
00000000
,
00000010
00001000
00010000
00000000
00001000
00000000
00000000
00000000
,
00001000
00010000
01000000
00000000
10000000
00000000
00100000
00000000
,
00010000
00001000
00010000
00000000
00011000
00000000
00000000
00000000
,
00001000
00010000
00001000
00000000
01000000
00010000
01000000
00000000
,
10100000
01010000
00011000
00000000
,
00010000
00001000
00010000
00000000
00000100
00001000
00000100
00000000
,
00000011
00001100
00011000
00000000
,
01010000
01010000
00000000
00000000
00000000
00000000
00000000
00000000
,
00001100
00001100
00000000
00000000
00000000
00000000
00000000
00000000
,
00001010
00001010
00000000
00000000
00000101
00000101
00000000
00000000
,
00000011
00000011
00000000
00000000
00000000
00000000
00000000
00000000
,
00000010
00010000
00001000
00000000
,
00010000
00000000
00001000
00000100
00000100
00000000
00000000
00000000
,
00000010
00010000
00001000
01000000
,
01010000
00011000
00001010
00000000
,
00000100
00000001
00000010
00000000
,
00001000
00010000
00001000
00000000
,
00000010
00001000
00010000
00000000
00001000
00010000
00001000
00000000
,
00010000
01000000
10000000
00000000
00010000
10000000
00010000
00000000
,
02000000
00000000
00000000
03000000
,
20020000
00000000
00000000
30030000
,
01000000
10000000
00100000
00000000
10000000
00010000
00100000
00000000
,
00001000
00010000
00000100
00001000
00000010
00000100
00000100
00000000
,
00000100
00000001
00000010
00000000
00000001
00001000
00000010
00000000
,
00000011
00001100
00000101
00000000
,
00000100
00000001
00000010
00000001
00001000
00000001
00000010
00000000
,
00001000
00010000
00001000
00000000
00010000
01000000
10000000
00000000
,
00100000
00100000
00000000
01000000
00100000
00100000
01000000
00000000
,
11000000
11000000
01010000
00000000
,
00022000
00000000
00000000
00033000
,
00000000
00000000
00000000
00000000
;

//---------------dance-double - ----------------
#NOTEDATA:;
#CHARTNAME:;
#STEPSTYPE:dance-double;
#DESCRIPTION:;
#CHARTSTYLE:;
#DIFFICULTY:Hard;
#METER:11;
#RADARVALUES:0.488966,0.541727,0.352343,0.083891,0.000000,408.000000,366.000000,42.000000,10.000000,0.000000,0.000000,0.000000,0.000000,0.000000,0.488966,0.541727,0.352343,0.083891,0.000000,408.000000,366.000000,42.000000,10.000000,0.000000,0.000000,0.000000,0.000000,0.000000;
#CREDIT:;
#DISPLAYBPM:149.000000;
#NOTES:
00000000
00000000
00000000
00000000
,
00000000
00000000
00000000
00000000
,
00001000
00010000
00001000
00000000
00001000
00010000
00001000
00000000
,
00000010
00001000
00010000
00000000
00010000
00000000
01000000
00000000
,
00010000
00001000
00010000
00000000
00010000
00001000
00010000
00000000
,
00100000
00010000
00001000
00000000
00001000
00000000
00000100
00000000
,
00000011
00000011
00000000
00000000
00000000
00000100
00001000
00000000
,
00011000
00011000
00000000
00000000
00000000
01000000
00010000
00000000
,
00011000
00011000
00000000
00000000
00010100
00010100
00000000
00000000
,
01001000
01001000
00000000
00000000
00000000
00000000
00000000
00000000
,
00022000
00000000
00000000
00000000
,
00000000
00000000
00033000
00000000
,
00000010
00001000
00010000
00000000
00001000
00010000
01000000
00000000
,
00100000
00010000
01000000
00000000
10100000
00000000
01010000
00000000
,
00100000
00010000
00001000
00000000
00010000
00001000
00000100
00000000
,
00000001
00000010
00001000
00010000
00011000
00000000
00000000
00000000
,
00100000
00010000
00001000
00000000
00010000
00001000
00000100
00000000
,
00000010
00001000
00000100
00000000
00000011
00000000
00001100
00000000
,
00000010
00001000
00010000
00000000
00001000
00010000
01000000
00000000
,
10000000
00100000
00010000
00001000
00011000
00000000
00000000
00000000
,
00000000
00000100
00001000
00010000
00000000
00001000
00010000
00100000
,
00000000
10000000
01000000
00010000
00001000
00010000
00001000
00000100
,
00000000
00000100
00001000
00010000
00000000
00001000
00010000
00100000
,
00010000
00001000
00000010
00001000
00010000
00000000
00000000
00000000
,
00000000
01000000
00010000
00001000
00000000
00010000
00001000
00000010
,
00000000
00000001
00000100
00001000
00010000
00001000
00010000
01000000
,
00000000
01000000
00010000
00001000
00000000
00010000
00001000
00000010
,
00001000
00010000
01000000
00010000
00001000
00000000
00011000
00000000
,
00022000
00000000
00000000
00033000
,
00001000
00010000
00001000
00000000
00001000
00000100
00000010
00000000
,
00000001
00000010
00001000
00000000
00001000
00010000
01000000
00000000
,
01000000
10000000
00100000
00000000
00100000
10000000
00100000
00000000
,
00100000
00010000
00001000
00000000
00011000
00000000
00000000
00000000
,
00001000
00010000
00001000
00000000
00001000
00000010
00000100
00000000
,
00000001
00000010
00000001
00000000
00000010
00001000
00010000
00000000
,
00001000
00010000
01000000
00000000
01000000
10000000
00100000
00000000
,
00100000
00010000
00001000
00000000
00011000
00000000
00000000
00000000
,
00100000
00010000
00001000
00000000
00010000
00001000
00000100
00000000
,
00000010
00000001
00000100
00000000
00000011
00000000
00001100
00000000
,
00000010
00001000
00010000
00000000
00001000
00010000
01000000
00000000
,
10000000
00100000
00010000
00001000
00011000
00000000
00000000
00000000
,
00000100
00001000
00010000
00000000
00001000
00010000
01000000
00000000
,
00100000
10000000
01000000
00000000
10100000
00000000
01010000
00000000
,
01000000
00010000
00001000
00000000
00010000
00001000
00000100
00000000
,
00000001
00000010
00001000
00010000
00011000
00000000
00000000
00000000
,
00010000
00001000
00010000
00000000
00010000
00001000
00010000
00000000
,
00000010
00001000
00010000
00000000
00010000
00001000
00000100
00000000
,
00001000
00010000
00001000
00000000
00001000
00010000
00001000
00000000
,
00100000
00010000
00001000
00000000
00001000
00010000
01000000
00000000
,
10100000
10100000
00000000
00000000
00000000
01000000
00010000
00001000
,
00011000
00011000
00000000
00000000
00000000
00000100
00001000
00010000
,
00011000
00011000
00000000
00000000
00101000
00101000
00000000
00000000
,
00010010
00010010
00000000
00000000
00000000
00000000
00000000
00000000
,
00010000
00001000
00010000
00000000
00010000
01000000
00100000
00000000
,
10000000
00100000
00010000
00000000
00010000
00001000
00000100
00000000
,
00000100
00000001
00000010
00000000
00000010
00000001
00000010
00000000
,
00000010
00001000
00010000
00001000
00011000
00000000
00000000
00000000
,
00010000
00001000
00010000
00000000
00000010
00000001
00000100
00000000
,
00010000
00001000
00010000
00000000
00100000
10000000
01000000
10000000
,
00100000
00010000
00001000
00000100
00000001
00000010
00001000
00010000
,
01000000
10000000
00100000
00010000
00001000
00010000
00001000
00000000
,
00020000
00000000
00000000
00030000
,
00002000
00000000
00000000
00003000
,
00010000
00001000
00010000
00000000
00010000
01000000
10000000
00000000
,
10000000
00100000
00010000
00000000
00010000
00001000
00000200
00000300
,
00001000
00010000
00001000
00000000
00001000
00000100
00000001
00000010
,
00000001
00000010
00001000
00010000
00011000
00000000
00000000
00000000
,
00001000
00010000
00001000
00010000
00001000
00000100
00000001
00000010
,
00000001
00000010
00001000
00010000
00001000
00010000
02000000
03000000
,
00010000
00001000
00010000
00001000
00010000
01000000
10000000
00100000
,
10000000
00100000
00010000
00001000
00011000
00000000
00011000
00000000
,
00022000
00000000
00000000
00033000
,
00000000
00000000
00000000
00000000
;

//---------------dance-double - ----------------
#NOTEDATA:;
#CHARTNAME:;
#STEPSTYPE:dance-double;
#DESCRIPTION:;
#CHARTSTYLE:;
#DIFFICULTY:Challenge;
#METER:14;
#RADARVALUES:0.563270,0.663265,0.050335,0.201339,0.201339,470.000000,464.000000,6.000000,24.000000,0.000000,0.000000,0.000000,0.000000,0.000000,0.563270,0.663265,0.050335,0.201339,0.201339,470.000000,464.000000,6.000000,24.000000,0.000000,0.000000,0.000000,0.000000,0.000000;
#CREDIT:;
#DISPLAYBPM:149.000000;
#NOTES:
00000000
00000000
00000000
00000000
,
00000000
00000000
00000000
00000000
,
00000000
00000010
00000000
00000010
00000000
00000010
00000000
00000010
,
00001000
00000000
00010000
00000000
00000000
01000000
01000000
01000000
,
00000000
00100000
00000000
00100000
00000000
00100000
00000000
00100000
,
00010000
00000000
00001000
00000000
00000000
00000100
00000100
00000100
,
00000010
00000010
00000000
00000000
00000000
00001000
00010000
01000000
,
00100000
00100000
00000000
00000000
00000000
00010000
00001000
00000100
,
00000010
00000010
00000000
00000100
00000010
00000010
00000000
00000100
,
00001100
00000000
00000000
00000000
00000101
00000000
00000000
00000000
00000100
00001000
00010000
00000000
00100000
00010000
00001000
00000000
,
00022000
00000000
00000000
00000000
,
00000000
00000000
00000000
00000000
00000000
00000000
00000000
00033000
,
00000000
00010000
01000000
10000000
00000000
10000000
00100000
10000000
,
00000000
10000000
01000000
10000000
00100000
00010000
00001000
00000100
,
00000000
00001000
00000100
00000001
00000000
00000001
00000010
00000001
,
00000100
00000010
00000100
00001000
00010000
01000000
00010000
00000000
,
00000000
00001000
00000100
00000001
00000000
00000001
00000010
00000001
,
00000000
00000000
00000001
00000000
00000100
00000000
00000001
00000000
00000010
00001000
00010000
00000000
01000000
00000000
00000000
00000000
,
00000000
00010000
01000000
10000000
00000000
10000000
00100000
10000000
,
00000000
00000000
00100000
00010000
00001000
00000000
00010000
00001000
00000100
00000000
00001000
00000000
00010000
00000000
00000000
00000000
,
00000000
00000000
01000000
00000000
10000000
00000000
00200000
00000000
00300000
00000000
00010000
00001000
00010000
00000000
00002000
00000000
,
00003000
00010000
00001000
00000100
00000001
00000010
00001000
00010000
,
00000000
00000100
00001000
00000020
00000030
00000100
00000001
00000010
,
00001000
00010000
00100000
10000000
01000000
01000000
00010000
00001000
,
00000020
00000000
00000000
00000000
,
00000032
00000000
00000000
00000000
,
00000203
00000000
00002300
00000000
,
00023000
01000000
00032000
00003100
,
00022000
00000000
00000000
00033000
,
00100000
00100000
10000000
01000000
10000000
00100000
00010000
00000000
,
00001000
00000000
00001000
00000010
00000000
00000100
00001000
00000100
00000010
00000000
00001000
00000000
00010000
00000000
00001000
00000000
,
00000010
00000010
00000001
00000100
00000001
00000010
00001000
00010000
,
00100000
00010000
00001000
00000100
00000002
00000000
00000000
00000003
,
00000010
00000010
00000001
00000100
00000001
00000010
00001000
00000000
,
00010000
00000000
00010000
00100000
00000000
01000000
00010000
01000000
00100000
00000000
00010000
00000000
00001000
00000000
00010000
00000000
,
00100000
00100000
10000000
01000000
10000000
00100000
00010000
00001000
,
00000010
00001000
00010000
01000000
00002000
00000000
00003000
00000000
,
00000100
00000001
00000100
00000001
00000010
00001000
00010000
01000000
,
10000000
01000000
10000000
00100000
00010000
00001000
00000100
00000001
,
00000010
00000001
00000100
00001000
00010000
00100000
10000000
01000000
,
00010000
00001000
00000100
00000001
00000010
00001000
00020000
00000000
,
01030000
10000000
01000000
10000000
00100000
00010000
00001000
00000100
,
00000001
00000100
00000001
00000010
00001000
00010000
01000000
10000000
,
00100000
10000000
01000000
00010000
00001000
00000100
00000001
00000010
,
00001000
00010000
01000000
10000000
00100000
00010000
00002000
00000000
,
00003100
00000010
00000100
00000010
00000100
00000010
00000100
00000010
,
00000100
00000001
00000100
00001000
00000100
00010000
00001000
00000000
,
01000000
00100000
01000000
00100000
01000000
00100000
01000000
00100000
,
01000000
10000000
01000000
00010000
01000000
00001000
00010000
00000000
,
00000010
00000100
00000010
00000000
00000000
00000000
00000000
00000000
00000100
00000000
00000010
00000000
00001000
00000000
00010000
00000000
,
00100000
01000000
00100000
00000000
00000000
00000000
00000000
00000000
01000000
00000000
00100000
00000000
00010000
00000000
00001000
00000000
,
00000010
00000100
00000010
00000000
00000000
00000000
00000000
00000000
00001000
00010000
00001000
00000000
00000000
00000000
00000000
00000000
,
00100000
01000000
00100000
00000000
00000000
00000000
00000000
00000000
00001000
00010000
00001000
00000000
00000010
00000100
00000010
00000000
,
00000010
00000010
00000001
00000100
00000001
00000010
00001000
00000000
,
00010000
00000000
00010000
00100000
00000000
01000000
00010000
01000000
00100000
00000000
00010000
00000000
00001000
00000000
00010000
00000000
,
00100000
00100000
10000000
01000000
10000000
00100000
00010000
00001000
,
00000010
00001000
00010000
01000000
20000000
00000000
00000000
30000000
,
00100000
00100000
10000000
01000000
10000000
00100000
00010000
00001000
,
00000010
00000010
00000001
00000100
00000001
00000010
00001000
00010000
,
00100000
00000000
00010000
00001000
00000010
00000000
00001000
00010000
00100000
00000000
00010000
00001000
00000010
00000000
00001000
00010000
,
00100000
10000000
01000000
00010000
00001000
00000100
00000001
00000010
,
00002020
00000000
00000000
00003030
,
00010000
00001000
00010000
00000010
00001000
00000010
00010000
00001000
00000000
00000000
00000000
00000000
00000000
00000000
00000000
00000000
,
00000010
00000000
00000010
00000001
00000010
00000001
00000100
00000001
00000010
00000000
00001000
00000000
00010000
00000000
00001000
00000000
,
00010000
00000000
00010000
00100000
00000000
01000000
00010000
01000000
00100000
00000000
00010000
00000000
00001000
00000000
00001000
00000000
,
00000010
00000000
00000010
00000001
00000010
00000001
00000100
00000001
00000010
00000000
00001000
00000000
00010000
00000000
00001000
00000000
,
00100000
00010000
10000000
00200000
02000000
00000000
03300000
00000000
,
00100000
00000000
00100000
10000000
00100000
10000000
01000000
10000000
00100000
00000000
00010000
00000000
00001000
00000000
00010000
00000000
,
00001000
00000000
00001000
00000010
00000000
00000100
00001000
00000100
00000010
00000000
00001000
00000000
00010000
00000000
00010000
00000000
,
00100000
00000000
00100000
10000000
00100000
10000000
01000000
10000000
00100000
00000000
00010000
00000000
00001000
00000000
00000100
00000000
,
00000001
00000010
00001000
00010000
00001000
00000000
00000000
00000000
,
00022000
00000000
00000000
00000000
00000000
00000000
00000000
00033000
,
00000000
00000000
00000000
00000000
;

//---------------dance-single - Edit----------------
#NOTEDATA:;
#CHARTNAME:;
#STEPSTYPE:dance-single;
#DESCRIPTION:Edit;
#CHARTSTYLE:;
#DIFFICULTY:Edit;
#METER:16;
#RADARVALUES:0.822134,1.087230,0.771799,0.562071,0.729854,686.000000,594.000000,92.000000,67.000000,0.000000,0.000000,0.000000,0.000000,0.000000,0.822134,1.087230,0.771799,0.562071,0.729854,686.000000,594.000000,92.000000,67.000000,0.000000,0.000000,0.000000,0.000000,0.000000;
#CREDIT:;
#DISPLAYBPM:149.000000;
#NOTES:
// measure 0
0000
0000
0000
0000
,  // measure 1
0000
0000
0000
0000
,  // measure 2
0010
0000
0000
0001
0000
0000
2000
0000
0000
0000
0000
0000
3000
0000
0000
0000
0000
0000
2000
0000
0000
0000
3000
0000
0000
0000
0000
0000
0000
0000
2000
0000
0000
3000
0000
0000
0000
0000
0000
0000
0000
0000
1000
0000
0000
0100
0000
0000
,  // measure 3
0010
0000
0000
0000
0000
0000
0002
0000
0000
0000
0000
0000
0003
0000
0000
0000
0000
0000
0002
0000
0000
0000
0003
0000
0000
0000
0000
0000
0000
0000
0002
0000
0000
0003
0000
0000
0010
0000
0000
0000
0000
0000
0100
0000
0000
1000
0000
0000
,  // measure 4
0010
0000
0000
0001
0000
0000
0200
0000
0000
0000
0000
0000
0300
0000
0000
0000
0000
0000
0200
0000
0000
0000
0300
0000
0000
0000
0000
0000
0000
0000
0200
0000
0000
0300
0000
0000
0000
0000
0000
0000
0000
0000
0100
0000
0000
1000
0000
0000
,  // measure 5
0010
0000
0000
0001
0000
0000
0020
0000
0000
0000
0000
0000
0030
0000
0000
0000
0000
0000
0020
0000
0000
0000
0030
0000
0000
0000
0000
0000
0000
0000
0020
0000
0000
0030
0000
0000
0001
0000
0000
0000
0000
0000
0000
0000
0000
0000
0000
0000
,  // measure 6
1001
0000
0001
0100
2000
0000
0010
0000
0000
0000
0001
0000
0000
0000
3100
0000
,  // measure 7
1001
0000
1000
0100
0002
0000
0010
0000
0000
0000
1000
0000
0000
0000
0103
0000
,  // measure 8
0101
0000
0000
0000
0000
0000
0001
0000
0010
0000
0100
0000
1000
0000
0000
0010
0000
0000
0100
0000
0000
0001
0000
0000
1000
0000
0000
0010
0000
0000
0100
0000
0001
0000
1000
0000
0100
0000
0000
0010
0000
0000
0001
0000
0000
0100
0000
0000
,  // measure 9
0010
0001
0010
0001
0100
0010
0100
0010
1000
0100
0010
0001
0100
0010
1000
0001
,  // measure 10
0020
0000
0000
0000
,  // measure 11
0000
0000
0000
0030
,  // measure 12
1010
0000
0000
0000
0101
0000
0000
0000
2002
0000
0000
3003
0000
0000
0101
0000
,  // measure 13
0000
1100
0000
1010
0000
0010
1000
0100
,  // measure 14
0010
0011
0001
0000
0101
0000
1000
1100
,  // measure 15
0000
0220
0000
0000
0000
0330
0110
0000
,  // measure 16
1010
1000
1100
0000
0110
0010
0011
0101
,  // measure 17
0000
1010
0000
0101
0000
1000
0100
0010
,  // measure 18
0011
0010
0110
0000
1100
0100
0101
1001
,  // measure 19
0000
2002
0000
0000
0000
3003
1001
0000
,  // measure 20
1000
0010
0001
0010
0000
0010
1000
0010
,  // measure 21
0000
0010
0001
0010
1000
0010
0001
0010
,  // measure 22
0100
1000
0100
0001
0000
0100
1000
0100
,  // measure 23
0002
2003
3200
0310
,  // measure 24
2200
0000
0000
3300
,  // measure 25
0202
0000
0000
0303
,  // measure 26
0022
0033
2020
3030
,  // measure 27
2002
3003
0220
0330
2002
3003
0220
0330
,  // measure 28
0020
0000
0000
0000
0000
0000
0000
0000
0000
0030
0000
0000
1000
0100
1000
0100
1000
0100
0010
0001
0010
0001
0010
0001
,  // measure 29
0010
0001
0010
0001
0100
0001
0100
0001
1000
0000
1001
0000
1001
0000
0001
0100
,  // measure 30
1000
0100
1000
0100
0010
0001
0010
0001
1000
0000
1001
0000
1001
0000
1000
0100
,  // measure 31
0001
0010
0001
0010
0100
1000
0100
1000
0001
0000
1001
0000
1001
0000
1000
0010
,  // measure 32
0001
0011
0101
0110
2020
0000
3030
0000
,  // measure 33
1000
0100
1000
0100
0010
0001
0010
0001
0100
0000
0110
0000
1010
0000
1000
0010
,  // measure 34
0001
0010
0001
0010
0100
1000
0100
1000
0010
0000
1010
0000
1100
0000
0100
0010
,  // measure 35
0001
0100
0001
0100
0010
1000
0010
1000
0100
0000
1100
0000
0101
0000
0001
0100
,  // measure 36
0010
1010
1100
0101
0022
0000
0033
0000
,  // measure 37
0010
0001
0100
0000
0010
0001
0100
0000
0010
0001
0100
0001
0010
0000
0100
1000
,  // measure 38
0010
0000
0100
0001
0010
0000
0100
1000
0010
0000
0100
0001
0010
0001
0100
0000
,  // measure 39
0010
1000
0001
0000
0010
0001
1000
0000
0010
1000
0001
1000
0010
0000
0100
0001
,  // measure 40
1000
0000
0100
1000
0001
0000
0100
0001
1000
0000
0100
1000
0001
1000
0100
0010
,  // measure 41
0001
0010
1000
0000
0001
0010
1000
0000
0001
0010
1000
0010
0001
0000
1000
0010
,  // measure 42
0001
0000
1000
0010
0001
0000
1000
0010
0001
0000
1000
0010
0001
0010
1000
0000
,  // measure 43
0001
0010
1000
0000
0001
0010
1000
0000
0001
0010
1000
0010
0001
0000
1000
0010
,  // measure 44
0001
0000
1000
0010
0001
0000
1000
0010
0001
0000
1000
0010
0001
0010
1000
0000
,  // measure 45
0001
0000
0100
0000
0001
0000
0100
0000
1000
0000
0100
0000
1000
0000
0100
0001
,  // measure 46
0020
0001
0000
1000
0000
0001
1030
1001
,  // measure 47
0001
0000
0010
0000
0001
0000
0010
0000
1000
0000
0010
0000
1000
0000
0010
0001
,  // measure 48
0200
1000
0000
0001
0000
1000
0301
1001
,  // measure 49
2000
0200
0000
3300
0000
0000
0000
0000
,  // measure 50
0002
0200
0000
0303
0000
0000
0000
0000
,  // measure 51
0200
0020
0000
0330
2000
0002
0000
3003
,  // measure 52
0020
0200
0000
0000
0000
0000
0330
0000
,  // measure 53
1001
0000
1001
0000
0001
0100
1000
0100
0001
0000
1001
0000
1001
0000
1000
0100
,  // measure 54
0001
0000
0001
0100
1000
0100
0001
0100
1000
0000
1001
0000
1001
0000
0001
0100
,  // measure 55
1000
0000
1000
0100
0001
0100
1000
0100
0001
0000
1001
0000
1001
0000
0001
0100
,  // measure 56
0010
1000
0100
0002
2000
0000
3003
0000
,  // measure 57
0110
0000
0011
0000
1000
0010
0100
0001
0010
0000
0110
0000
0110
0000
0010
1000
,  // measure 58
0001
0000
0100
0001
1000
0100
0010
0001
0010
0000
0011
0000
0011
0000
0010
0100
,  // measure 59
1000
0000
0001
0010
0100
0000
0010
0100
1000
0000
0001
0010
0100
0000
0010
0100
,  // measure 60
1000
0000
0100
0000
1000
0000
0100
0000
0010
0001
0010
0001
1000
0001
0100
0001
,  // measure 61
0020
0000
0000
0000
0000
0000
0000
0000
0000
0000
0000
0000
0000
0000
0000
0000
0000
0000
0000
0000
0000
0000
0000
0000
0000
0000
0000
0000
0000
0000
0000
0000
0000
0000
0000
0000
0001
0000
0000
0000
0000
0000
0000
0000
0000
0000
0000
0000
0000
0000
0000
0000
0000
0000
0000
0000
0000
0000
0000
0000
0000
0000
0000
0000
0000
0000
0000
0000
0000
0000
0000
0000
1030
0000
0000
0000
0000
0000
0000
0000
0000
0000
0000
0000
0000
0000
0000
0000
0000
0000
0000
0000
0000
0000
0000
0000
0001
0000
0000
0000
0000
0000
0010
0000
0000
0000
0000
0000
0100
0000
0000
0000
0000
0000
1000
0000
0000
0000
0000
0000
0100
0000
0000
0000
0000
0000
0000
0000
0010
0000
0000
0000
0000
0000
0000
0000
0001
0000
0000
0000
0000
0000
0000
0000
1000
0000
0000
0000
0000
0000
0000
0000
0000
0000
0000
0000
0100
0000
0000
0000
0000
0000
0000
0000
0000
0000
0000
0000
0010
0000
0000
0000
0000
0000
0000
0000
0000
0000
0000
0000
0001
0000
0000
0000
0000
0000
0000
0000
0000
0000
0000
0000
,  // measure 62
0010
0100
0010
0100
0001
1000
0100
0010
0001
0000
0001
0010
0200
0000
0300
0000
,  // measure 63
1100
0000
0101
0000
0001
0100
1000
0100
0001
0000
1001
0000
1100
0000
1000
0100
,  // measure 64
0001
0000
0001
0010
1000
0010
0001
0010
1000
0000
1010
0000
0011
0000
0001
0100
,  // measure 65
0010
0000
0010
1000
0100
1000
0010
0001
0100
0000
0101
0000
1100
0000
1000
0010
,  // measure 66
0001
0011
1010
1100
0202
0000
0303
0000
,  // measure 67
1001
0000
0000
0000
0000
0000
1001
0000
0000
0000
0000
0000
0001
0000
0000
0010
0000
0000
0100
0000
1000
0000
0010
0000
0100
0000
0000
0001
0000
0000
1000
0000
0000
0100
0000
0000
0010
0000
0000
0000
0000
0000
0010
0000
0000
0001
0000
0000
,  // measure 68
1000
0000
0000
0000
0000
0000
1100
0000
0000
0000
0000
0000
0100
0000
1000
0000
0010
0000
0100
0000
0001
0000
0010
0000
0001
0000
0000
0010
0000
0000
0001
0000
0000
0010
0000
0000
0100
0000
0000
1000
0000
0000
0100
0000
0000
1000
0000
0000
,  // measure 69
0010
0000
0000
0000
0000
0000
0110
0000
0000
0000
0000
0000
0100
0000
0000
0010
0000
0000
1000
0000
0001
0000
1000
0000
0001
0000
0000
0010
0000
0000
0100
0000
0000
1000
0000
0000
0001
0000
1000
0000
0001
0000
1000
0000
0000
0100
0000
0000
,  // measure 70
0010
1010
0011
0101
2200
0000
3300
0000
,  // measure 71
2000
0000
0000
0002
0000
0000
0000
0000
,  // measure 72
3003
0000
0000
0000
;
