#VERSION:0.83;
#TITLE:Sacred Oath;
#SUBTITLE:;
#ARTIST:TЁЯRA;
#TITLETRANSLIT:;
#SUBTITLETRANSLIT:;
#ARTISTTRANSLIT:;
#GENRE:;
#ORIGIN:;
#CREDIT:;
#BANNER:Sacred Oath.png;
#BACKGROUND:Sacred Oath-bg.png;
#PREVIEWVID:;
#JACKET:Sacred Oath-jacket.png;
#CDIMAGE:;
#DISCIMAGE:;
#LYRICSPATH:;
#CDTITLE:;
#MUSIC:Sacred Oath.ogg;
#OFFSET:0.000000;
#SAMPLESTART:40.240002;
#SAMPLELENGTH:15.000000;
#SELECTABLE:YES;
#BPMS:0.000=170.000,
180.000=85.000,
188.000=170.000;
#STOPS:;
#DELAYS:;
#WARPS:;
#TIMESIGNATURES:0.000=4=4;
#TICKCOUNTS:0.000=4;
#COMBOS:0.000=1;
#SPEEDS:0.000=1.000=0.000=0;
#SCROLLS:0.000=1.000;
#FAKES:;
#LABELS:0.000=Song Start;
#BGCHANGES:;
#KEYSOUNDS:;
#ATTACKS:
;

//---------------dance-single - ----------------
#NOTEDATA:;
#CHARTNAME:;
#STEPSTYPE:dance-single;
#DESCRIPTION:;
#CHARTSTYLE:;
#DIFFICULTY:Beginner;
#METER:2;
#RADARVALUES:0.101183,0.161214,0.021143,0.021143,0.000000,67.000000,65.000000,2.000000,2.000000,0.000000,0.000000,0.000000,0.000000,0.000000,0.101183,0.161214,0.021143,0.021143,0.000000,67.000000,65.000000,2.000000,2.000000,0.000000,0.000000,0.000000,0.000000,0.000000;
#CREDIT:;
#NOTES:
0000
0000
0000
0000
,
0000
0000
0000
0000
,
0000
0000
0000
0000
,
0000
0000
0000
0000
,
0000
0000
0000
0000
,
1000
0000
0000
0000
,
0000
0000
0000
0000
,
0001
0000
0000
0000
,
0000
0000
0000
0000
,
0010
0000
0000
0000
,
0000
0000
0000
0000
,
0100
0000
0000
0000
,
0001
0000
0000
0000
,
1000
0000
0000
0000
,
0000
0000
0000
0000
,
0010
0000
0000
0000
,
0000
0000
0000
0000
,
0001
0000
0000
0000
,
0000
0000
0000
0000
,
0010
0000
0000
0000
,
0010
0000
0000
0000
,
1000
0000
0000
0000
,
1000
0000
0000
0000
,
0001
0000
0000
0000
,
0001
0000
0000
0000
,
1000
0000
1000
0000
,
0001
0000
0001
0000
,
1000
0000
0000
0000
,
0010
0000
0000
0000
,
0001
0000
0000
0000
,
0010
0000
0000
0000
,
1000
0000
0000
0000
,
0100
0000
0000
0000
,
0001
0001
0000
0000
,
1000
1000
0000
0000
,
0010
0000
0000
0000
,
0100
0000
0000
0000
,
1000
0000
0000
0000
,
0010
0000
0000
0000
,
0001
0000
0000
0000
,
0100
0000
0000
0000
,
1000
1000
0000
0000
,
0001
0001
0000
0000
,
0010
0000
0000
0000
,
0100
0000
0000
0000
,
0010
0000
0010
0000
,
0010
0000
0010
0000
,
1000
0000
0000
0000
,
0001
0000
0000
0000
,
1000
0000
0002
0000
,
2000
0000
0000
3003
,
0001
0000
1000
0000
,
0001
0000
1000
0000
,
0001
0000
1000
0000
,
0001
0000
0000
0000
,
1000
0000
0010
0000
,
0001
0000
0010
0000
,
1000
0000
0000
0000
,
0001
0000
0000
0000
,
1001
0000
0000
0000
,
0000
0000
0010
0000
,
1001
0000
0000
0000
;

//---------------dance-single - ----------------
#NOTEDATA:;
#CHARTNAME:;
#STEPSTYPE:dance-single;
#DESCRIPTION:;
#CHARTSTYLE:;
#DIFFICULTY:Easy;
#METER:4;
#RADARVALUES:0.169142,0.258999,0.052857,0.169142,0.000000,112.000000,107.000000,5.000000,16.000000,0.000000,0.000000,0.000000,0.000000,0.000000,0.169142,0.258999,0.052857,0.169142,0.000000,112.000000,107.000000,5.000000,16.000000,0.000000,0.000000,0.000000,0.000000,0.000000;
#CREDIT:;
#NOTES:
0000
0000
0000
0000
,
0000
0000
0000
0000
,
0000
0000
0000
0000
,
0000
0000
0000
0000
,
0000
0000
0000
0000
,
1001
0000
0000
0000
,
0001
0000
0000
0000
,
1000
0000
0000
0000
,
0001
0000
0000
0000
,
0010
0000
0000
0000
,
1000
0000
0001
0000
,
1000
0000
0000
0000
,
0001
0001
1000
1000
,
0001
0000
0000
0000
,
0100
0000
0000
0000
,
0100
0000
0000
0000
,
0010
0000
0000
0000
,
1000
0000
0000
0000
,
0100
0000
0000
0000
,
0100
0000
0000
0000
,
0010
0000
0000
0000
,
2000
3000
0020
0030
,
2000
3000
0002
0003
,
0020
0030
0002
0003
,
2000
0000
3000
0000
,
0001
0010
0001
0000
,
1000
0100
1000
0000
,
0002
0003
2000
3000
,
0020
0000
0030
0000
,
1000
1000
0010
0000
,
0001
0001
0100
0000
,
0010
0000
0100
0000
,
1001
0000
0000
0000
,
0010
0000
1000
1000
,
1000
0000
0001
0001
,
0001
0000
0010
0000
,
0200
0000
0300
0000
,
0001
0001
0010
0000
,
1000
1000
0100
0000
,
0010
0000
0000
0000
,
1001
0000
0110
0000
,
1001
0000
0000
0000
,
1000
1000
0001
0001
,
1000
0001
1000
0000
,
0010
0000
0000
0000
,
2000
3000
0020
0030
,
0200
0300
0002
0003
,
1000
0000
0000
0000
,
0001
0000
0100
0000
,
1000
0000
0010
0000
,
2000
0000
0000
3000
,
0010
0001
0010
0000
,
1000
0010
1000
0000
,
0001
0000
1000
0000
,
0001
0000
0000
0000
,
1000
0100
0010
0000
,
0001
0100
0010
0000
,
1000
0100
0001
0100
,
1000
0000
0000
0000
,
1000
0000
0000
0010
,
0000
0000
0100
0000
,
0001
1000
0000
0000
;

//---------------dance-single - ----------------
#NOTEDATA:;
#CHARTNAME:;
#STEPSTYPE:dance-single;
#DESCRIPTION:;
#CHARTSTYLE:;
#DIFFICULTY:Medium;
#METER:7;
#RADARVALUES:0.338284,0.454173,0.169142,0.359427,0.000000,224.000000,208.000000,16.000000,34.000000,0.000000,0.000000,0.000000,0.000000,0.000000,0.338284,0.454173,0.169142,0.359427,0.000000,224.000000,208.000000,16.000000,34.000000,0.000000,0.000000,0.000000,0.000000,0.000000;
#CREDIT:;
#NOTES:
0000
0000
0000
0000
,
0000
0000
0000
0000
,
0000
0000
0000
0000
,
0000
0000
0000
0000
,
0000
0000
0000
0000
,
1001
0000
0000
0000
,
0010
0000
0000
0000
,
0100
0000
0000
0000
,
0001
0000
1000
0000
,
0010
0000
0100
0000
,
0001
0100
0010
0000
,
1000
0000
0100
0000
,
0010
0000
0001
0000
1000
0010
0100
0000
,
0110
0000
0000
0000
,
1000
0001
0010
0001
,
0100
0000
0001
0000
,
1000
0100
0010
0000
,
0110
0000
0000
0000
,
0001
1000
0010
0001
,
0100
0000
0001
1000
,
0010
0100
0010
0000
0001
1000
0010
0000
,
2000
3010
0200
0301
,
0020
0031
2000
3010
,
0200
0301
0002
0103
,
0010
1000
0100
0000
,
0001
0000
0100
0000
0010
1000
0010
0000
,
0100
0000
0010
0000
1000
0100
1000
0000
,
0020
0000
0230
0000
,
0302
0000
1000
1003
,
0010
2001
0100
3001
,
0010
0102
0010
0103
,
2000
3010
0002
0103
,
0001
0101
1000
1100
,
1002
0000
0000
0000
1003
0001
1000
0000
,
0210
0000
0000
0000
0310
0100
0010
0000
,
2000
0100
3002
0010
,
0203
0000
0020
0330
,
0010
1002
0100
0103
,
0010
2100
0010
3010
,
0002
0013
2000
3001
,
1001
0110
1001
0110
,
2001
0000
0001
3100
,
0001
0100
0010
1000
,
0001
0100
0001
0000
1000
0100
1000
0000
,
0020
0000
0230
0000
,
0320
0000
1030
0100
0020
0000
0031
1000
,
0020
0000
0130
0001
0020
0000
0130
0000
,
1000
0001
0100
0001
,
0010
0100
0010
0001
,
1000
0010
0100
0001
,
2000
0000
0200
3300
,
0010
0000
0001
0000
1000
0100
1000
0000
,
0001
0000
0100
0000
0010
1000
0010
0000
,
0100
0001
0100
0010
,
1000
0100
0001
0000
,
1000
0100
0010
0100
2000
0000
3000
0000
,
0010
0100
0010
1000
0002
0000
0003
0000
,
1000
1000
0001
0001
,
1000
0100
0010
0000
0001
0010
0100
0000
,
1000
1000
0000
0001
0001
0000
0100
0100
,
0000
0010
0010
0000
1000
0000
0001
0000
,
1000
0001
0100
0010
0000
0000
0000
0000
;

//---------------dance-single - ----------------
#NOTEDATA:;
#CHARTNAME:;
#STEPSTYPE:dance-single;
#DESCRIPTION:;
#CHARTSTYLE:;
#DIFFICULTY:Hard;
#METER:11;
#RADARVALUES:0.489304,0.681260,0.253713,0.295999,0.042286,324.000000,300.000000,24.000000,28.000000,0.000000,0.000000,0.000000,0.000000,0.000000,0.489304,0.681260,0.253713,0.295999,0.042286,324.000000,300.000000,24.000000,28.000000,0.000000,0.000000,0.000000,0.000000,0.000000;
#CREDIT:;
#NOTES:
0000
0000
0000
0000
,
0000
0000
0000
0000
,
0000
0000
0000
0000
,
0000
0000
0000
0000
,
0000
0000
0000
0000
,
1001
0000
0000
0000
,
0100
0000
0000
0000
,
0010
1000
0000
0000
0001
0000
1000
0000
,
0100
0000
0010
0000
,
0001
0100
0000
0010
0000
0010
0000
0000
,
1000
0100
0001
0100
,
1000
0010
0000
0000
0100
0000
0001
0000
,
0010
0001
0100
0010
1000
0001
0100
0000
,
0110
0000
1000
0001
,
0100
0001
0000
0010
0000
0001
0000
0001
,
1000
0001
0000
0100
0000
0100
0000
0010
,
0000
1000
0000
0001
0000
0001
0000
0010
,
0110
0000
0001
0100
,
0010
1000
0000
0010
0000
1000
0000
1000
,
0000
0001
0000
0010
0000
0001
0000
1000
,
0010
0100
0000
0100
0001
1000
0010
0000
,
1000
0100
0010
0001
0100
1000
0200
0000
,
0301
0010
0001
0100
0010
1000
0200
0000
,
0310
0001
1000
0100
1000
0010
0200
0000
,
0301
0010
1000
0000
0001
0100
1000
0000
,
0001
0100
0010
0100
0001
0010
1000
0010
,
0100
1000
0010
0100
0001
1000
0010
0100
,
0020
0000
0100
0000
0130
0001
0010
0000
,
0200
0000
1000
1300
,
0010
0000
2100
0000
3001
0100
1000
0100
,
0001
0000
1020
0000
0130
0001
0100
1000
,
0100
0000
0011
0000
1000
0010
0100
0000
,
0021
0130
1020
0130
,
1001
0000
0010
0100
1000
0010
0100
0000
,
0011
0000
0100
1000
0010
0100
0001
0000
,
0010
0100
0002
0000
0103
1000
0020
0000
,
0230
0302
2000
3003
,
1000
0000
0102
0000
1003
0100
0001
0100
,
1000
0000
0021
0000
0130
1000
0100
0010
,
0100
0000
1010
0000
0001
1000
0100
0000
,
1010
0110
0011
1100
,
0120
0000
1000
0130
,
0001
0010
0001
0000
1000
0100
1000
0000
,
0010
0100
0001
0100
0010
1000
0100
0010
,
0002
0000
0203
0000
,
0320
0000
0000
0000
1030
0100
0010
0001
2000
0000
0000
0000
3010
0100
0001
0010
,
0200
0000
0000
0000
1300
0001
0100
0010
0002
0000
0000
0000
0013
1000
0100
0010
,
0001
1000
0000
0010
0000
0100
0001
0100
,
0010
1000
0000
0100
0000
0010
0001
0100
,
0010
0100
0000
0001
0000
0100
0010
1000
,
0002
0000
0010
0013
,
0100
0000
1000
0010
0100
1000
0200
0000
,
0301
0000
0010
0100
1000
0010
0200
0000
,
0301
0000
0010
0100
1000
0100
0010
0001
,
0010
0000
0001
0100
1000
0100
0001
0000
,
0010
0100
0001
0020
0100
0000
0031
0000
,
0100
1000
0010
0200
1000
0000
0310
0000
,
1000
0010
1000
0000
0001
0100
0010
0000
,
1000
0010
0001
0010
1000
0100
0010
0000
,
0001
0101
0000
1000
1100
0000
0010
0101
,
0000
0010
1100
0000
0001
0000
0110
0000
,
1001
1000
0100
0010
0000
0000
0000
0000
;

//---------------dance-single - ----------------
#NOTEDATA:;
#CHARTNAME:;
#STEPSTYPE:dance-single;
#DESCRIPTION:;
#CHARTSTYLE:;
#DIFFICULTY:Challenge;
#METER:12;
#RADARVALUES:0.548202,0.940787,0.285427,0.327713,0.084571,363.000000,336.000000,27.000000,31.000000,0.000000,0.000000,0.000000,0.000000,0.000000,0.548202,0.940787,0.285427,0.327713,0.084571,363.000000,336.000000,27.000000,31.000000,0.000000,0.000000,0.000000,0.000000,0.000000;
#CREDIT:;
#NOTES:
0000
0000
0000
0000
,
0000
0000
0000
0000
,
0000
0000
0000
0000
,
0000
0000
0000
0000
,
0000
0000
0000
0000
,
1000
1001
0000
0000
0000
0000
0000
0000
,
0100
0000
0000
0000
,
0010
1010
0000
0000
0001
0000
1000
0000
,
0100
0000
0010
0000
,
0100
0101
0000
0010
0000
0010
0000
0000
,
1000
0000
0100
0000
0001
0000
0100
1000
,
0010
1010
0000
0000
0100
0000
0001
0000
,
0010
0100
1000
0010
0001
0010
0100
1000
,
0110
0000
1000
0001
,
0100
0000
0001
0000
0010
0000
0000
1000
,
0001
1000
0000
0010
0100
0010
0000
0001
,
0010
0001
0000
0100
0001
0100
0000
0010
,
0110
0000
0001
1000
,
0100
0001
1000
0000
0010
0000
0000
1000
,
0010
0100
0000
0001
0010
1000
0000
0001
,
0100
1000
0000
0100
0001
1000
0010
0000
,
1000
0100
0010
0001
0100
1000
0200
0000
,
0301
0010
0001
0100
0010
1000
0200
0000
,
0310
0001
1000
0100
1000
0010
0200
0000
,
0302
0023
0230
0300
,
1000
0010
0100
0010
0001
0010
1000
0100
,
0001
0100
1000
0010
0100
0001
0010
0100
,
1000
0010
0100
0001
0010
0001
1000
0001
,
0100
0010
0100
0010
0100
0010
0100
0010
0200
0000
0000
0000
0300
0000
0000
0000
,
0021
0000
0130
1000
0010
0100
1000
0100
,
0201
0000
0301
0010
0100
0000
1000
0010
,
0100
0010
1000
0010
0001
0010
1000
0100
,
0110
0011
1100
0110
,
1001
0000
0010
0100
1000
0010
0100
0000
,
0011
0000
0100
1000
0010
0100
0001
0000
,
1000
0001
0010
0100
1000
0010
0100
0002
,
2000
0000
0000
3003
,
1020
0000
0130
0001
0010
1000
0001
0100
,
1200
0000
1300
0010
0100
1000
0001
0010
,
0100
0010
0001
0010
1000
0100
0001
0100
,
1100
0110
0011
0101
,
0120
0000
0001
1030
,
0001
0200
0001
0300
1000
0200
1000
0300
,
0010
0100
1000
0100
0010
0001
0100
0010
,
2000
0000
3200
0000
,
0310
0001
0100
1000
0100
0001
0020
0000
0130
1000
0010
0001
0010
1000
0002
0000
,
0013
0100
1000
0010
0001
0010
0200
0000
0301
0100
0010
1000
0100
0001
0200
0000
,
1300
0010
0100
0020
0000
0130
0010
0200
,
0000
0301
0010
0002
0000
0013
0001
0020
,
0000
0130
1000
0200
0000
1300
0100
1000
,
0002
0000
0200
0303
,
0010
0000
1000
0010
0100
1000
0200
0000
,
0301
0000
0010
0100
1000
0010
0200
0000
,
0301
0000
0010
0100
1000
0100
0010
0001
,
0010
0000
0100
1000
0010
0100
0001
0000
,
0100
0010
0001
1000
0001
0010
0100
0010
,
1000
0100
0010
0100
0001
1000
0001
0100
,
1000
0010
0001
0010
1000
0001
0010
0100
,
1000
0010
0100
0001
1000
0100
0010
0000
,
0001
0101
0000
1000
1100
0000
0010
0101
,
0000
0010
1100
0000
0001
0000
0110
0000
,
1001
0010
0100
0010
0000
0000
0000
0000
;

//---------------dance-double - ----------------
#NOTEDATA:;
#CHARTNAME:;
#STEPSTYPE:dance-double;
#DESCRIPTION:;
#CHARTSTYLE:;
#DIFFICULTY:Easy;
#METER:5;
#RADARVALUES:0.244652,0.420873,0.137428,0.306570,0.000000,162.000000,149.000000,13.000000,29.000000,0.000000,0.000000,0.000000,0.000000,0.000000,0.244652,0.420873,0.137428,0.306570,0.000000,162.000000,149.000000,13.000000,29.000000,0.000000,0.000000,0.000000,0.000000,0.000000;
#CREDIT:;
#NOTES:
00000000
00000000
00000000
00000000
,
00000000
00000000
00000000
00000000
,
00000000
00000000
00000000
00000000
,
00000000
00000000
00000000
00000000
,
00000000
00000000
00000000
00000000
,
00000002
00000000
00000000
00000003
,
00002000
00000000
00000000
00003000
,
00000020
00000000
00000000
00000030
,
00002000
00003000
00000200
00000300
,
00020000
00000000
00000000
00030000
,
00002000
00000000
00000000
00003000
,
02000000
00000000
00000000
03000000
,
00200000
00000000
00000000
00300000
,
01100000
00000000
00000000
00000000
,
00100000
00010000
01000000
00000000
,
00001000
01000000
00010000
00000000
,
00001000
00010000
00000010
00000000
,
00000110
00000000
00000000
00000000
,
00000010
00010000
00000100
00000000
,
00010000
00000100
00001000
00000010
,
00000100
00000001
00000100
00000000
,
00000002
00000000
00000013
00000010
,
00000200
00000000
00010300
00010000
,
00002000
00000000
00103000
00010000
,
10000000
00010000
00100000
00000000
,
00001000
00010000
00100000
10000000
,
01000000
00100000
00001000
00000000
,
00010000
00000010
00001000
00000100
,
00002000
00000000
00000000
00003000
,
00001001
00000000
00000010
00010000
,
00000010
00001000
00000010
00000000
,
00010000
00001000
00000100
00001000
,
00010000
00001000
00100000
00100000
,
01100000
00000000
00010000
00001000
,
00011000
00000000
00000010
00001000
,
00020000
00030000
00200000
00300000
,
02000000
00000000
00000000
03000000
,
10010000
00000000
00100000
00001000
,
00100000
00010000
00100000
00000000
,
00001000
00010000
01000000
00010000
,
00011000
00000000
00000110
00000000
,
00002002
00000000
00003003
00000000
,
00000010
00000100
00010000
00001000
,
00010000
01000000
00100000
00100000
,
00020000
00000000
00000000
00030000
,
10000000
01000000
00010000
00000000
00001000
00000010
00000001
00000100
,
00001000
00010000
00100000
10000000
01000000
00000000
00000000
00000000
,
20000000
30000000
02000000
03000000
,
00020000
00030000
00002000
00003000
,
00000010
00000001
00000100
00002000
,
00020000
00000000
00033000
00000000
,
00010000
00001000
00100000
00001000
,
00010000
00000010
00010000
00001000
,
00200000
00300000
02000000
03000000
,
20000000
00000000
30000000
00000000
,
00010000
00010000
01000000
01000000
,
00001000
00001000
00010000
00010000
,
00000100
00000100
00000010
00000010
,
00000002
00000000
00000003
00000000
,
00000011
00000000
00000000
00001100
,
00000000
00000000
00011000
00000000
,
00100000
10010000
00000000
00000000
;

//---------------dance-double - ----------------
#NOTEDATA:;
#CHARTNAME:;
#STEPSTYPE:dance-double;
#DESCRIPTION:;
#CHARTSTYLE:;
#DIFFICULTY:Medium;
#METER:8;
#RADARVALUES:0.341305,0.583937,0.126857,0.317142,0.000000,226.000000,214.000000,12.000000,30.000000,0.000000,0.000000,0.000000,0.000000,0.000000,0.341305,0.583937,0.126857,0.317142,0.000000,226.000000,214.000000,12.000000,30.000000,0.000000,0.000000,0.000000,0.000000,0.000000;
#CREDIT:;
#NOTES:
00000000
00000000
00000000
00000000
,
00000000
00000000
00000000
00000000
,
00000000
00000000
00000000
00000000
,
00000000
00000000
00000000
00000000
,
00000000
00000000
00000000
00000000
,
20000000
00000000
00000000
00000000
,
30020000
00000000
00000000
00000000
,
00230000
00000000
00302000
00000000
,
00023000
00000000
00000000
00000000
,
02030000
00000000
00000000
00000000
,
23000000
00000000
30020000
00000000
,
02030000
00000000
03002000
00000000
,
00023000
00030020
00000230
00000302
,
00000023
00000000
00000000
00000000
,
00000130
00001000
00000001
00000000
,
00000100
00000010
00001000
00000100
,
00010000
00001000
01000000
01000000
,
00200000
00000000
00000000
00000000
,
01300000
00010000
10000000
01000000
,
00100000
00001000
00010000
00001000
,
01000000
00001000
00010000
00000100
,
00001100
00000000
00000000
00000000
00000010
00000001
00000100
00000000
,
00000010
00001000
00000010
00000000
00010000
00000000
00011000
00000000
,
01000000
00000000
00010000
00000000
00100000
10000000
01000000
00000000
,
00100000
00010000
00100000
00000000
01000000
00000000
10010000
00000000
,
02000000
00000000
03010000
00000000
00100000
00001000
00100000
00000000
,
00020000
00000000
00030010
00000000
00001000
00000100
00001000
00000000
,
00000001
00000100
00001000
00000000
00010000
00100000
10000000
00000000
,
02000000
00000000
00000000
03000000
,
10000000
00100000
00010000
00001000
,
00010000
00000000
01000000
00000000
10000000
01000000
10000000
00000000
,
00010000
00100000
00010000
00000000
00001000
00000000
00011000
00000000
,
00020000
00000000
00001000
00031000
,
00000100
00000001
00000100
00001000
,
00000100
00000001
00000010
00001000
,
00000010
00000100
00000010
00000000
00010000
00000000
00000100
00000000
,
00002000
00000000
00000020
00003030
,
00000001
00000010
00001000
00010000
,
00001000
00000000
00000100
00000000
00000001
00000100
00000001
00000000
,
00001000
00000010
00001000
00000000
00000100
00000000
00011000
00000000
,
00010000
01010000
10000000
11000000
,
00020000
00000000
00000000
00030000
,
10000000
00010000
00200000
00001000
,
01300000
00020000
00001000
00130000
,
02000000
00000000
03200000
00000000
,
10300000
01000000
00010000
00001000
00000010
00000001
00000100
00001000
,
00010000
00100000
10000000
01000000
00010000
00001000
00000010
00000001
,
00000201
00000000
00000010
00000310
,
00020000
00000000
00000100
00030100
,
00002000
00000000
00100000
00103000
,
01000000
00000000
01000000
00000000
10000000
00010000
10000000
00000000
,
00100000
00000000
01100000
00000000
00000000
01000000
00010000
00000000
,
00100000
00000000
00101000
00000000
00000000
00001000
00010000
00000000
,
00000010
00000000
00001100
00000000
00000000
00000001
00000010
00000000
,
00000100
00000100
00000100
00000000
,
00010000
00000010
00010000
00000010
00000100
00000000
00000100
00000000
,
00001000
00010000
00001000
00010000
01000000
00000000
01000000
00000000
,
10000000
00100000
00010000
00001000
,
00000010
00001000
00010000
00000000
,
00100000
00100000
00000000
00001000
00001000
00000000
00010000
00010000
,
00000000
00000010
00000010
00000000
00010000
00000000
00011000
00000000
,
00000010
00000100
00001000
00010000
00000000
00000000
00000000
00000000
;

//---------------dance-double - ----------------
#NOTEDATA:;
#CHARTNAME:;
#STEPSTYPE:dance-double;
#DESCRIPTION:;
#CHARTSTYLE:;
#DIFFICULTY:Hard;
#METER:12;
#RADARVALUES:0.490814,0.940787,0.126857,0.454569,0.063428,325.000000,313.000000,12.000000,43.000000,0.000000,0.000000,0.000000,0.000000,0.000000,0.490814,0.940787,0.126857,0.454569,0.063428,325.000000,313.000000,12.000000,43.000000,0.000000,0.000000,0.000000,0.000000,0.000000;
#CREDIT:;
#NOTES:
00000000
00000000
00000000
00000000
,
00000000
00000000
00000000
00000000
,
00000000
00000000
00000000
00000000
,
00000000
00000000
00000000
00000000
,
00000000
00000000
00000000
00000000
,
10200000
00000000
00000000
00000000
,
00320000
00000000
00000000
00000000
,
00031000
00000020
00000000
00000000
00000000
00000000
00000000
00000000
,
00000032
00000000
00000203
00000000
,
00001300
00010000
00000000
00011000
00000000
00100000
00020000
00000000
,
00001000
00000000
00100000
00000000
01000000
00030000
00000000
00010000
,
00001000
00200000
00000000
00000000
01000000
00000000
01000000
00000000
,
10300000
01000000
00100000
01000000
00010000
00001000
00010000
00000010
,
00002000
00000000
00000010
00003200
,
00000010
00000301
00000100
00000000
,
00000001
00001000
00000100
00000000
00010000
00000010
00001000
00000000
,
00000001
00000010
00001000
00000000
00100000
00001000
01000000
00000000
,
00020000
00000000
00100000
02030000
,
00100000
13000000
01000000
00010000
,
01000000
10000000
00100000
00000000
00010000
00001000
00000010
00000000
,
00000001
00000010
00000100
00000000
00010000
00000010
00000100
00000000
,
00000001
00000100
00000002
00000000
00000013
00000100
00010000
00001000
,
00000100
00000010
00002000
00000000
00003001
00000010
00000100
00010000
,
00001000
00010000
02000000
00000000
13000000
00100000
00010000
00001000
,
00010000
01000000
20000000
00000000
30010000
01000000
00010000
00000000
,
10000000
00100000
01000000
00010000
10000000
01000000
00100000
00001000
,
00010000
00001000
00010000
00000010
00000100
00000001
00001000
00000100
,
00000010
00000100
00010000
00001000
01000000
00100000
10000000
00010000
,
00200000
00000000
02000000
03300000
,
10010000
00000000
00001000
00010000
01000000
10000000
00100000
00000000
,
01001000
00000000
00010000
00100000
00001000
00000010
00000100
00000000
,
00001000
00000001
00000100
00000010
00010000
00000100
00000010
00001000
,
00020000
00030020
00000230
00000302
,
00000013
00000100
00001000
00000000
00000010
00010000
00001000
00100000
,
01000000
00010000
01000000
10000000
00100000
01000000
00100000
00000000
,
00010000
00001000
00000010
00000000
00001000
00010000
01000000
00000000
,
00020000
00030020
00000200
00000330
,
00001001
00000000
00010000
00001000
00000100
00000001
00000010
00000000
,
00010100
00000000
00001000
00000010
00010000
00001000
01000000
00000000
,
00010000
10000000
01000000
00100000
00001000
01000000
00100000
00010000
,
00001000
00001100
00010000
00110000
,
00002000
00000000
00000010
00013000
,
00100000
00010000
01000000
00001000
00010000
00001000
00100000
01000000
,
00020000
00032000
00003200
00000302
,
00002003
00000000
00000020
00003030
,
00000001
00000100
00001000
00010000
00100000
10000000
00100000
00000000
00010000
00001000
00000100
00000001
00000010
00001000
00010000
00000000
,
01000000
10000000
00100000
00010000
00001000
00000100
00000001
00000000
00000010
00001000
00010000
01000000
10000000
00100000
01000000
00000000
,
00100000
01000000
00002000
00000000
00003000
00010000
00002000
00000000
,
00003000
00001000
00020000
00000000
00030000
00010000
00002000
00000000
,
00003000
00100000
00001000
00010000
00000000
00000010
00010000
00001000
,
00010000
00000010
00000100
00001000
,
00020000
00000000
00030010
00002000
00000000
00003001
00000010
00000100
,
00002000
00000000
00003001
00000200
00000000
00001300
00010000
00001000
,
02000000
00000000
03001000
00020000
00000000
01030000
00100000
01000000
,
00020000
00000010
00032000
01003000
,
00010000
01000000
00001000
00010000
01000000
00000000
00110000
00000000
,
01000000
00100000
01000000
00001000
00010000
00000000
00011000
00000000
,
00100000
01000000
00001000
00010000
00000100
00000000
00010010
00000000
,
00000001
00001000
00000100
00000010
00000001
00000100
00000010
00000000
,
00010000
00000100
00000000
00001000
00000010
00000000
00010000
00100000
,
00000000
00010000
00001000
00000000
00000010
00000000
00001001
00000000
,
00000100
00001000
00010000
01000000
00000000
00000000
00000000
00000000
;

//---------------dance-double - ----------------
#NOTEDATA:;
#CHARTNAME:;
#STEPSTYPE:dance-double;
#DESCRIPTION:;
#CHARTSTYLE:;
#DIFFICULTY:Challenge;
#METER:13;
#RADARVALUES:0.542161,0.940787,0.126857,0.401713,0.084571,359.000000,347.000000,12.000000,38.000000,0.000000,0.000000,0.000000,0.000000,0.000000,0.542161,0.940787,0.126857,0.401713,0.084571,359.000000,347.000000,12.000000,38.000000,0.000000,0.000000,0.000000,0.000000,0.000000;
#CREDIT:;
#NOTES:
00000000
00000000
00000000
00000000
,
00000000
00000000
00000000
00000000
,
00000000
00000000
00000000
00000000
,
00000000
00000000
00000000
00000000
,
00000000
00000000
00000000
00000000
,
00000001
00000020
00000000
00000000
00000000
00000000
00000000
00000000
,
00002030
00000000
00000000
00000000
,
00013000
00200000
00000000
00000000
00000000
00000000
00000000
00000000
,
20300000
00000000
32000000
00000000
,
03010000
00001000
00000000
00011000
00000000
00000010
00000200
00000000
,
00010000
00000000
00000010
00000000
00010000
00000000
00000310
00001000
,
00010000
00000020
00000000
00000000
00000100
00000000
00000100
00000000
,
00000031
00000010
00001000
00010000
00100000
10000000
00100000
01000000
,
01020000
00000000
00100000
02030000
,
00100000
03020000
10000000
00030000
,
00100000
00001000
01000000
00010000
00000000
00100000
00010000
01000000
,
00000000
00001000
00010000
00001000
00000000
00010000
00000100
00001000
,
00002100
00000000
00000010
00003200
,
00000010
00002300
00000001
00003000
,
00000100
00000001
00000010
00001000
00000000
00010000
00001000
00000100
,
00000000
00000001
00000100
00001000
00000000
00100000
01000000
00000000
,
00010000
01000000
20000000
00100000
30000000
01000000
00001000
00010000
,
01000000
00010000
00001000
02000000
00000000
03100000
01000000
00001000
,
00010000
00001000
00000200
00000010
00000300
00010000
00001000
00010000
,
00001000
00000100
00000001
00000010
00001000
00010000
00001000
00000000
,
00000010
00000001
00001000
00000010
00000100
00001000
00010000
00001000
,
00000100
00000001
00000010
00001000
00010000
00000100
00001000
00100000
,
10000000
01000000
00100000
00001000
00010000
00000010
00001000
00000100
,
00000010
00000100
00000010
00000100
00000010
00000100
00000010
00000100
00000020
00000000
00000000
00000000
00000030
00000000
00000000
00000000
,
00010000
00001000
00000100
00000100
00000001
00000010
00000002
00000000
,
00000013
00001000
00010000
00010000
00001000
00100000
00020000
00000000
,
10030000
00010000
01000000
00001000
01000000
00100000
00010000
00001000
,
00000020
00002030
02003000
23000000
,
31000000
00001000
00010000
00100000
00010000
00000010
00010000
00001000
,
00000010
00000001
00000100
00001000
00010000
00001000
00000100
00000100
,
00000001
00000010
00000100
00010000
00001000
01000000
00100000
10000000
,
02000000
00000000
00200000
03300000
,
00001000
00010000
01000000
01000000
10000000
00010000
20000000
00000000
,
30100000
00010000
00001000
00001000
00010000
00000100
00002000
00000000
,
00003001
00001000
00000100
00010000
00001000
00000010
00001000
00010000
,
01000000
10100000
00011000
00001010
,
00102000
00000000
00000100
01003000
,
00000010
00001000
00000100
00010000
00001000
00010000
00000010
00000100
,
00001000
00010000
00001000
00000010
00000100
00010000
00001000
01000000
,
00200000
00000000
02000000
03300000
,
10000000
00010000
00001000
00000100
00000001
00000100
00001000
00000000
00000010
00001000
00010000
00100000
10000000
00100000
00010000
00000000
,
01000000
00001000
00000100
00000001
00000010
00001000
00010000
00000000
00100000
10000000
00100000
00010000
00001000
00000100
00000001
00000000
,
00000020
00001000
00000000
00001000
00000030
00010000
00001000
00010000
,
00200000
01000000
00000000
01300000
00000000
00001000
00010000
00001000
,
00000200
00000001
00000000
00000301
00000000
00000010
00000100
00001000
,
00000100
00000000
00010000
00000000
00000010
00000000
00001000
00010000
,
02000000
00000000
13000000
00100000
00010000
00001000
00010000
00001000
,
00000200
00000000
00000301
00000010
00001000
00000010
00001000
00010000
,
00200000
00000000
10300000
00100000
10000000
01000000
00010000
00001000
,
00020000
00100000
00032000
00000100
,
00013000
01000000
10000000
01000000
00010000
00001000
00010000
00000010
,
00000100
00000001
00000100
00000010
00010000
00001000
00100000
01000000
,
00100000
01000000
10000000
00010000
01000000
00001000
00100000
00010000
,
01000000
10000000
01000000
00100000
00010000
00001000
00000010
00000000
,
00000100
00000110
00000000
00010000
00011000
00000000
00100000
00110000
,
00000000
00001000
00001010
00000000
00010000
00000000
01100000
00000000
,
00010000
00001000
00000100
00000001
00000000
00000000
00000000
00000000
;

//---------------dance-single - Edit----------------
#NOTEDATA:;
#CHARTNAME:;
#STEPSTYPE:dance-single;
#DESCRIPTION:Edit;
#CHARTSTYLE:;
#DIFFICULTY:Edit;
#METER:15;
#RADARVALUES:0.747548,1.005669,0.369998,0.560283,0.650140,495.000000,460.000000,35.000000,53.000000,0.000000,0.000000,0.000000,0.000000,0.000000,0.747548,1.005669,0.369998,0.560283,0.650140,495.000000,460.000000,35.000000,53.000000,0.000000,0.000000,0.000000,0.000000,0.000000;
#CREDIT:;
#NOTES:
// measure 0
0000
0000
0000
0000
,  // measure 1
0000
0000
0000
0000
,  // measure 2
0000
0000
0000
0000
,  // measure 3
0000
0000
0000
0000
,  // measure 4
0000
0000
0000
0000
,  // measure 5
2000
0002
0000
0000
0000
0000
3003
0200
,  // measure 6
0000
0000
0000
0300
,  // measure 7
0020
2000
0000
3030
1000
0000
0100
0000
,  // measure 8
0020
0000
0000
0032
0000
0000
0103
0000
,  // measure 9
0200
0002
0303
1000
0000
2200
3300
0000
,  // measure 10
1000
0010
0100
0001
1000
0100
0010
0001
,  // measure 11
0010
0100
0010
0000
0001
0000
1000
0000
0001
1000
0001
0000
0010
0000
0100
0000
,  // measure 12
1000
0100
1000
0100
0010
0001
0010
0001
1000
0010
1000
0010
0100
0001
0100
0001
,  // measure 13
0200
0000
0001
0001
1300
0000
0001
1000
,  // measure 14
0000
0000
1100
0000
0000
0000
1010
0000
0000
0000
0101
0000
0001
0000
0100
0010
,  // measure 15
2000
0000
0100
0100
3010
1000
0010
0100
,  // measure 16
0000
0000
0101
0000
0000
0000
0110
0000
0000
0000
1010
0000
1000
0000
0010
0100
,  // measure 17
0002
0000
0010
0010
0103
0000
0001
0100
,  // measure 18
0000
0000
0110
0000
0000
0000
1010
0000
0000
0000
1100
0000
0100
0000
1000
0100
,  // measure 19
0020
0000
0001
0001
1030
0001
0000
0101
,  // measure 20
0000
0000
1010
0000
0000
0000
0101
0000
0000
0000
1100
0000
1000
0100
0010
0001
,  // measure 21
0200
0000
0001
0000
1000
0000
0301
0000
0100
0000
0010
0000
1000
0100
0010
0001
,  // measure 22
0100
0000
0010
0100
0010
0000
0100
0001
0100
0000
0001
1000
0100
0000
0010
0001
,  // measure 23
2000
0000
0000
3002
0000
0000
0203
0000
,  // measure 24
0320
0000
0000
0100
0130
0000
0110
0000
,  // measure 25
1000
0010
1000
0000
0010
0100
0010
0000
0001
0010
0001
0000
0100
0010
0100
0000
,  // measure 26
1000
0100
1000
0000
0010
0001
0010
0000
1000
0010
1000
0000
0100
0001
0100
0000
,  // measure 27
1000
0100
0010
0000
0100
0010
0001
0000
0001
0010
0100
0000
0010
0100
1000
0000
,  // measure 28
0100
0010
0100
0010
0100
0010
0100
0010
0200
0000
0000
0000
0310
0000
0000
0000
,  // measure 29
1000
0010
0100
0001
0010
1000
0100
0010
0001
0000
0200
0000
1000
0000
0310
0000
,  // measure 30
1000
0010
0100
0001
1000
0100
0010
0001
0200
0000
0301
0000
1000
0100
0010
0001
,  // measure 31
0200
0000
0310
2000
0000
3001
0020
0001
,  // measure 32
0130
0101
1100
0110
,  // measure 33
1000
0010
0100
0001
1000
0000
0010
0001
0100
0000
0001
0010
0100
1000
0010
0100
,  // measure 34
0001
0010
0100
1000
0010
0000
1000
0100
0020
0000
0130
0000
0001
0010
0100
1000
,  // measure 35
0010
0100
0010
0100
1000
0000
0001
0100
0001
0100
0010
0000
1000
0100
1000
0000
,  // measure 36
0010
0001
0100
0010
1000
0100
0010
0001
2000
0000
3000
0000
1001
0000
0000
0000
,  // measure 37
0001
0010
0100
1000
0001
0100
0010
1000
0100
0000
0020
0000
1000
0000
0031
0000
,  // measure 38
0010
0001
0100
0010
1000
0001
0010
0100
2000
0000
3010
0000
0100
0001
1000
0100
,  // measure 39
0020
0000
0031
0200
0000
0301
2000
0000
,  // measure 40
3100
1100
1010
0011
,  // measure 41
0202
0000
0003
0000
0010
0010
0310
0000
,  // measure 42
1010
0000
0001
0010
0000
1000
0010
0100
,  // measure 43
0002
0000
1003
0200
0000
0310
0002
1000
,  // measure 44
2003
0000
0000
0000
3100
0000
0010
0000
0001
0010
0001
0010
0100
1000
0100
1000
,  // measure 45
0020
0000
0000
0000
0130
0000
0101
0000
1010
0000
0000
0011
0000
0000
0110
0000
,  // measure 46
0101
0000
0000
1010
0000
0000
2000
0000
0200
0000
3300
0000
1100
0000
1010
0000
,  // measure 47
0010
1000
0001
0010
0000
0010
0001
1000
,  // measure 48
0000
0100
1000
0010
0000
0010
0001
1000
,  // measure 49
0000
1000
0100
0010
0000
0010
0001
2000
,  // measure 50
0002
3000
0100
0103
,  // measure 51
0001
0010
0100
1000
0001
0100
0010
1000
0100
0010
1000
0001
0010
0100
0001
1000
,  // measure 52
0100
0010
1000
0001
0010
0000
0100
0001
1000
0100
0010
0000
0001
0010
0100
1000
,  // measure 53
0010
0001
0100
0001
1000
0000
0100
0010
1000
0010
0100
0000
0010
0001
0100
0001
,  // measure 54
0010
0001
0010
0100
1000
0000
0100
1000
0020
0000
0001
0000
0100
0000
0031
0000
,  // measure 55
1000
0100
1000
0100
0010
0001
0010
0001
1000
0010
0100
0001
1000
0010
0100
0001
,  // measure 56
2000
0000
3001
0200
0000
1300
0020
0000
,  // measure 57
0130
0002
0000
0023
0000
0030
2000
0000
,  // measure 58
0200
0000
0000
3300
,  // measure 59
1000
0100
0000
0000
0000
0000
0000
0000
1000
0100
0000
0000
0000
0000
0000
0000
0000
0000
0000
0000
0000
0000
0000
0000
0001
0100
0000
0000
0000
0000
0000
0000
0001
0100
0000
0000
0000
0000
0000
0000
0000
0000
0000
0000
0000
0000
0000
0000
0010
0100
0000
0000
0000
0000
0000
0000
0010
0100
0000
0000
0000
0000
0000
0000
,  // measure 60
0000
0000
0000
0000
0000
0000
0000
0000
1000
0001
0000
0000
0000
0000
0000
0000
1000
0001
0000
0000
0000
0000
0000
0000
0000
0000
0000
0000
0000
0000
0000
0000
1001
0000
0000
0000
0000
0000
0000
0000
0000
0000
0000
0000
0000
0000
0000
0000
1001
0000
0000
0000
0000
0000
0000
0000
0001
0000
0000
0000
0200
0000
0000
0000
,  // measure 61
1000
0001
1300
1001
0000
0000
0000
0000
;
