#TITLE:SWING IT;
#SUBTITLE:;
#ARTIST:BUSā˜…STOP;
#TITLETRANSLIT:;
#SUBTITLETRANSLIT:;
#ARTISTTRANSLIT:;
#GENRE:;
#CREDIT:;
#BANNER:SWING IT.png;
#BACKGROUND:SWING IT-bg.png;
#LYRICSPATH:;
#CDTITLE:;
#MUSIC:SWING IT.ogg;
#OFFSET:0.000000;
#SAMPLESTART:32.855999;
#SAMPLELENGTH:15.000000;
#SELECTABLE:YES;
#DISPLAYBPM:159.000000:201.000000;
#BPMS:0.000000=187.770004
,2.000000=178.035995
,219.000000=177.319000
,220.000000=178.248001
,229.000000=201.873001
,230.000000=187.143997
,231.000000=175.975006
,231.625000=159.526993
,232.000000=182.789993
,234.000000=175.080994
,235.000000=181.649994
,237.000000=191.214996
;
#STOPS:
;
#BGCHANGES:;
#KEYSOUNDS:;
#ATTACKS:;

//---------------dance-single - ----------------
#NOTES:
     dance-single:
     :
     Easy:
     5:
     0.227894,0.283337,0.154764,0.000000,0.000000,134.000000,121.000000,13.000000,0.000000,0.000000,0.000000,0.227894,0.283337,0.154764,0.000000,0.000000,134.000000,121.000000,13.000000,0.000000,0.000000,0.000000:
0000
0000
0000
0000
,
0000
0000
0000
0000
,
0000
0000
0000
0000
,
0000
0000
0000
0000
,
0000
0000
0010
0000
,
0010
0000
0100
0000
,
1001
0000
0010
0000
,
1000
0000
0001
0000
,
0100
0000
0010
0010
,
1000
0000
0100
0100
,
0010
0000
0001
0100
,
0010
1000
0010
0000
,
0100
0000
0001
1000
,
0100
0000
0010
0001
,
0100
0000
0010
0000
,
1000
0000
0001
0000
,
0001
0000
1001
0100
,
0010
0000
0001
0001
,
0100
0000
0010
0000
,
0010
0000
1000
0000
,
0100
0000
0010
0001
,
1000
0000
0010
0100
,
0001
0000
0010
0000
,
1000
0000
0001
0000
,
0100
0000
0010
0000
,
1000
0000
0100
0000
,
1001
0000
0010
0000
,
0001
0000
0100
0000
,
0110
0000
0001
0000
,
1000
0000
0100
0000
,
1001
0000
0010
0000
,
0100
0000
0001
0000
,
1000
0000
0010
0000
,
1000
0000
0100
0000
,
0110
0000
0001
0000
,
0100
0000
0010
0000
,
1001
0000
0001
0000
,
0010
0000
0100
0000
,
1001
0000
0010
0000
,
1000
0000
0001
0000
,
0100
0000
0010
0100
,
0001
1000
0100
0000
,
0001
0000
0001
0100
,
1000
0100
0001
0000
,
1000
0000
0010
0001
,
0100
1000
0100
0000
,
0100
0000
0010
0000
,
0001
0000
0100
0000
,
0010
0000
0000
0000
,
0000
0000
0000
0000
,
0000
0000
0010
1001
,
0100
0000
0000
0000
,
0000
0000
1000
0110
,
0001
0000
0000
0000
,
0000
0000
0001
0110
,
1000
0000
0000
0000
,
0000
0000
0110
1001
,
0100
0000
0010
0000
,
0001
0000
0100
0000
,
0100
0000
0100
0000
;

//---------------dance-single - ----------------
#NOTES:
     dance-single:
     :
     Medium:
     8:
     0.340140,0.531256,0.380957,0.000000,0.000000,200.000000,168.000000,32.000000,0.000000,0.000000,0.000000,0.340140,0.531256,0.380957,0.000000,0.000000,200.000000,168.000000,32.000000,0.000000,0.000000,0.000000:
0000
0000
0000
0000
,
0000
0000
0000
0000
,
0000
0000
0000
0000
,
0000
0000
0000
0000
,
0000
0000
0010
0010
,
0010
1000
0100
0000
,
1001
0000
0010
0010
,
0010
0001
0100
0000
,
0100
0000
1001
0100
,
1000
0000
0000
0000
1000
0100
1000
0000
,
1100
0000
1010
0000
,
0101
0000
0001
0000
,
0001
0000
0010
0100
,
1000
0000
0010
0100
,
0001
0000
1000
0100
,
0010
0001
0100
0010
,
1000
0000
0000
0000
0010
0100
0010
0000
,
1001
0000
0000
0000
0001
1000
0001
0000
,
1001
0000
0001
0001
,
0100
0100
1000
0000
,
0001
0000
0001
0100
,
0010
0000
1000
0100
,
0010
0000
0001
0000
,
1000
0000
0010
0000
,
0100
0000
0010
0010
,
0010
1000
0100
0000
,
1001
0000
0010
0010
,
0010
0001
0100
0000
,
0110
0000
1000
1000
,
1000
0001
0100
0000
,
1001
0000
0010
0000
,
0001
0000
0100
0000
,
1000
0000
0010
0010
,
0010
1000
0010
0000
,
0101
0000
1000
1000
,
1000
0001
0100
0000
,
1100
0000
0001
0001
,
0001
0010
0100
0000
,
1001
0000
1000
0000
,
0010
0000
0100
0000
,
0001
0000
0000
0000
0010
0100
1000
0000
,
0010
0100
0001
0000
0011
0000
0011
0000
,
1010
0000
1010
0000
0010
0001
0100
0000
,
0010
1000
0100
0000
0010
0000
0001
0000
,
0100
0010
1000
0000
1100
0000
1100
0000
,
0101
0101
0010
0001
,
0100
0000
1000
0000
0010
1000
0010
1000
,
0010
1000
0001
0000
,
1001
0000
0000
0000
,
0000
0000
0010
0000
,
0010
0000
1100
1001
,
0100
0000
0100
0000
,
0100
0000
0101
1001
,
0100
0000
0100
0000
,
0100
0000
0110
1001
,
1100
0000
1000
0000
,
1000
0000
1010
1001
,
0101
0000
0000
0000
0010
0000
0000
0001
,
0000
0000
0100
0000
0000
0010
0000
0000
,
0010
0100
1000
0000
;

//---------------dance-single - ----------------
#NOTES:
     dance-single:
     :
     Hard:
     10:
     0.408168,0.602090,0.238098,0.000000,0.071429,240.000000,220.000000,20.000000,0.000000,0.000000,0.000000,0.408168,0.602090,0.238098,0.000000,0.071429,240.000000,220.000000,20.000000,0.000000,0.000000,0.000000:
0000
0000
0000
0000
,
0000
0000
0000
0000
,
0000
0000
0000
0000
,
0000
0000
0000
0000
,
0000
0000
0000
0000
0000
0000
0000
0010
1000
0000
0000
0000
0010
0000
0100
0000
,
0001
1000
0000
1001
0000
0100
0000
0000
,
0000
0000
0000
0000
0000
0000
0000
0010
0001
0000
0000
0000
0100
0000
0010
0000
,
1000
0001
0000
0100
0000
0000
0000
0000
,
0000
0000
0000
0000
0100
1000
0010
1000
,
0100
0000
0000
0000
0010
0001
0010
0000
,
0011
0000
0000
0000
0001
0100
0010
0000
,
1000
0000
0100
0000
0010
0001
0100
0001
,
0010
0000
0011
0101
,
1001
0000
0000
0000
0100
1000
0010
1000
,
0100
0000
1001
1001
,
1000
0100
1000
0001
0100
0001
1000
0100
,
1000
0000
0000
0000
0010
0001
0100
0001
,
0010
0000
0000
0000
0001
0010
0100
0000
,
0101
0000
0001
0001
,
0100
0100
0001
0000
,
1000
0000
0000
0000
0010
0100
1000
0100
,
0010
0000
0000
0000
0001
0010
0100
0010
,
0001
0000
0001
0000
,
1000
0000
0010
0000
,
0100
0000
0000
0000
0000
0000
0000
0010
1000
0000
0000
0000
0010
0000
0100
0000
,
0001
1000
0000
1001
0000
0100
0000
0000
,
0000
0000
0000
0000
0000
0000
0000
0010
1000
0000
0000
0000
0010
0000
0100
0000
,
0010
1000
0000
0100
0000
0000
0000
0000
,
0000
0000
0000
0000
0000
0000
0000
0001
1000
0000
0000
0000
0010
0000
1000
0000
,
0001
0100
0000
1001
0000
0100
0000
0000
,
0000
0000
0001
0000
,
1000
0000
0100
0000
,
0010
0000
0000
0000
0000
0000
0000
0010
0001
0000
0000
0000
1000
0000
0100
0000
,
0010
0001
0000
1100
0000
0001
0000
0000
,
0000
0000
0000
0000
0000
0000
0000
0100
1000
0000
0000
0000
0001
0000
0010
0000
,
0100
1000
0000
0001
0000
0000
0000
0000
,
0000
0000
0000
0000
0000
0000
0000
0001
0100
0000
0000
0000
0010
0000
0100
0000
,
0001
1000
0000
0011
0000
0100
0000
0000
,
0000
0000
1000
0000
,
0001
0000
0100
0000
,
0010
0000
0000
0000
1000
0100
0010
0100
,
1000
0100
0010
0000
0011
0000
0011
0000
,
0101
0000
0101
0000
0001
0010
0100
0010
,
0001
0010
0100
1000
0010
0100
1000
0100
,
0010
0100
1000
0000
1001
0000
1001
0000
,
0011
0000
0011
0000
0100
0010
0100
0001
,
0100
1000
0100
0000
0010
0001
1000
0010
,
0100
0001
1000
0000
,
0000
0000
0000
0000
0000
0000
0000
0000
0000
0000
0000
0000
0000
0000
0000
0000
0000
0000
0000
0000
0000
0000
0000
0000
0000
0000
0000
0000
0000
0000
0000
0000
0000
0000
0000
0000
0000
0000
0000
0000
0010
0000
0000
0000
0000
0000
0000
0000
0000
0000
0000
0100
0000
0000
0000
0000
0000
0000
0000
0000
0000
0000
0001
0000
,
0000
0000
0000
0000
0000
0000
0000
0000
0000
0000
1000
0000
0000
0000
0000
0000
0000
0000
0000
0000
0000
0100
0000
0000
0000
0000
0000
0000
0000
0000
0000
0000
0010
0000
0000
0000
0000
0000
0000
0000
0000
0000
0000
0000
0000
0000
0000
0000
0000
0000
0000
0000
0000
0000
0000
0000
0000
0000
0000
0000
0000
0000
0000
0000
,
0010
0000
0000
0000
0001
0100
0010
1000
,
0001
0000
0100
0000
,
0100
0000
0000
0000
0010
1000
0001
0100
,
0010
0000
0010
0000
,
0010
0000
0000
0000
0001
1000
0100
0001
,
0100
0000
0100
0000
,
0100
0000
0000
0000
1000
0001
1000
0100
,
0010
0000
0000
0000
0010
0000
0000
0001
,
0000
0000
0100
0000
0000
0010
0000
0000
,
0010
0100
0000
0000
1000
0000
0000
0000
;

//---------------dance-double - ----------------
#NOTES:
     dance-double:
     :
     Easy:
     3:
     0.251704,0.318754,0.238098,0.000000,0.000000,148.000000,128.000000,20.000000,0.000000,0.000000,0.000000,0.251704,0.318754,0.238098,0.000000,0.000000,148.000000,128.000000,20.000000,0.000000,0.000000,0.000000:
00000000
00000000
00000000
00000000
,
00000000
00000000
00000000
00000000
,
00000000
00000000
00000000
00000000
,
00000000
00000000
00000000
00000000
,
00000000
00000000
00100000
10000000
,
01000000
00000000
00010000
00000000
,
00011000
00000000
00001000
00000010
,
00000001
00000000
00000100
00000000
,
00000100
00000000
00000010
00000000
,
00001000
00000000
00000100
00000100
,
00001000
00000000
00000001
00000100
,
00010000
00100000
01000000
00000000
,
01000000
00000000
10000000
01100000
,
00010000
00000000
01000000
00011000
,
00000100
00000000
00000010
00000000
,
00000001
00000000
00000100
00000000
,
00000010
00000000
00010000
00000100
,
00010000
00000000
00001000
01000000
,
00001000
00000000
00011000
00000000
,
00011000
00000000
01000000
00000000
,
00100000
00000000
01100000
10000000
,
01000000
00000000
01100000
00010000
,
01000000
00000000
00100000
00000000
,
10000000
00000000
01000000
00000000
,
00010000
00000000
00000010
00000100
,
00000001
00000000
00000010
00000000
,
00001001
00000000
00000010
00001000
,
00000100
00000000
00010000
00000000
,
00011000
00000000
00001000
01000000
,
00100000
00000000
10000000
00000000
,
10010000
00000000
01000000
00000000
,
00010000
00000000
00001000
00000000
,
00000100
00000000
00000001
00000010
,
00000100
00000000
00001000
00000000
,
00001001
00000000
00000100
00010000
,
00001000
00000000
00010000
00000000
,
00011000
00000000
00001000
00100000
,
01000000
00000000
10000000
00000000
,
01100000
00000000
00010000
00000000
,
00100000
00000000
01000000
00000000
,
10000000
00000000
10000000
01000000
,
00010000
00001000
00000100
00000000
,
00000010
00000000
00010000
00100000
,
10000000
01000000
00010000
00000000
,
00001000
00000000
00100000
00001000
,
00010000
00001000
00000100
00000000
,
00000010
00000000
00000001
00000000
,
00001000
00000000
00000100
00000000
,
00000110
00000000
00000000
00000000
,
00000000
00000000
00000000
00000000
,
00000000
00000000
00000001
00000110
,
00001000
00000000
00000000
00000000
,
00000000
00000000
00000100
00011000
,
01000000
00000000
00000000
00000000
,
00000000
00000000
00011000
01100000
,
10000000
00000000
00000000
00000000
,
00000000
00000000
01100000
00011000
,
00000100
00000000
00000100
00000000
,
00000010
00000000
00000001
00000000
,
00000001
00000000
00001000
00000000
;

//---------------dance-double - ----------------
#NOTES:
     dance-double:
     :
     Medium:
     4:
     0.309527,0.460422,0.321432,0.000000,0.000000,182.000000,155.000000,27.000000,0.000000,0.000000,0.000000,0.309527,0.460422,0.321432,0.000000,0.000000,182.000000,155.000000,27.000000,0.000000,0.000000,0.000000:
00000000
00000000
00000000
00000000
,
00000000
00000000
00000000
00000000
,
00000000
00000000
00000000
00000000
,
00000000
00000000
00000000
00000000
,
00000000
00000000
10000000
10000000
,
10000000
01000000
00000000
00010000
00000000
00001000
00000000
00000000
,
00000000
00000000
00000010
00000010
,
00000010
00000001
00000000
00000100
00000000
00000000
00000000
00000000
,
00000000
00000000
00000010
00001001
,
00000100
00000000
00000010
00011000
,
00000100
00000000
00001000
00000000
,
01000000
00000000
01000000
00000000
,
00100000
00000000
10010000
10010000
,
01100000
00000000
00100000
00010000
,
00000100
00000000
00000001
00000010
,
00000100
00001000
00000100
00000010
,
00000001
00000000
00000001
00000100
,
00001010
00000000
00001000
00000100
,
00000010
00000000
00000001
00000000
,
00001000
00000000
00100000
00000000
,
10000000
00000000
01000000
00100000
,
00010000
00000000
01100000
00010000
,
00001000
00000000
00000100
00000000
,
00000001
00000000
00000010
00000000
,
00000100
00000000
00001000
00001000
,
00001000
00000100
00000000
00010000
00000000
00001000
00000000
00000000
,
00000000
00000000
01000000
01000000
,
01000000
00100000
00000000
10000000
00000000
00000000
00000000
00000000
,
00000000
00000000
00010000
00010000
,
00010000
01000000
00000000
00001000
00000000
00010000
00000000
00000000
,
00000000
00000000
00001000
00000000
,
00000100
00000000
00000001
00000000
,
00001000
00000000
00000100
00000100
,
00000100
00000010
00000000
00001000
00000000
00000100
00000000
00000000
,
00000000
00000000
00010000
00010000
,
00010000
00001000
00000000
01000000
00000000
00000000
00000000
00000000
,
00000000
00000000
00100000
00100000
,
00100000
10000000
00000000
01000000
00000000
00100000
00000000
00000000
,
00000000
00000000
00010000
00000000
,
00001000
00000000
00000100
00000000
,
00000010
00000000
00000001
00000010
,
00000100
00001000
00011000
00011000
,
01010000
01010000
00100000
10000000
,
01000000
00010000
00001000
01000000
,
00010000
00000100
00001100
00001100
,
00000101
00000101
00000010
00000010
,
00001000
00000000
00001000
00000000
00000100
00001000
00000100
00001000
,
00000100
00010000
00001000
00000000
,
00011000
00000000
00000000
00000000
,
00000000
00000000
00100000
00000000
,
00100000
00000000
00110000
10010000
,
01000000
00000000
01000000
00000000
,
01000000
00000000
01010000
00110000
,
00011000
00000000
00001000
00000000
,
00001000
00000000
00001100
00001001
,
00000101
00000000
00000100
00000000
,
00000100
00000000
00000110
00001100
,
00011000
00000000
00000000
00000000
00001000
00000000
00000000
00010000
,
00000000
00000000
00001000
00000000
00000000
01000000
00000000
00000000
,
01000000
00100000
10000000
00000000
;

//---------------dance-double - ----------------
#NOTES:
     dance-double:
     :
     Hard:
     6:
     0.379256,0.602090,0.142859,0.000000,0.125001,223.000000,211.000000,12.000000,0.000000,0.000000,0.000000,0.379256,0.602090,0.142859,0.000000,0.125001,223.000000,211.000000,12.000000,0.000000,0.000000,0.000000:
00000000
00000000
00000000
00000000
,
00000000
00000000
00000000
00000000
,
00000000
00000000
00000000
00000000
,
00000000
00000000
00000000
00000000
,
00000000
00000000
00000000
00000000
00000000
00000000
00000000
01000000
10000000
00000000
00000000
00000000
00100000
00000000
10000000
00000000
,
01000000
00010000
00000000
00001000
00000000
00000100
00000000
00000000
,
00000000
00000000
00000000
00000000
00000000
00000000
00000000
00000001
00000100
00000000
00000000
00000000
00000010
00000000
00001000
00000000
,
00000100
00010000
00000000
00001000
00000000
00000000
00000000
00000000
,
00000000
00000000
00000000
00000000
00100000
00001000
00010000
00001000
,
01000000
00000000
00000000
00000000
00010000
00001000
00010000
00000000
,
00011000
00000000
00000000
00000000
00000100
00000001
00000010
00000000
,
00001000
00000000
00001000
00000000
00000010
00001000
00010000
00100000
,
01000000
00000000
00010000
00000000
,
10000000
00000000
00000000
00000000
00100000
10000000
01000000
10000000
,
00100000
00000000
10010000
10100000
,
10000000
01000000
00010000
00001000
00000100
00000001
00000010
00000100
,
00001000
00000000
00000000
00000000
00001000
00000010
00001000
00000100
,
00010000
00000000
00000000
00000000
00011000
00000000
01000000
00100000
,
10000000
00000000
00100000
00000000
,
01000000
00000000
00100000
10000000
,
01000000
00000000
00000000
00000000
00010000
00001000
00010000
01000000
,
00010000
00000000
00000000
00000000
00010000
00001000
00000100
00001000
,
00010000
00000000
00010000
00000000
,
00000100
00000000
00000010
00000000
,
00000001
00000000
00000000
00000000
00000000
00000000
00000000
00000010
00000001
00000000
00000000
00000000
00000100
00000000
00000010
00000000
,
00010000
00001000
00000000
00010000
00000000
00001000
00000000
00000000
,
00000000
00000000
00000000
00000000
00000000
00000000
00000000
00010000
00001000
00000000
00000000
00000000
00001000
00000000
00010000
00000000
,
01000000
00001000
00000000
00010000
00000000
00000000
00000000
00000000
,
00000000
00000000
00000000
00000000
00000000
00000000
00000000
00010000
10000000
00000000
00000000
00000000
00100000
00000000
10000000
00000000
,
01000000
00010000
00000000
00001000
00000000
00010000
00000000
00000000
,
00000000
00000000
00010000
00000000
,
00010000
00000000
00001000
00000000
,
00001000
00000000
00000000
00000000
00000000
00000000
00000000
00000010
00001000
00000000
00000000
00000000
00000001
00000000
00000010
00000000
,
00000100
00001000
00000000
00000100
00000000
00010000
00000000
00000000
,
00000000
00000000
00000000
00000000
00000000
00000000
00000000
00010000
00001000
00000000
00000000
00000000
00001000
00000000
00010000
00000000
,
00001000
00010000
00000000
00001000
00000000
00000000
00000000
00000000
,
00000000
00000000
00000000
00000000
00000000
00000000
00000000
00100000
00010000
00000000
00000000
00000000
10000000
00000000
01000000
00000000
,
00100000
00010000
00000000
01000000
00000000
00100000
00000000
00000000
,
00000000
00000000
10000000
00000000
,
01000000
00000000
00010000
00000000
,
00000010
00000000
00001010
00001010
,
00000101
00000000
00000011
00000000
00000001
00000100
00000010
00001000
,
00000100
00010000
00001000
00000000
01010000
00000000
01010000
00000000
,
10010000
00000000
10100000
00000000
01000000
00100000
00010000
00000000
,
00001000
00000100
00000010
00000000
00000001
00000100
00000010
00001000
,
00000100
00010000
00001000
00000000
00010000
00000000
00010000
00000000
,
00100000
00000000
00100000
00000000
10000000
00010000
10000000
00100000
,
01000000
00010000
01000000
00000000
,
00000000
00000000
00000000
00000000
00000000
00000000
00000000
00000000
00000000
00000000
00000000
00000000
00000000
00000000
00000000
00000000
00000000
00000000
00000000
00000000
00000000
00000000
00000000
00000000
00000000
00000000
00000000
00000000
00000000
00000000
00000000
00000000
00000000
00000000
00000000
00000000
00000000
00000000
00000000
00000000
00001000
00000000
00000000
00000000
00000000
00000000
00000000
00000000
00000000
00000000
00000000
00010000
00000000
00000000
00000000
00000000
00000000
00000000
00000000
00000000
00000000
00000000
00000010
00000000
,
00000000
00000000
00000000
00000000
00000000
00000000
00000000
00000000
00000000
00000000
00010000
00000000
00000000
00000000
00000000
00000000
00000000
00000000
00000000
00000000
00000000
00001000
00000000
00000000
00000000
00000000
00000000
00000000
00000000
00000000
00000000
00000000
00100000
00000000
00000000
00000000
00000000
00000000
00000000
00000000
00000000
00000000
00000000
00000000
00000000
00000000
00000000
00000000
00000000
00000000
00000000
00000000
00000000
00000000
00000000
00000000
00000000
00000000
00000000
00000000
00000000
00000000
00000000
00000000
,
00100000
00000000
00000000
00000000
00000000
00000000
00000000
00000000
00010000
00100000
00000000
00000000
00010000
01000000
00000000
00000000
,
00010000
00100000
00000000
00000000
00000000
00000000
00000000
00000000
01000000
00000000
00000000
00000000
00000000
00000000
00000000
00000000
,
01000000
00000000
00000000
00000000
00000000
00000000
00000000
00000000
01000000
00010000
00000000
00000000
01000000
00001000
00000000
00000000
,
00100000
00010000
00000000
00000000
00000000
00000000
00000000
00000000
00010000
00000000
00000000
00000000
00000000
00000000
00000000
00000000
,
00001000
00000000
00000010
00000000
,
00000000
00000000
00000000
00000000
,
00001000
00000000
00000000
00000000
00000000
00000000
00000000
00000000
00001000
00100000
00000000
00000000
00010000
01000000
00000000
00000000
,
00001000
00010000
00000000
00000000
00000000
00000000
00000000
00000000
00010000
00000000
00000000
00000000
00000000
00000000
00001000
00000000
,
00000000
00000000
00010000
00000000
00000000
00001000
00000000
00000000
,
00001000
00000010
00000000
00000000
00000001
00000000
00000000
00000000
;

//---------------dance-couple - ----------------
#NOTES:
     dance-couple:
     :
     Challenge:
     5:
     0.244901,0.495839,0.095239,0.000000,0.053572,144.000000,136.000000,8.000000,0.000000,0.000000,0.000000,0.244901,0.495839,0.095239,0.000000,0.053572,144.000000,136.000000,8.000000,0.000000,0.000000,0.000000:
00000000
00000000
00000000
00000000
,
00000000
00000000
00000000
00000000
,
00000000
00000000
00000000
00000000
,
00000000
00000000
00000000
00000000
,
00000000
00000000
00000000
00000000
00000000
00000000
00000000
00100010
00011000
00000000
00000000
00000000
00100010
00000000
01000100
00000000
,
10000001
00011000
00000000
10011001
00000000
01000100
00000000
00000000
,
00000000
00000000
00000000
00000000
00000000
00000000
00000000
00100010
10000001
00000000
00000000
00000000
01000100
00000000
00100010
00000000
,
00011000
10000001
00000000
01000100
00000000
00000000
00000000
00000000
,
00000000
00000000
10000010
00000010
,
00001000
00000000
10000100
00000100
,
00000010
00000000
10000001
00000100
,
00000010
00001000
10000010
00000000
,
00000100
00000000
10000001
00001000
,
00000100
00000000
10000010
00000001
,
00000100
00000000
10000010
00000000
,
00001000
00000000
10000001
00000000
,
00000001
00000000
00100001
00100000
,
10000000
00000000
01000001
01000000
,
00100000
00000000
00010001
01000000
,
00100000
10000000
00100001
00000000
,
01000000
00000000
00010001
10000000
,
01000000
00000000
00100001
00010000
,
01000000
00000000
00100001
00000000
,
10000000
00000000
00010001
00000000
,
00010000
00000000
00000000
00000000
00000000
00000000
00000000
00000010
10001000
00000000
00000000
00000000
00000010
00000000
00000100
00000000
,
00000001
00001000
00000000
00001001
10000000
00000100
00000000
00000000
,
00000000
00000000
00000000
00000000
00000000
00000000
00000000
00000010
10001000
00000000
00000000
00000000
00000010
00000000
00000100
00000000
,
00000010
00001000
00000000
00000100
10000000
00000000
00000000
00000000
,
00000000
00000000
00000000
00000000
00000000
00000000
00000000
00000001
10001000
00000000
00000000
00000000
00000010
00000000
00001000
00000000
,
00000001
00000100
00000000
00001001
10000000
00000100
00000000
00000000
,
00000000
00000000
10000001
00000000
,
00001000
00000000
10000100
00000000
,
00000010
00000000
00000000
00000000
00000000
00000000
00000000
01000000
00010001
00000000
00000000
00000000
10000000
00000000
00100000
00000000
,
01000000
00010000
00000000
10100000
00000001
00010000
00000000
00000000
,
00000000
00000000
00000000
00000000
00000000
00000000
00000000
01000000
00010001
00000000
00000000
00000000
10000000
00000000
00100000
00000000
,
01000000
00010000
00000000
10000000
00000001
00000000
00000000
00000000
,
00000000
00000000
00000000
00000000
00000000
00000000
00000000
00010000
01000001
00000000
00000000
00000000
00100000
00000000
01000000
00000000
,
00010000
10000000
00000000
00110000
00000001
01000000
00000000
00000000
,
00000000
00000000
10000001
00000000
,
00010000
00000000
01000001
00000000
,
00100000
00000000
00000000
00000000
00000010
00000100
00001000
00000000
,
00000010
00000100
00000001
00000000
00000011
00000000
00000011
00000000
,
00001010
00000000
00001010
00000000
00100000
00010000
01000000
00000000
,
00100000
10000000
01000000
00000000
00100010
00000000
00010001
00000000
,
01000100
00100010
10001000
00000000
11000000
00000000
11000000
00000000
,
01010000
01010000
00100010
00010001
,
01000100
00000000
10001000
00000000
00100010
10001000
00100010
10001000
,
00100010
10000000
00000001
00000000
,
10011001
00000000
00000000
00000000
00000000
00000000
00000000
00000000
00000000
00000000
00000000
00000000
00000000
00000000
00000000
00000000
00000000
00000000
00000000
00000000
00000000
00000000
00000000
00000000
00000000
00000000
00000000
00000000
00000000
00000000
00000000
00000000
00000000
00000000
00000000
00000000
00000000
00000000
00000000
00000000
00100010
00000000
00000000
00000000
00000000
00000000
00000000
00000000
00000000
00000000
00000000
01000100
00000000
00000000
00000000
00000000
00000000
00000000
00000000
00000000
00000000
00000000
00010001
00000000
,
00000000
00000000
00000000
00000000
00000000
00000000
00000000
00000000
00000000
00000000
10001000
00000000
00000000
00000000
00000000
00000000
00000000
00000000
00000000
00000000
00000000
01000100
00000000
00000000
00000000
00000000
00000000
00000000
00000000
00000000
00000000
00000000
00100010
00000000
00000000
00000000
00000000
00000000
00000000
00000000
00000000
00000000
00000000
00000000
00000000
00000000
00000000
00000000
00000000
00000000
00000000
00000000
00000000
00000000
00000000
00000000
00000000
00000000
00000000
00000000
00000000
00000000
00000000
00000000
,
00100000
00000000
00000000
00000000
00010010
01000000
00100000
10000000
,
00010000
00000000
01000010
00000000
,
01000000
00000000
00000000
00000000
00100010
10000000
00010000
01000000
,
00100000
00000000
00100010
00000000
,
00000010
00000000
00000000
00000000
00100001
00001000
00000100
00000001
,
00000100
00000000
00100100
00000000
,
00000100
00000000
00000000
00000000
00101000
00000001
00001000
00000100
,
00000010
00000000
00000000
00000000
00100010
00000000
00000000
10000001
,
00000000
00000000
01000100
00000000
00000000
00100010
00000000
00000000
,
00100010
01000100
00000000
00000000
00011000
00000000
00000000
00000000
;

//---------------dance-solo - ----------------
#NOTES:
     dance-solo:
     :
     Easy:
     3:
     0.248302,0.318754,0.178574,0.000000,0.000000,146.000000,131.000000,15.000000,0.000000,0.000000,0.000000,0.248302,0.318754,0.178574,0.000000,0.000000,146.000000,131.000000,15.000000,0.000000,0.000000,0.000000:
000000
000000
000000
000000
,
000000
000000
000000
000000
,
000000
000000
000000
000000
,
000000
000000
000000
000000
,
000000
000000
000100
100000
,
001000
000000
000100
000000
,
100001
000000
000100
001000
,
000010
000000
001000
000000
,
001000
000000
010010
000001
,
001000
000000
000100
000100
,
001100
000000
000001
000001
,
100000
100000
000010
000100
,
001000
000000
000001
000000
,
001000
000000
000100
000000
,
100000
000000
100000
000100
,
001000
000010
000100
000001
,
001000
000000
000100
000100
,
001000
000000
000001
100000
,
010010
000000
000010
000000
,
000010
000000
100000
000000
,
100000
000000
000100
000001
,
001000
000000
000010
010000
,
001000
000000
000100
000000
,
000100
000000
000001
000000
,
100000
000000
000100
001000
,
000001
000000
001000
000000
,
100001
000000
000100
010000
,
001000
000000
000100
000000
,
001100
000000
000010
001000
,
000100
000000
010000
000000
,
100001
000000
000001
000000
,
010000
000000
000010
000000
,
100000
000000
001000
000100
,
000001
000000
001000
000000
,
001100
000000
000001
001000
,
000100
000000
100000
000000
,
001100
000000
000001
100000
,
001000
000000
000100
000000
,
100001
000000
000001
100000
,
000000
000000
001000
000000
,
000100
000000
000010
001000
,
000100
100000
000010
000000
,
010000
000000
000010
000100
,
001000
100000
010000
000000
,
000001
000000
000010
000001
,
010000
100000
000010
000000
,
000100
000000
001000
000000
,
000100
000000
000001
000000
,
100000
000000
000000
000000
,
000000
000000
000000
000000
,
000000
000000
000100
100001
,
001000
000000
000000
000000
,
000000
000000
010000
100001
,
000010
000000
000000
000000
,
000000
000000
000001
001100
,
100000
000000
000000
000000
,
000000
000000
001100
010010
,
001000
000000
000100
000000
,
000010
000000
001000
000000
,
001000
000000
001000
000000
;

//---------------dance-solo - ----------------
#NOTES:
     dance-solo:
     :
     Medium:
     4:
     0.309527,0.531256,0.250003,0.000000,0.000000,182.000000,161.000000,21.000000,0.000000,0.000000,0.000000,0.309527,0.531256,0.250003,0.000000,0.000000,182.000000,161.000000,21.000000,0.000000,0.000000,0.000000:
000000
000000
000000
000000
,
000000
000000
000000
000000
,
000000
000000
000000
000000
,
000000
000000
000000
000000
,
000000
000000
000100
000100
,
001000
000010
000000
000100
000000
001000
000000
000000
,
000000
000000
000100
000100
,
000010
001000
000000
000100
000000
000000
000000
000000
,
000000
000000
010100
000001
,
001000
000000
000000
000000
000100
010000
001000
000000
,
011000
000000
000001
000000
,
100000
000000
000000
000000
000001
000100
001000
000000
,
010000
000000
100000
000000
,
001000
000000
000100
000001
,
001000
000000
000010
000100
,
001000
100000
000100
100000
,
001000
000000
000100
000000
,
001000
000000
000000
000000
000100
000010
001000
000000
,
001010
000000
000010
000000
,
000010
000000
001000
000000
,
001000
000000
000100
000000
,
001000
000000
000010
010000
,
001000
000000
000100
000000
,
000100
000000
000001
000000
,
100000
000000
000100
000100
,
000001
001000
000000
000100
000000
100000
000000
000000
,
000000
000000
001000
001000
,
000100
000010
000000
001000
000000
000000
000000
000000
,
000000
000000
000001
000001
,
000100
001000
000000
010000
000000
000010
000000
000000
,
000000
000000
000100
000000
,
100000
000000
001000
000000
,
000001
000000
001000
001000
,
000100
100000
000000
001000
000000
000001
000000
000000
,
000000
000000
100000
100000
,
001000
000010
000000
001000
000000
000000
000000
000000
,
000000
000000
000001
000001
,
001000
000010
000000
010000
000000
000100
000000
000000
,
000000
000000
000001
000000
,
100000
000000
001000
000000
,
000100
000000
000000
000000
000010
000100
001000
000000
,
010000
000100
001000
000000
000110
000000
000110
000000
,
101000
000000
101000
000000
010000
001000
000100
000000
,
000010
001000
000100
000000
000001
000000
001000
000000
,
010000
001000
000010
000000
011000
000000
011000
000000
,
000101
000101
010000
001000
,
000010
000000
001000
000000
000010
010000
000010
010000
,
000100
010000
001000
000000
,
100000
000000
000000
000000
,
000000
000000
001000
000000
,
001000
000000
011000
100001
,
001000
000000
001000
000000
,
001000
000000
001010
010100
,
000001
000000
000001
000000
,
000001
000000
000101
001100
,
100010
000000
000010
000000
,
000010
000000
010100
001010
,
100100
000000
000000
000000
000100
000000
000000
000001
,
000000
000000
010000
000000
000000
000100
000000
000000
,
000100
001000
100000
000000
;

//---------------dance-solo - ----------------
#NOTES:
     dance-solo:
     :
     Hard:
     7:
     0.404767,0.602090,0.202383,0.000000,0.142859,238.000000,221.000000,17.000000,0.000000,0.000000,0.000000,0.404767,0.602090,0.202383,0.000000,0.142859,238.000000,221.000000,17.000000,0.000000,0.000000,0.000000:
000000
000000
000000
000000
,
000000
000000
000000
000000
,
000000
000000
000000
000000
,
000000
000000
000000
000000
,
000000
000000
000000
000000
000000
000000
000000
000100
001000
000000
000000
000000
000100
000000
010000
000000
,
000100
100000
000000
100100
000000
001000
000000
000000
,
000000
000000
000000
000000
000000
000000
000000
001000
000001
000000
000000
000000
000100
000000
000010
000000
,
000100
000001
000000
000100
000000
000000
000000
000000
,
000000
000000
000000
000000
001000
000010
000100
000010
,
001000
000000
000000
000000
000100
010000
001000
000000
,
011000
000000
000000
000000
001000
000100
000001
000000
,
001000
000000
001000
000000
000100
100000
001000
100000
,
000100
000000
000001
000100
,
000001
000000
000000
000000
001000
100000
000100
100000
,
001000
000000
100001
100001
,
000100
001000
010000
000010
000000
001000
000100
100000
,
000001
000000
000000
000000
000100
000010
001000
000010
,
000100
000000
000000
000000
000001
001000
000100
000000
,
001100
000000
000010
000000
,
010000
000000
000100
000000
,
100000
000000
000000
000000
000100
001000
010000
001000
,
000100
000000
000000
000000
000010
001000
000100
001000
,
000010
000000
000100
000000
,
001000
000000
100000
000000
,
000001
000000
000000
000000
000000
000000
000000
000100
000001
000000
000000
000000
001000
000000
000010
000000
,
001000
000001
000000
001001
000000
001000
000000
000000
,
000000
000000
000000
000000
000000
000000
000000
000100
100000
000000
000000
000000
000100
000000
001000
000000
,
000100
100000
000000
001000
000000
000000
000000
000000
,
000000
000000
000000
000000
000000
000000
000000
000100
001000
000000
000000
000000
000100
000000
100000
000000
,
000001
001000
000000
100001
000000
001000
000000
000000
,
000000
000000
000100
000000
,
000001
000000
100000
000000
,
000100
000000
000000
000000
000000
000000
000000
000100
010000
000000
000000
000000
001000
000000
100000
000000
,
000100
001000
000000
001100
000000
000001
000000
000000
,
000000
000000
000000
000000
000000
000000
000000
001000
000010
000000
000000
000000
000100
000000
000001
000000
,
001000
000100
000000
001000
000000
000000
000000
000000
,
000000
000000
000000
000000
000000
000000
000000
000100
001000
000000
000000
000000
000100
000000
100000
000000
,
000010
001000
000000
100001
000000
001000
000000
000000
,
000000
000000
100000
000000
,
000001
000000
001000
000000
,
000100
000000
000000
000000
001000
000001
001000
000010
,
001000
000100
001000
000000
100010
000000
100010
000000
,
010100
000000
000110
000000
000100
000001
000100
000010
,
000100
001000
000100
000000
010001
000000
010001
000000
,
000110
000000
010100
000000
000010
001000
000010
001000
,
000100
001000
000100
100000
001000
100000
001000
010000
,
001000
010000
001000
000000
000100
000001
010000
000100
,
001000
000001
100000
000000
,
000000
000000
000000
000000
000000
000000
000000
000000
000000
000000
000000
000000
000000
000000
000000
000000
000000
000000
000000
000000
000000
000000
000000
000000
000000
000000
000000
000000
000000
000000
000000
000000
000000
000000
000000
000000
000000
000000
000000
000000
000010
000000
000000
000000
000000
000000
000000
000000
000000
000000
000000
001000
000000
000000
000000
000000
000000
000000
000000
000000
000000
000000
000001
000000
,
000000
000000
000000
000000
000000
000000
000000
000000
000000
000000
100000
000000
000000
000000
000000
000000
000000
000000
000000
000000
000000
001000
000000
000000
000000
000000
000000
000000
000000
000000
000000
000000
000100
000000
000000
000000
000000
000000
000000
000000
000000
000000
000000
000000
000000
000000
000000
000000
000000
000000
000000
000000
000000
000000
000000
000000
000000
000000
000000
000000
000000
000000
000000
000000
,
000100
000000
000000
000000
000000
000000
000000
000000
000001
000100
000000
000000
000001
010000
000000
000000
,
000001
100000
000000
000000
000000
000000
000000
000000
100000
000000
000000
000000
000000
000000
000000
000000
,
100000
000000
000000
000000
000000
000000
000000
000000
100000
000100
000000
000000
100000
000010
000000
000000
,
100000
000001
000000
000000
000000
000000
000000
000000
000100
000000
000000
000000
000000
000000
000000
000000
,
000100
000000
000000
000000
000000
000000
000000
000000
000100
000001
000000
000000
001000
000100
000000
000000
,
001000
000010
000000
000000
000000
000000
000000
000000
001000
000000
000000
000000
000000
000000
000000
000000
,
001000
000000
000000
000000
000000
000000
000000
000000
001000
000001
000000
000000
000100
001000
000000
000000
,
010000
000001
000000
000000
000000
000000
000000
000000
000100
000000
000000
000000
000000
000000
010000
000000
,
000000
000000
001000
000000
000000
100000
000000
000000
,
100000
001000
000000
000000
000100
000000
000000
000000
;

//---------------dance-single - ----------------
#NOTES:
     dance-single:
     :
     Beginner:
     3:
     0.098641,0.247920,0.047620,0.238098,0.000000,58.000000,54.000000,4.000000,20.000000,0.000000,0.000000,0.098641,0.247920,0.047620,0.238098,0.000000,58.000000,54.000000,4.000000,20.000000,0.000000,0.000000:
0000
0000
0000
0000
,
0000
0000
0000
0000
,
0000
0000
0000
0000
,
0000
0000
0000
0000
,
0000
0000
0200
0000
,
0000
0000
0300
0000
,
0000
0000
0020
0000
,
0000
0000
0030
0000
,
0000
0000
1000
0000
,
0000
0000
0000
0000
,
0000
0000
0001
0000
,
0000
0000
0000
0000
,
0000
0000
0100
0000
,
0000
0000
0000
0000
,
0000
0000
0010
0000
,
0000
0000
0000
0000
,
0000
0000
1000
0000
,
0000
0000
0000
0000
,
0000
0000
0100
0000
,
0000
0000
0000
0000
,
0000
0000
0010
0000
,
0000
0000
0000
0000
,
0000
0000
0001
0000
,
0000
0000
0000
0000
,
0000
0000
2000
0000
,
0000
0000
3000
0000
,
0000
0000
0002
0000
,
0000
0000
0003
0000
,
0000
0000
0020
0000
,
0000
0000
0030
0000
,
0000
0000
0200
0000
,
0000
0000
0300
0000
,
0000
0000
1000
0000
,
1000
0000
0001
0001
,
0001
0000
0001
0000
,
0001
0000
1000
1000
,
1000
0000
0010
0000
,
0010
0000
0100
0100
,
0100
0000
0100
0000
,
0100
0000
0010
0010
,
0010
0000
2002
0000
,
0000
0000
3003
0000
,
0000
0000
0220
0000
,
0000
0000
0330
0000
,
0000
0000
2020
0000
,
0000
0000
3030
0000
,
0000
0000
0202
0000
,
0000
0000
0303
0000
,
0000
0000
0002
0000
,
0000
0000
0000
0003
,
0000
0000
1000
1000
,
2000
3000
0001
0000
,
0001
0000
0100
0100
,
0200
0300
0010
0000
,
0010
0000
2000
0000
,
3000
0000
0002
0000
,
0003
0000
0010
0010
,
0020
0000
0000
0000
,
0000
0000
0000
0000
,
0000
0000
0030
0000
;

//---------------dance-single - ----------------
#NOTES:
     dance-single:
     :
     Challenge:
     14:
     0.714294,0.708342,0.476196,0.261908,1.000012,420.000000,380.000000,40.000000,22.000000,0.000000,0.000000,0.714294,0.708342,0.476196,0.261908,1.000012,420.000000,380.000000,40.000000,22.000000,0.000000,0.000000:
// measure 0
0000
0000
0000
0000
,  // measure 1
0000
0000
0000
0000
,  // measure 2
0000
0000
0000
0000
,  // measure 3
0000
0000
0000
0000
,  // measure 4
0000
0000
0000
0000
0000
0000
0000
0001
0010
0000
0000
0001
0100
0000
0000
0001
,  // measure 5
1000
0000
0001
0000
0000
0000
1001
0000
0000
0000
1100
0000
1000
0000
0000
1000
,  // measure 6
0100
0000
0000
1000
0100
0000
0000
1000
0020
0000
0000
0000
0100
0000
0230
0000
,  // measure 7
0000
0001
0302
0000
1003
0000
0100
0000
,  // measure 8
0010
0000
0000
0000
0000
0000
0000
0000
0000
0000
0000
0000
0001
0000
0000
0000
0010
0000
0000
0000
0001
0000
0000
0000
0010
0000
0000
0000
0000
0000
0000
0000
0000
0010
0000
0000
0001
0000
0000
0000
0000
0000
0000
0000
0000
0001
0000
0000
,  // measure 9
1000
0000
0000
1000
0001
0000
0000
0001
1000
0000
0000
1000
0010
0000
0000
0010
,  // measure 10
0100
0000
0000
0000
0110
0000
0000
0100
0010
0000
0000
1000
0100
0000
0000
1000
,  // measure 11
0010
0000
0000
0100
0001
0000
0000
0010
0001
0000
0000
0100
0010
0000
0000
1000
,  // measure 12
0001
0000
0000
0010
0001
0000
0000
1000
0001
0000
0000
0100
0001
0000
0000
1000
,  // measure 13
0100
0000
0000
1000
0001
0000
0000
0010
0001
0000
0000
0100
0010
0000
0000
1000
,  // measure 14
0200
0000
0000
0310
0000
0010
0001
0000
0001
0010
0000
0010
,  // measure 15
0001
0000
0001
1000
0000
1000
0001
0000
0001
0100
0000
0100
,  // measure 16
0020
0000
0000
0000
0000
0000
0000
0000
0000
0000
0000
0000
1030
0000
0000
0000
0010
0000
0000
0000
0000
1000
0000
0000
0010
0000
0000
0000
0000
0000
0000
0000
0010
0000
0000
0000
0100
0000
0000
0000
0000
0000
0000
0000
0000
0100
0000
0000
,  // measure 17
0001
0000
0000
0000
0000
0000
0000
0000
0001
0000
0000
0000
1000
0000
0000
0000
0000
0000
0000
0000
0000
1000
0000
0000
0001
0000
0000
0000
0000
0000
0000
0000
0001
0000
0000
0000
0010
0000
0000
0000
0000
0000
0000
0000
0000
0010
0000
0000
,  // measure 18
0002
0000
0000
0000
1003
0000
0000
0000
1001
0000
0000
1000
0100
0000
0000
0010
,  // measure 19
0001
0000
0000
1000
0010
0000
0000
0100
0001
0000
0000
1000
0100
0000
0000
0010
,  // measure 20
0001
0000
0000
0001
0100
0000
0000
0010
1000
0000
0000
0001
0010
0000
0000
0100
,  // measure 21
2000
0000
3001
0100
0000
0010
1000
0000
0001
0010
0000
0100
,  // measure 22
1000
0100
1000
0100
0000
1000
0010
0000
0010
0100
0001
0100
,  // measure 23
0001
0000
0001
1000
0000
1000
0001
0000
1000
0100
0010
0001
,  // measure 24
1000
0000
0000
0000
0000
0000
0000
0000
0001
0000
0000
0000
0100
0000
0000
0000
0000
0000
0000
0000
0010
0000
0000
0000
0100
0000
0000
0000
0000
0000
0000
0000
0000
1000
0000
0000
0100
0000
0000
0000
0000
0000
0000
0000
0000
0010
0000
0000
,  // measure 25
0100
0000
0100
0000
0000
1100
0000
0000
0101
0000
0000
0000
,  // measure 26
0002
0000
0000
0013
0000
0000
0001
0000
1000
0000
0000
0001
0100
0000
0000
0001
,  // measure 27
0010
0000
0000
0000
0000
0000
0000
0000
0010
0000
0000
0000
0000
0000
0000
0000
0000
0000
0000
0000
0011
0000
0000
0000
0000
0000
0000
0000
0000
0000
0000
0000
0000
0001
0000
0000
0100
0000
0000
0000
0000
0000
0000
0000
0000
0000
0000
0000
,  // measure 28
0020
0000
0000
0000
0000
0000
0000
0000
0000
1030
0000
0000
0100
0000
0000
0000
0000
0000
0000
0000
0000
0000
0000
0000
0110
0000
0000
0000
0000
0000
0000
0000
0010
0000
0000
0000
0001
0000
0000
0000
0000
0000
0000
0000
1000
0000
0000
0000
,  // measure 29
0100
0000
0010
0000
0000
0101
0000
0000
1010
0000
0000
0000
,  // measure 30
1200
0000
0000
1300
0010
0000
0100
0000
0002
0000
0000
0000
0010
0000
0023
0000
,  // measure 31
0000
0100
0230
0000
1300
0000
0100
0000
,  // measure 32
0010
0000
0000
0001
0100
0010
1000
0000
0100
1000
0000
0010
,  // measure 33
0100
0000
0110
0000
0000
0011
0000
0000
0101
0000
0000
0000
,  // measure 34
1002
0000
0000
0000
0000
0000
0000
0000
0003
0100
0000
0000
0001
0000
0000
0000
0000
0000
1000
0000
0000
0000
0000
0000
1001
0000
0000
0000
0000
0000
0000
0000
0000
0010
0000
0000
0001
0000
0000
0000
0000
0000
0000
0000
0000
0100
0000
0000
,  // measure 35
0010
0000
0110
0000
0000
1010
0000
0000
1100
0000
0000
0000
,  // measure 36
1020
0000
0130
0000
0000
0100
0001
0000
1000
0010
0000
1000
,  // measure 37
0001
0000
0011
0000
0000
0110
0000
0000
1100
0000
0000
0100
,  // measure 38
1000
0000
0100
0000
0100
0000
1000
0000
0010
0000
0100
0000
0002
0000
0000
0000
0000
0000
1000
0000
0000
2003
0000
0000
,  // measure 39
0000
0100
3200
0000
0310
0000
0001
0000
,  // measure 40
0100
0000
0000
0010
1000
0100
0010
0000
0001
0010
0000
0001
,  // measure 41
0010
0000
1000
0010
0000
1000
0010
0100
0001
0010
0000
1000
,  // measure 42
0020
0000
0000
0000
0000
0000
0000
0000
0130
0000
0000
0000
0001
0000
0000
0000
0010
0000
0000
0000
0100
0000
0000
0000
1000
0000
0000
0000
0000
0000
0000
0000
0000
0100
0000
0000
1000
0000
0000
0000
0000
0000
0000
0000
0000
0010
0000
0000
,  // measure 43
0100
0000
0000
0000
0000
0000
0000
0000
0000
0001
0000
0000
0010
0000
0000
0000
0000
0000
0000
0000
0000
0001
0000
0000
1000
0000
0000
0000
0000
0000
0000
0000
1000
0000
0000
0000
0100
0000
0000
0000
1000
0000
0000
0000
0010
0000
0000
0000
,  // measure 44
0100
0000
0000
0101
0000
0001
0010
0000
0001
0100
0000
0010
,  // measure 45
1000
0000
0100
1000
0000
0010
0100
0001
1000
0001
0100
0010
,  // measure 46
0100
0000
0110
0000
1000
0001
0100
0010
,  // measure 47
1000
1001
0110
0011
,  // measure 48
0101
0000
0000
0000
1010
0000
0000
0000
0000
0000
0100
0000
0000
0100
0000
0000
,  // measure 49
1000
0000
0000
0000
0000
0000
0000
0000
0000
1000
0000
0000
0100
0000
0000
0000
0000
0000
0100
0000
0000
0000
0000
0000
0010
0000
0000
0000
0000
0000
0000
0000
0010
0000
0000
0000
0001
0000
0000
0000
0000
0000
0000
0000
0001
0000
0000
0000
,  // measure 50
1000
0000
0000
1001
0000
0001
0010
0000
0010
0100
0000
0100
,  // measure 51
1000
0000
0000
1001
0000
0000
1010
0000
0010
0100
0000
0100
,  // measure 52
0001
0000
0000
1001
0000
0000
1100
0000
0100
0010
0000
0010
,  // measure 53
0001
0000
0000
0101
0000
0010
1000
0000
0001
0100
0000
0001
,  // measure 54
0010
0000
0000
0011
0000
0100
1000
0000
0010
0100
0000
0001
,  // measure 55
0100
0000
0000
1001
0000
1000
0100
0000
1000
0010
0000
0100
,  // measure 56
0001
0000
0010
0001
0000
0100
0010
0000
0100
0010
0000
1000
,  // measure 57
0001
0000
1001
0000
2100
0000
0010
0020
,  // measure 58
3000
0100
0230
0000
0301
0000
0010
0000
,  // measure 59
0100
0000
0000
1000
0100
0010
0001
0000
0000
0000
0000
0000
;
