#VERSION:0.83;
#TITLE:SURRENDER(YOUR LOVE);
#SUBTITLE:;
#ARTIST:JAVINE;
#TITLETRANSLIT:;
#SUBTITLETRANSLIT:;
#ARTISTTRANSLIT:;
#GENRE:;
#ORIGIN:;
#CREDIT:;
#BANNER:SURRENDER(YOUR LOVE).png;
#BACKGROUND:SURRENDER(YOUR LOVE)-bg.png;
#PREVIEWVID:;
#JACKET:SURRENDER(YOUR LOVE)-jacket.png;
#CDIMAGE:;
#DISCIMAGE:;
#LYRICSPATH:;
#CDTITLE:;
#MUSIC:SURRENDER(YOUR LOVE).ogg;
#OFFSET:0.000000;
#SAMPLESTART:38.759998;
#SAMPLELENGTH:15.000000;
#SELECTABLE:YES;
#DISPLAYBPM:103.000000;
#BPMS:0.000=102.800,
4.000=103.000;
#STOPS:;
#DELAYS:;
#WARPS:;
#TIMESIGNATURES:0.000=4=4;
#TICKCOUNTS:0.000=4;
#COMBOS:0.000=1;
#SPEEDS:0.000=1.000=0.000=0;
#SCROLLS:0.000=1.000;
#FAKES:;
#LABELS:0.000=Song Start;
#BGCHANGES:;
#KEYSOUNDS:;
#ATTACKS:
;

//---------------dance-single - ----------------
#NOTEDATA:;
#CHARTNAME:;
#STEPSTYPE:dance-single;
#DESCRIPTION:;
#CHARTSTYLE:;
#DIFFICULTY:Beginner;
#METER:3;
#RADARVALUES:0.091488,0.103673,0.000000,0.000000,0.000000,61.000000,61.000000,0.000000,0.000000,0.000000,0.000000,0.000000,0.000000,0.000000,0.091488,0.103673,0.000000,0.000000,0.000000,61.000000,61.000000,0.000000,0.000000,0.000000,0.000000,0.000000,0.000000,0.000000;
#CREDIT:;
#DISPLAYBPM:103.000000;
#NOTES:
0000
0000
0000
0000
,
0000
0000
0000
0000
,
0000
0000
0000
0000
,
0001
0000
1000
0000
,
0000
0000
0000
0000
,
1000
0000
0100
0000
,
0010
0000
0010
0000
,
1000
0000
0010
0000
,
0100
0000
0100
0000
,
1000
0000
0100
0000
,
0001
0000
0001
0000
,
1000
0000
0010
0000
,
0001
0000
0001
0000
,
1000
0000
0000
0001
,
0000
0000
0100
0000
,
0001
0000
0100
0000
,
1000
0000
0100
0000
,
0010
0000
0100
0000
,
0010
0000
1000
0000
,
0100
0000
0000
0100
,
0100
0000
0000
0000
,
0010
0000
0100
0000
,
0010
0000
1000
0000
,
0100
0000
0000
0100
,
0000
0000
0000
0000
,
0001
0000
1000
0000
,
0000
0001
0000
0000
,
1000
0000
0001
0000
,
0000
1000
0000
0000
,
0100
0000
0010
0000
,
0100
0000
1000
0000
,
0100
0000
0000
0100
,
0100
0000
0000
0000
,
0010
0000
0100
0000
,
0010
0000
1000
0000
,
0100
0000
0000
0100
,
0000
0000
0000
0000
,
1000
0000
0001
0000
,
0000
0000
0000
0000
,
0001
0000
1000
0000
;

//---------------dance-single - ----------------
#NOTEDATA:;
#CHARTNAME:;
#STEPSTYPE:dance-single;
#DESCRIPTION:;
#CHARTSTYLE:;
#DIFFICULTY:Easy;
#METER:4;
#RADARVALUES:0.151479,0.188384,0.115484,0.000000,0.000000,101.000000,90.000000,11.000000,0.000000,0.000000,0.000000,0.000000,0.000000,0.000000,0.151479,0.188384,0.115484,0.000000,0.000000,101.000000,90.000000,11.000000,0.000000,0.000000,0.000000,0.000000,0.000000,0.000000;
#CREDIT:;
#DISPLAYBPM:103.000000;
#NOTES:
0000
0000
0000
0000
,
0000
0000
0000
0000
,
0000
0000
0000
0000
,
0001
0000
0000
0000
1000
0000
0000
1001
,
0000
0000
0000
0000
,
1000
0001
0100
0000
,
0010
0000
0010
0000
,
1000
0001
0010
0000
,
0100
0000
0100
0000
,
1000
0010
0100
0000
,
0001
0000
0001
0000
,
1000
0100
0010
0000
,
0001
0000
0001
0000
,
1000
0100
0000
0001
,
0100
0000
0100
0000
,
0001
0010
0100
0000
,
1000
0010
0100
0000
,
0010
1001
0100
0000
,
0010
0000
1000
0001
,
0100
1001
0000
0100
,
0100
0000
0000
0000
,
0010
1001
0100
0000
,
0010
0000
1000
0001
,
0100
1001
0000
0100
,
0010
0000
0000
0000
,
0001
0000
1000
0100
,
0000
0001
0100
0000
,
1000
0000
0001
0010
,
0000
1000
0010
0000
,
0100
1001
0010
0000
,
0100
0000
1000
0001
,
0100
1001
0000
0100
,
0100
0000
0000
0000
,
0010
1001
0100
0000
,
0010
0000
1000
0001
,
0100
1001
0000
0100
,
0010
0000
0000
0000
,
1000
0000
0000
0000
0001
0000
0000
1001
,
0000
0000
0000
0000
,
0001
0000
0000
0000
1000
0000
0000
1001
;

//---------------dance-single - ----------------
#NOTEDATA:;
#CHARTNAME:;
#STEPSTYPE:dance-single;
#DESCRIPTION:;
#CHARTSTYLE:;
#DIFFICULTY:Medium;
#METER:8;
#RADARVALUES:0.307458,0.313973,0.314957,0.000000,0.068241,205.000000,175.000000,30.000000,0.000000,0.000000,0.000000,0.000000,0.000000,0.000000,0.307458,0.313973,0.314957,0.000000,0.068241,205.000000,175.000000,30.000000,0.000000,0.000000,0.000000,0.000000,0.000000,0.000000;
#CREDIT:;
#DISPLAYBPM:103.000000;
#NOTES:
0000
0000
0000
0000
,
0000
0000
0000
0000
,
0000
0100
0010
0100
,
1001
0000
0000
0000
0110
0000
0000
1001
,
0000
0000
0000
0001
1000
0000
0000
0001
1000
0000
0000
0001
1000
0000
0000
0000
,
0100
0000
0100
0000
0010
0000
1000
0100
,
0000
0000
0010
0000
0000
0010
0000
0000
0010
0000
0000
0000
0000
0000
0000
0000
,
0001
0000
0001
0000
1000
0000
0100
0010
,
0000
0000
0001
0000
0000
0001
0000
0000
0001
0000
0000
0000
1000
0000
0000
0000
,
0010
0000
0010
0000
0100
0000
0001
0100
,
0000
0000
0010
0000
0000
0010
0000
0000
0010
0000
0000
0000
0000
0000
0000
0000
,
1000
0000
1000
0000
0001
0000
0010
0100
,
0000
0000
1000
0000
0000
1000
0000
0000
1000
0000
0000
0000
0001
0000
0000
0000
,
1000
0000
0000
0000
0100
0010
0100
0000
1000
0000
0000
0000
0001
0000
0100
0000
,
0000
0000
0010
0000
0000
0010
0000
0000
0010
0000
0000
0000
0000
0000
0000
0000
,
1000
0000
0000
0000
0100
0010
0100
0000
1000
0000
0000
0000
0001
0000
0000
0000
,
1000
0010
0100
0001
0010
0000
0100
0000
,
1001
0000
0110
0000
1000
0001
0100
0000
,
1000
0000
0100
0010
0001
0000
1000
0000
,
0110
0000
1001
0000
0010
0100
1000
0000
,
0001
0000
0100
0010
1000
0100
0010
0000
,
1001
0000
0110
0000
0001
1000
0010
0000
,
0001
0000
0010
0100
1000
0000
0001
0000
,
0110
0000
1001
0000
0100
0010
0001
0000
,
1000
0000
0010
0100
0001
0010
0100
0000
,
1001
0000
0000
0000
0110
0000
0000
1001
,
0000
0100
0000
0010
0000
0001
0000
1000
,
0110
0000
1001
0100
,
0010
0000
0000
1000
0001
0000
0000
1000
0001
0000
0000
1000
0001
0000
0000
0000
,
0110
0000
1001
0000
0010
0100
1000
0000
,
0001
0000
1000
0010
0100
0000
0001
0000
,
0011
0000
1100
0000
0001
0100
0010
0000
,
1000
0000
0001
0010
0100
1000
0001
0000
,
0110
0000
1001
0000
0010
0100
0001
0000
,
1000
0000
0001
0010
0100
0000
1000
0000
,
1010
0000
0101
0000
1000
0100
0010
0000
,
0001
0000
1000
0010
0100
0001
1000
0000
,
0110
0000
0000
0000
1001
0000
0000
0110
,
0000
0000
0000
0000
,
1001
0000
0000
0000
0110
0000
0000
1001
;

//---------------dance-single - ----------------
#NOTEDATA:;
#CHARTNAME:;
#STEPSTYPE:dance-single;
#DESCRIPTION:;
#CHARTSTYLE:;
#DIFFICULTY:Hard;
#METER:10;
#RADARVALUES:0.379449,0.397699,0.251966,0.010499,0.125983,253.000000,229.000000,24.000000,1.000000,0.000000,0.000000,0.000000,0.000000,0.000000,0.379449,0.397699,0.251966,0.010499,0.125983,253.000000,229.000000,24.000000,1.000000,0.000000,0.000000,0.000000,0.000000,0.000000;
#CREDIT:;
#DISPLAYBPM:103.000000;
#NOTES:
0000
0000
0000
0000
,
0000
0000
0000
0000
,
0000
0000
0000
0000
0000
0000
0000
0000
0000
0000
0000
1000
0000
0100
0010
0000
,
0001
0000
0000
0000
0000
0000
1000
0100
0000
1000
0000
0002
0000
0000
0000
0000
,
0000
0000
0000
0003
,
1000
0000
0000
0000
0001
0010
0001
0000
0100
0000
0000
0000
1000
0010
1000
0000
,
0100
0000
0001
0010
0100
1000
0001
0000
,
1000
0000
0000
0000
0001
0100
0001
0000
0010
0000
0000
0000
1000
0100
1000
0000
,
0010
0000
0001
0010
0100
1000
0001
0000
,
1000
0000
0000
0000
0001
0010
0001
0000
1000
0000
0000
0000
0010
0100
0010
0000
,
1000
0000
0100
0010
0001
0100
0010
0000
,
1000
0000
0000
0000
0001
0100
0001
0000
1000
0000
0000
0000
0100
0010
0100
0000
,
1000
0000
0010
0100
0001
0010
0100
0000
,
1000
0000
0000
0000
0001
0100
0001
0000
1000
0000
0000
0000
0100
0000
0000
0000
,
0010
0001
0100
0010
1000
0001
1000
0000
,
0001
0000
0000
0000
1000
0100
1000
0000
0001
0000
0000
0000
0100
0000
0000
0000
,
0010
0000
1000
0001
1000
0000
0001
1000
0001
0000
0100
0000
0010
0000
1000
0000
,
1100
0000
0011
0000
0100
0010
1000
0000
,
0001
0010
1000
0010
0001
0010
1000
0000
,
0101
0000
1010
0000
0100
0001
0010
0000
,
0100
1000
0010
0001
0010
1000
0100
0000
,
0011
0000
1100
0000
0001
0100
0010
0000
,
1000
0001
0010
1000
0010
0001
0100
0000
,
1010
0000
1100
0000
0010
0001
0100
0000
,
0010
1000
0001
0010
0100
1000
0001
0000
,
0110
0000
0000
0000
1000
0100
1000
0000
0001
0000
0000
0000
0100
0000
0000
0000
,
1000
0100
0001
0100
1000
0010
0100
0000
,
1001
0000
0000
0000
0100
0010
0100
0000
1000
0000
0000
0000
0001
0000
0000
0000
,
0100
0000
0000
0010
1000
0000
0000
0001
1000
0000
0000
0100
1000
0000
0000
0000
,
0011
0000
0101
0000
0010
1000
0100
0000
,
0001
0100
1000
0100
0001
0010
1000
0010
,
0101
0000
1010
0000
0100
0010
0001
0000
,
0100
0000
0010
0000
1000
0000
0001
0000
0010
0000
0100
0000
1000
0010
1000
0000
,
0101
0000
0011
0000
0100
1000
0001
0100
,
0010
1000
0001
0010
1000
0010
0001
0100
,
1010
0000
0101
0000
0010
0100
1000
0001
,
0100
0000
1000
0000
0100
0000
0001
0000
0010
0000
0100
0000
1000
0010
1000
0000
,
1100
0000
0000
0000
0011
0000
0000
1001
,
0000
0000
0000
0000
,
0101
0000
0000
0000
1010
0000
0000
1001
;

//---------------dance-double - ----------------
#NOTEDATA:;
#CHARTNAME:;
#STEPSTYPE:dance-double;
#DESCRIPTION:;
#CHARTSTYLE:;
#DIFFICULTY:Easy;
#METER:4;
#RADARVALUES:0.149980,0.188384,0.115484,0.000000,0.000000,100.000000,89.000000,11.000000,0.000000,0.000000,0.000000,0.000000,0.000000,0.000000,0.149980,0.188384,0.115484,0.000000,0.000000,100.000000,89.000000,11.000000,0.000000,0.000000,0.000000,0.000000,0.000000,0.000000;
#CREDIT:;
#DISPLAYBPM:103.000000;
#NOTES:
00000000
00000000
00000000
00000000
,
00000000
00000000
00000000
00000000
,
00000000
00000000
00000000
00000000
,
00010000
00000000
00000000
00000000
00001000
00000000
00000000
00011000
,
00000000
00000000
00000000
00000000
,
00100000
00000000
00010000
00000000
,
10000000
00000000
01000000
01000000
,
00010000
00000000
00001000
00000000
,
00000010
00000000
00000001
00000001
,
00001000
00000000
00000100
00000000
,
00010000
00000000
00001000
00001000
,
00100000
00000000
00010000
00000000
,
10000000
00000000
01000000
01000000
,
00100000
00100000
00000000
00010000
,
00000000
01000000
00000000
00001000
,
00010000
00010000
00000000
00000010
,
00000000
00001000
00000000
00000001
,
00000100
00001001
00000000
00000100
,
00010000
00000000
00001000
00100000
,
01000000
10010000
00000000
01000000
,
00100000
00000000
00000000
00000000
,
01000000
10010000
00000000
01000000
,
00001000
00000000
00010000
00000010
,
00000100
00001001
00000000
00000100
,
00000010
00000000
00000000
00000000
,
00001000
00000000
00000001
00000000
,
00000010
00000000
00000100
00000000
,
00001000
00000000
00000001
00000000
,
00000100
00001000
00010000
01000000
,
00100000
10010000
00000000
01000000
,
00001000
00000000
00010000
00000010
,
00000100
00001001
00000000
00000100
,
00000010
00000000
00000000
00000000
,
00000100
00001001
00000000
00000100
,
00010000
00000000
00001000
00100000
,
01000000
10010000
00000000
01000000
,
00100000
00000000
00000000
00000000
,
10000000
00000000
00000000
00000000
00010000
00000000
00000000
01100000
,
00000000
00000000
00000000
00000000
,
00001000
00000000
00000000
00000000
00010000
00000000
00000000
00011000
;

//---------------dance-double - ----------------
#NOTEDATA:;
#CHARTNAME:;
#STEPSTYPE:dance-double;
#DESCRIPTION:;
#CHARTSTYLE:;
#DIFFICULTY:Medium;
#METER:7;
#RADARVALUES:0.301459,0.313973,0.157479,0.000000,0.120734,201.000000,186.000000,15.000000,0.000000,0.000000,0.000000,0.000000,0.000000,0.000000,0.301459,0.313973,0.157479,0.000000,0.120734,201.000000,186.000000,15.000000,0.000000,0.000000,0.000000,0.000000,0.000000,0.000000;
#CREDIT:;
#DISPLAYBPM:103.000000;
#NOTES:
00000000
00000000
00000000
00000000
,
00000000
00000000
00000000
00000000
,
00000000
00000010
00000001
00000100
,
00001010
00000000
00000000
00000000
00011000
00000000
00000000
01010000
,
00000000
00000000
00000000
10000000
01000000
00000000
00000000
10000000
01000000
00000000
00000000
10000000
01000000
00000000
00000000
00000000
,
00100000
00010000
01000000
00100000
,
10000000
00010000
10000000
00010000
,
01000000
00001000
00010000
00000010
,
00001000
00000000
00000000
00000001
00000100
00000000
00000000
00000001
00000100
00000000
00000000
00000001
00000100
00000000
00000000
00000000
,
00000010
00000000
00001000
00000000
00000100
00000000
00000010
00000001
,
00000100
00000010
00001000
00000100
,
00010000
00000000
00001000
00000000
00100000
00000000
00010000
01000000
,
00100000
00000000
00000000
10000000
01000000
00000000
00000000
10000000
01000000
00000000
00000000
10000000
01000000
00000000
00000000
00000000
,
00100000
00000000
00010000
00000000
01000000
00000000
00100000
10000000
,
01000000
00000000
00100000
00010000
10000000
01000000
00010000
00000000
,
00001000
00000000
00000100
00000000
00000001
00000000
00001000
00000100
,
00000010
00000000
00000000
00000001
00000100
00000000
00000000
00000001
00000100
00000000
00000000
00000001
00000100
00000000
00000010
00000000
,
00001000
00000001
00000010
00000100
,
00010000
00001000
00100000
00010000
,
10000000
00100000
01000000
00010000
,
10000000
00000000
01000000
00100000
01000000
00000000
00100000
01000000
00100000
00000000
00010000
00000000
01000000
00000000
00100000
00000000
,
10000000
01000000
00100000
00010000
,
01000000
00001000
00010000
00000010
,
00001000
00000100
00000010
00000001
,
00001000
00000000
00000010
00000100
00000010
00000000
00000100
00000010
00000100
00000000
00000001
00000000
00000010
00000000
00000000
00000000
,
00001100
00000000
00000000
00000000
00011000
00000000
00000000
00110000
,
00000000
10000000
00100000
01000000
,
00110000
00000000
00000000
00000000
00011000
00000000
00000000
00001100
,
00000000
00000000
00000000
00000001
00000100
00000000
00000000
00000001
00000100
00000000
00000000
00000001
00000100
00000000
00000000
00000000
,
00000010
00001000
00000100
00010000
,
00001000
00100000
00010000
01000000
,
00100000
10000000
01000000
00100000
,
00010000
00000000
01000000
00100000
01000000
00000000
00100000
01000000
00100000
00000000
10000000
00000000
01000000
00000000
00010000
00000000
,
00001000
00000100
00000001
00000010
,
00000100
00001000
00000001
00000100
,
00001000
00010000
00100000
10000000
,
00010000
00000000
00100000
01000000
00100000
00000000
01000000
00100000
01000000
00000000
10000000
00000000
00100000
00000000
00000000
00000000
,
01010000
00000000
00000000
00000000
00011000
00000000
00000000
00001010
,
00000000
00000001
00000010
00000100
,
00001010
00000000
00000000
00000000
00011000
00000000
00000000
01010000
;

//---------------dance-double - ----------------
#NOTEDATA:;
#CHARTNAME:;
#STEPSTYPE:dance-double;
#DESCRIPTION:;
#CHARTSTYLE:;
#DIFFICULTY:Hard;
#METER:12;
#RADARVALUES:0.352452,0.481425,0.167977,0.041994,0.367450,235.000000,219.000000,16.000000,4.000000,0.000000,0.000000,0.000000,0.000000,0.000000,0.352452,0.481425,0.167977,0.041994,0.367450,235.000000,219.000000,16.000000,4.000000,0.000000,0.000000,0.000000,0.000000,0.000000;
#CREDIT:;
#DISPLAYBPM:103.000000;
#NOTES:
00000000
00000000
00000000
00000000
,
00000000
00000000
00000000
00000000
,
00000000
00010000
00100000
00010000
00000000
00001000
00010000
00001000
00000000
00000010
00001000
00000010
00000000
00000001
00000010
00000001
,
00000000
00000001
00000100
00000001
00000010
00000001
00000100
00000001
00000000
00000010
00000100
00000010
00000000
00000000
00000000
00000000
,
00000000
00001000
00000010
00001000
00000000
00010000
00001000
00010000
00000000
00100000
00010000
00100000
00000000
00000000
00000000
00000000
,
01000000
00000000
00000000
00000000
10000000
00100000
10000000
00000000
00000000
00000000
00010000
01000000
00010000
00100000
00010000
00000000
,
00000000
00000000
00000000
00000000
01000000
00000000
00001000
00000000
00010000
00000000
00000010
00001000
00000000
00000010
00001000
00000000
,
00000000
00000000
00000001
00000010
00000100
00000000
00000000
00000000
,
00000000
00000000
00001000
00000010
00000100
00000100
00000000
00000000
,
00000000
00000000
00000000
00000000
00001000
00000000
00010000
00001000
00000000
00000000
00000000
00000000
00010000
00000000
00001000
00010000
,
00000000
00000000
00000000
00000000
00000010
00001000
00000010
00000000
00000000
00000000
00000100
00000001
00000000
00000100
00000001
00000000
,
00000000
00000000
00001000
00000100
00010000
00000000
00000000
00000000
,
00000000
00001000
00100000
00000000
00010000
00000000
00000000
00000000
,
00000000
00000000
00000000
01000000
00000000
00100000
10000000
00000000
00000000
00000000
01000000
00100000
00000000
01000000
00100000
00000000
,
00000000
00000000
00000000
00000000
10000000
00000000
00010000
00000000
01000000
00000000
00100000
01000000
00000000
00100000
01000000
00000000
,
00000000
00000000
00001000
00010000
00000010
00000000
00000000
00000000
,
00001000
00000000
00000001
00000010
00000001
00000000
00001000
00000010
00001000
00000000
00000100
00000000
00000010
00000000
00000001
00000000
,
00001100
00000000
00000011
00000000
00000100
00000000
00001000
00010000
,
00100000
00000000
10000000
00010000
00000000
10000000
00000000
01000000
,
00110000
11000000
00000000
00010000
,
00002000
00000000
00000000
00003000
,
00001100
00000000
00000011
00000000
00000100
00000000
00001000
00010000
,
01000000
00000000
10000000
00010000
00000000
10000000
00000000
00100000
,
01010000
10100000
00000000
00010000
,
00002000
00000000
00000000
00003000
,
00000000
00000000
00000000
00000000
00000010
00000001
00000010
00000000
00000100
00000000
00001000
00000010
00000000
00001000
00000010
00000000
,
00000000
00000000
00000000
00000000
00010000
00000000
00001000
00000000
01000000
00000000
00010000
10000000
00000000
00010000
01000000
00000000
,
00000000
00000000
00010000
10000000
00000000
00010000
01000000
00000000
00000000
00000000
00010000
10000000
00000000
00010000
01000000
00000000
,
00100000
00000000
00000000
01000000
10000000
00000000
00000000
00010000
10000000
00000000
00000000
00100000
10000000
00000000
00000000
00000000
,
01010000
00000000
10100000
00000000
01000000
00000000
00010000
00001000
,
00000010
00000000
00000001
00001000
00000000
00000001
00000000
00000100
,
00001010
00000101
00000000
00001000
,
00020000
00000000
00000000
00030000
,
01010000
00000000
10100000
00000000
01000000
00000000
00010000
00001000
,
00000100
00000000
00000001
00001000
00000000
00000001
00000000
00000010
,
00001100
00000011
00000000
00001000
,
00020000
00000000
00000000
00030000
,
00000000
00100000
00010000
10000000
00010000
01000000
00010000
10000000
00000000
01000000
00100000
01000000
00000000
00000000
00000000
00000000
,
00000000
00010000
01000000
00010000
00000000
00001000
00010000
00001000
00000000
00000010
00001000
00000010
00000000
00000001
00000010
00000001
,
00000000
00000100
00000010
00001000
00000100
00001000
00000010
00000100
00000000
00000001
00001000
00000100
00000000
00000000
00010000
00000000
;

//---------------dance-single - ----------------
#NOTEDATA:;
#CHARTNAME:;
#STEPSTYPE:dance-single;
#DESCRIPTION:;
#CHARTSTYLE:;
#DIFFICULTY:Challenge;
#METER:14;
#RADARVALUES:0.716903,0.720596,0.188974,0.199473,0.971118,478.000000,460.000000,18.000000,19.000000,0.000000,0.000000,0.000000,0.000000,0.000000,0.716903,0.720596,0.188974,0.199473,0.971118,478.000000,460.000000,18.000000,19.000000,0.000000,0.000000,0.000000,0.000000,0.000000;
#CREDIT:;
#DISPLAYBPM:103.000000;
#NOTES:
// measure 0
0000
0000
0000
0000
,  // measure 1
0000
0000
0000
0000
,  // measure 2
0000
0000
0000
0000
0000
0000
1000
0100
1000
0000
0000
0100
0000
0010
0001
0000
,  // measure 3
0200
0000
0000
0000
0300
0000
0100
0010
0200
0000
0000
0001
0000
0000
1300
0100
,  // measure 4
2000
0000
3001
0000
0200
0000
0310
0000
0002
0000
1003
0100
0010
0001
0010
0100
,  // measure 5
1000
0000
0000
0000
1000
0100
0010
0001
0100
0001
0000
0001
0100
0010
1000
0100
,  // measure 6
0010
0000
0100
0010
0001
0000
1000
0010
0200
0000
0310
0001
0000
0001
1000
0000
,  // measure 7
1100
0000
0100
0010
1000
0000
0100
0000
0101
0000
0010
0100
0001
0000
0010
0000
,  // measure 8
1020
0000
0001
0000
1000
0000
0031
0100
,  // measure 9
0110
0000
0000
0000
0010
0001
0100
0010
1000
0010
0000
0010
0100
0001
0010
0100
,  // measure 10
1000
0000
0010
0001
0100
0000
0010
0000
2000
0000
3100
0000
0010
0001
0100
0010
,  // measure 11
1000
0000
0010
0100
0001
0000
0010
0000
1000
0000
0100
0010
1000
0000
0100
0000
,  // measure 12
0010
0001
0100
0010
1000
0100
0010
0001
1000
0010
0100
0001
0010
0100
1000
0010
,  // measure 13
0100
0000
0000
0100
0010
0001
0100
0010
1000
0000
0000
1000
0001
0100
0010
1000
,  // measure 14
0100
0000
0000
0100
0010
0100
0001
0010
0100
1000
0100
0010
0001
0100
0010
1000
,  // measure 15
0100
0000
0000
0100
0001
0010
0001
0100
0010
1000
0010
0100
1000
0001
1000
0100
,  // measure 16
0120
0000
0031
0010
0210
0000
1300
0100
0102
0000
0013
0100
2100
0000
3010
0001
,  // measure 17
0100
0000
0010
0001
1000
0000
0100
0000
0001
0000
0010
0100
1000
0000
0010
0000
,  // measure 18
0001
0100
0001
0100
0010
1000
0010
0000
0000
0000
1000
0100
1000
0000
0100
0001
,  // measure 19
0100
0010
0100
1000
0100
0000
0010
1000
0100
0000
0001
0000
0010
0000
1000
0100
,  // measure 20
0010
0001
0010
0100
0010
1000
0010
0100
0010
0001
0010
0100
0010
1000
0010
0100
,  // measure 21
0010
0000
0001
0010
0100
0000
1000
0100
0010
0000
0001
0010
0100
1000
0100
0010
,  // measure 22
0001
0100
0010
1000
0001
0100
0010
0000
0000
0000
0100
1000
0001
0000
0100
1000
,  // measure 23
0010
0000
0001
0010
0100
0000
0010
1000
0100
0000
0010
0001
0100
0010
1000
0000
,  // measure 24
0100
0010
0001
0010
0100
0010
0001
0010
0100
0010
0001
0010
0100
0010
0001
0010
,  // measure 25
0100
0000
0000
0100
1000
0010
0100
0001
0020
0000
0031
0100
0000
0001
0010
0100
,  // measure 26
1000
0000
0100
0010
0001
0000
0010
1000
0200
0000
0310
0001
0000
0010
0001
0000
,  // measure 27
0101
0000
0001
0100
0010
0100
0010
0000
1010
0000
0010
1000
0100
1000
0100
0000
,  // measure 28
0210
0000
0301
0000
0120
0000
1030
0000
0210
0000
0301
0010
0100
1000
0100
0010
,  // measure 29
0001
0000
0010
0001
0100
0000
0010
1000
0100
0000
0001
0010
0100
1000
1100
0000
,  // measure 30
1000
0100
0010
0001
1000
0100
0010
0000
0000
0000
0010
0001
0100
0000
0010
1000
,  // measure 31
0100
0010
0001
0010
0100
0000
0010
1000
0100
0000
0010
0001
0100
0010
1010
0000
,  // measure 32
0010
1000
0100
0010
0001
0100
0010
0001
0100
0010
1000
0100
0010
0000
0001
0010
,  // measure 33
0100
0000
1000
0100
0010
0000
0001
0010
0100
0000
1000
0100
0010
0001
0011
0000
,  // measure 34
0001
0010
0100
1000
0001
0100
0010
0000
0000
0000
0010
1000
0001
0000
0010
0100
,  // measure 35
0001
0000
0010
1000
0100
0000
0010
0001
0100
0000
1000
0100
0010
0001
0110
0000
,  // measure 36
0010
0000
0001
0000
0100
0010
0100
0000
1000
0000
0100
0000
0010
0001
0010
0000
0100
0000
0000
0000
0001
0010
0100
1000
0100
0010
0001
0000
0010
0000
1000
0000
,  // measure 37
0100
0000
0001
0010
0100
0000
0100
0010
0001
1000
0000
1000
0001
0000
0100
0001
,  // measure 38
0010
0000
0001
0010
1000
0000
0010
1000
0100
0010
0001
0010
0100
0010
0001
0010
,  // measure 39
0100
0001
0010
0100
1000
0100
0010
0001
0100
0010
0100
0010
0001
0000
2002
0000
,  // measure 40
0000
0000
0000
3003
0000
0000
0000
0000
;
