#VERSION:0.83;
#TITLE:SUPER EUROBEAT ;
#SUBTITLE:;
#ARTIST:DAVE RODGERS feat. FUTURA;
#TITLETRANSLIT:;
#SUBTITLETRANSLIT:;
#ARTISTTRANSLIT:;
#GENRE:;
#ORIGIN:;
#CREDIT:;
#BANNER:SUPER EUROBEAT (GOLD MIX).png;
#BACKGROUND:SUPER EUROBEAT (GOLD MIX)-bg.png;
#PREVIEWVID:;
#JACKET:SUPER EUROBEAT (GOLD MIX)-jacket.png;
#CDIMAGE:;
#DISCIMAGE:;
#LYRICSPATH:;
#CDTITLE:;
#MUSIC:SUPER EUROBEAT (GOLD MIX).ogg;
#OFFSET:0.000000;
#SAMPLESTART:57.650002;
#SAMPLELENGTH:15.000000;
#SELECTABLE:YES;
#BPMS:0.000=154.000;
#STOPS:;
#DELAYS:;
#WARPS:;
#TIMESIGNATURES:0.000=4=4;
#TICKCOUNTS:0.000=4;
#COMBOS:0.000=1;
#SPEEDS:0.000=1.000=0.000=0;
#SCROLLS:0.000=1.000;
#FAKES:;
#LABELS:0.000=Song Start;
#BGCHANGES:;
#KEYSOUNDS:;
#ATTACKS:
;

//---------------dance-single - ----------------
#NOTEDATA:;
#CHARTNAME:;
#STEPSTYPE:dance-single;
#DESCRIPTION:;
#CHARTSTYLE:;
#DIFFICULTY:Beginner;
#METER:1;
#RADARVALUES:0.104550,0.151634,0.010025,0.000000,0.000000,73.000000,72.000000,1.000000,0.000000,0.000000,0.000000,0.000000,0.000000,0.000000,0.104550,0.151634,0.010025,0.000000,0.000000,73.000000,72.000000,1.000000,0.000000,0.000000,0.000000,0.000000,0.000000,0.000000;
#CREDIT:;
#NOTES:
0000
0000
0000
0000
,
0000
0000
0000
0000
,
0000
0000
0000
0000
,
0000
0000
0000
0000
,
0000
0000
0000
0000
,
0001
0000
0000
0000
,
1000
0000
0000
0000
,
0001
0000
0000
0000
,
1000
0000
0000
0000
,
0010
0000
0010
0000
,
0010
0000
0000
0000
,
0001
0000
0001
0000
,
0001
0000
0000
0000
,
0010
0000
0010
0000
,
0010
0000
0000
0000
,
1000
0000
1000
0000
,
1000
0000
0000
0000
,
0001
0000
0000
0000
,
1000
0000
0000
0000
,
0001
0000
0000
0000
,
1000
0000
0000
0000
,
0010
0000
0000
0000
,
0100
0000
0000
0000
,
0010
0000
0000
0000
,
0100
0000
0000
0000
,
0001
0000
0000
0000
,
0001
0000
0001
0000
,
0001
0000
0000
0000
,
0010
0000
0000
0000
,
0100
0000
0000
0000
,
0010
0000
0000
0000
,
1000
0000
0000
0000
,
1000
0000
1000
0000
,
1000
0000
0000
0000
,
0010
0000
0000
0000
,
0100
0000
0000
0000
,
0010
0000
0000
0000
,
0001
0000
0001
0000
,
0001
0000
0000
0000
,
1000
0000
1000
0000
,
1000
0000
0000
0000
,
0010
0000
0010
0000
,
0010
0000
0000
0000
,
0100
0000
0100
0000
,
0100
0000
0000
0000
,
0001
0000
0001
0000
,
0001
0000
0000
0000
,
1000
0000
1000
0000
,
1000
0000
0000
0000
,
0010
0000
0010
0000
,
0010
0000
0000
0000
,
0100
0000
0100
0000
,
0100
0000
0000
0000
,
0001
0000
0000
0000
,
1000
0000
0000
0000
,
0010
0000
0000
0000
,
0100
0000
0000
0000
,
0001
0000
0000
0000
,
1000
0000
0000
0000
,
0001
0000
1000
0000
,
0001
0000
1001
0000
,
0000
0000
0000
0000
;

//---------------dance-single - ----------------
#NOTEDATA:;
#CHARTNAME:;
#STEPSTYPE:dance-single;
#DESCRIPTION:;
#CHARTSTYLE:;
#DIFFICULTY:Easy;
#METER:4;
#RADARVALUES:0.199075,0.305774,0.150380,0.080203,0.000000,139.000000,124.000000,15.000000,8.000000,0.000000,0.000000,0.000000,0.000000,0.000000,0.199075,0.305774,0.150380,0.080203,0.000000,139.000000,124.000000,15.000000,8.000000,0.000000,0.000000,0.000000,0.000000,0.000000;
#CREDIT:;
#NOTES:
0000
0000
0000
0000
,
0000
0000
0000
0000
,
0000
0000
0000
0000
,
0000
0000
0000
0000
,
0000
0000
0000
0000
,
0001
0000
0000
0000
,
1000
0000
0000
0000
,
0010
0000
0000
0000
,
0200
0000
0000
0300
,
1001
0000
1000
0000
,
1001
0000
0001
0000
,
1001
0000
0010
0010
,
0100
0000
0010
0000
,
1001
0000
0001
0000
,
1001
0000
1000
0000
,
1001
0000
0010
0010
,
0100
0000
0010
0000
,
0001
0000
0001
0000
,
0100
0000
0100
0000
,
0010
0000
0010
0000
,
1000
0000
1000
0001
,
1000
0000
1000
0000
,
0100
0000
0100
0000
,
0010
0000
0010
0000
,
0001
0000
0010
0010
,
0100
0000
0100
0000
,
0001
0100
1000
0000
,
0010
0000
0001
0000
,
1000
0000
0010
0100
,
0001
0000
1000
0000
,
0001
0100
0010
0000
,
1000
0000
0100
0000
,
0010
0001
0010
0000
,
0002
0000
0000
0000
,
0003
0000
1000
0000
,
2002
0000
0000
0000
,
0000
0000
3003
0000
,
0001
1000
0001
0000
,
0010
0000
0100
0000
,
0010
0000
0001
0000
,
0100
0010
0010
0000
,
1000
0001
1000
0000
,
0010
0000
0100
0000
,
1000
0100
0001
0000
,
0001
1000
1001
0000
,
0100
0001
0100
0000
,
0020
0000
0030
0000
,
0001
0001
0001
0000
,
1000
0000
0010
0010
,
0100
1000
0100
0000
,
0020
0000
0030
0000
,
1000
1000
0010
0000
,
0100
0000
0000
0000
,
1001
0000
1000
1000
,
1001
0000
0001
0001
,
1001
0000
0010
0100
,
0010
0000
0010
0000
,
1001
0000
1000
0001
,
1001
0000
0001
1000
,
1001
0000
0100
0000
,
0001
1000
2002
0000
,
3003
0000
0000
0000
,
0000
0000
0000
0000
;

//---------------dance-single - ----------------
#NOTEDATA:;
#CHARTNAME:;
#STEPSTYPE:dance-single;
#DESCRIPTION:;
#CHARTSTYLE:;
#DIFFICULTY:Medium;
#METER:7;
#RADARVALUES:0.319379,0.366928,0.290736,0.130330,0.000000,223.000000,194.000000,29.000000,13.000000,0.000000,0.000000,0.000000,0.000000,0.000000,0.319379,0.366928,0.290736,0.130330,0.000000,223.000000,194.000000,29.000000,13.000000,0.000000,0.000000,0.000000,0.000000,0.000000;
#CREDIT:;
#NOTES:
0000
0000
0000
0000
,
0000
0000
0000
0000
,
0000
0000
0000
0000
,
0000
0000
0000
0000
,
0000
0000
0000
0000
,
0011
0000
0000
0000
,
1100
0000
0000
0000
,
1010
0000
0000
0000
,
2002
0000
0000
3003
,
0010
0000
0010
0000
0100
1000
0001
0000
,
0010
0010
0100
0000
,
0010
0000
0010
0000
0001
0100
0010
0000
,
1000
0001
1000
0000
,
0010
0000
0010
0000
0100
0001
1000
0000
,
0010
0010
0100
0000
,
0010
0000
0010
0000
1000
0100
0010
0000
,
0001
1000
1001
0000
,
0011
0000
0100
0100
,
1010
0000
0001
0001
,
1100
0000
0010
0010
,
0101
0000
1000
0001
,
1001
0000
0000
0000
0010
0010
0000
0000
,
1100
0000
0010
0010
,
0101
0000
0000
0000
0010
0010
0000
0000
,
1001
0000
1100
0101
,
1000
0000
0000
0010
0000
0000
0001
0000
,
0000
0100
0000
0000
1000
0000
0001
0000
,
0010
0000
0000
1000
0000
0000
0100
0000
,
0000
0001
0000
0000
0010
0000
0100
0000
,
2000
0000
0000
0010
0000
0000
0001
0000
,
0000
3100
0000
0000
0010
0000
0010
0000
,
0100
0000
0000
1000
0000
0000
0010
0000
,
0000
0001
0000
0000
0100
0000
0110
0000
,
2020
0000
0000
0000
,
3030
0000
0000
0000
0010
0010
0000
0022
,
0000
0000
0000
0033
,
0100
0100
0000
1001
0000
0000
0000
0000
,
0001
0100
1000
0000
0001
0000
0010
0000
,
0100
0000
1001
0000
0010
0100
0010
0000
,
0002
0000
2003
0000
,
3001
0000
0100
0010
0100
0000
0110
0000
,
0010
1000
0100
0000
0010
0000
1000
0000
,
0100
0001
0010
0110
,
1000
0000
1000
0100
0001
0000
0100
0000
,
1000
1000
0000
0100
0000
0010
0000
0000
,
1001
0100
0010
0100
,
0011
0000
0100
0000
1000
0100
0001
0000
,
0200
1000
0001
1300
,
0010
0000
0100
0000
0001
1000
0001
0000
,
1010
0100
0011
0100
,
1000
0000
0100
0000
0001
0100
1000
0000
,
0020
0001
1000
0031
,
1000
0000
0100
0100
0000
1001
0000
0000
,
0010
0000
0010
0000
0100
1000
0001
0000
,
0010
0010
0100
0000
,
0010
0000
0010
0000
0001
0100
0010
0000
,
0001
1000
1001
0000
,
0010
0000
0010
0000
0100
1000
0001
0000
,
0010
0010
0100
0000
,
0010
0000
0010
0000
1000
0100
0010
0000
,
0001
1000
0001
0000
2002
0000
0000
0000
,
3003
0000
0000
0000
,
0000
0000
0000
0000
;

//---------------dance-single - ----------------
#NOTEDATA:;
#CHARTNAME:;
#STEPSTYPE:dance-single;
#DESCRIPTION:;
#CHARTSTYLE:;
#DIFFICULTY:Hard;
#METER:11;
#RADARVALUES:0.509861,0.550393,0.511294,0.190482,0.100254,356.000000,305.000000,51.000000,19.000000,0.000000,0.000000,0.000000,0.000000,0.000000,0.509861,0.550393,0.511294,0.190482,0.100254,356.000000,305.000000,51.000000,19.000000,0.000000,0.000000,0.000000,0.000000,0.000000;
#CREDIT:;
#NOTES:
0000
0000
0000
0000
,
0000
0000
0000
0000
,
0000
0000
0000
0000
,
0000
0000
0000
0000
,
0000
0000
0000
0000
,
0110
0000
0000
0010
0000
0010
0000
0010
,
0101
0000
0000
0100
0000
0100
0000
0100
,
1010
0000
0000
1000
0000
1000
0000
1000
,
2002
0000
0000
3003
,
0100
0000
0000
0001
0000
0000
0010
0000
1000
0000
0010
0000
0001
0000
0100
0000
,
0010
0000
0000
1000
0000
0000
0001
0000
0010
0000
0100
0000
1000
0000
0000
0000
,
0010
0000
0000
1000
0000
0000
0100
0000
0010
0000
0001
0000
0100
0000
0001
0000
,
0010
0000
0000
0001
0000
0000
0100
0000
0010
0000
0000
0010
0000
0000
0100
0000
,
0001
0000
0000
0100
0000
0000
1000
0000
0001
0000
0010
0000
1000
0000
0100
0000
,
0010
0000
0000
1000
0000
0000
0010
0000
0001
0000
1000
0000
0100
0000
0000
0000
,
1000
0000
0000
0010
0000
0000
0100
0000
0001
0000
1000
0000
0100
0000
0010
0000
,
0100
0000
0000
1000
0000
0000
0001
0000
0110
0000
0000
1001
0000
0000
0000
0000
,
2200
0000
3300
0001
0010
1000
0000
0000
,
0202
0000
0303
1000
0010
0100
0001
0000
,
0022
0000
0033
1000
0010
0001
0000
0010
,
2020
3030
0110
1001
,
2100
0000
3010
0100
0010
0010
0000
0000
,
0201
0000
1300
0100
0000
0100
0010
0000
,
0012
0000
0103
0010
1000
1000
0000
0010
,
1020
0130
1001
0110
,
1001
0000
0001
0100
0000
0100
0010
0000
,
0010
1000
0000
1000
0001
0000
0101
0000
,
1010
0000
1000
0001
0000
0010
0001
0000
,
0010
0100
0000
1000
0100
0000
1100
0000
,
0011
0000
0001
1000
0000
1000
0010
0000
,
0010
0110
0000
0100
0101
0000
1001
0000
,
0010
0000
1000
1000
0000
1000
0001
0000
,
0001
0100
0000
0100
0101
0000
1100
0000
,
1002
1000
0010
0100
,
0103
0000
0010
0010
,
1000
0001
0010
0001
1000
0010
1000
0000
,
0100
0100
0000
1001
0000
0000
0000
0000
,
0001
0010
0100
0010
0001
1000
0010
0100
,
0001
0010
0001
0000
1100
0010
0001
0000
,
0001
1000
0100
1000
0001
0100
0010
0100
,
0010
0000
1000
0002
0100
0100
0103
0000
,
1100
0000
0110
0000
0011
0001
0100
0010
,
1000
0100
1000
0000
0011
0100
1000
0000
,
1001
0000
0010
0010
1000
0001
1000
0001
,
0000
0100
0001
1000
0000
1100
0000
0000
,
1010
0010
0100
0000
0011
0010
0100
0000
,
1000
0001
1000
0000
0010
0000
0100
0000
,
0001
0010
0100
1000
0000
0100
0000
0110
,
0000
0000
0001
2000
0100
0100
3100
0000
,
1001
0000
1010
0000
1001
0000
0101
0001
,
0010
0100
1000
0000
0001
1000
0100
0000
,
0010
0000
0100
0100
1000
0001
1000
0001
,
0100
0100
0010
0110
0000
1010
0000
0000
,
0100
0000
0000
1000
0000
0000
0010
0000
0001
0000
0010
0000
1000
0000
0100
0000
,
0010
0000
0000
0001
0000
0000
1000
0000
0010
0000
0100
0000
1001
0000
0000
0000
,
0010
0000
0000
0001
0000
0000
0100
0000
0010
0000
1000
0000
0100
0000
1000
0000
,
0010
0000
0000
1000
0000
0000
0100
0000
0010
0000
0000
0010
0000
0000
0110
0000
,
1000
0000
0000
0100
0000
0000
0001
0000
1000
0000
0010
0000
0001
0000
0100
0000
,
0010
0000
0000
0001
0000
0000
0010
0000
1000
0000
0001
0000
1001
0000
0000
0000
,
0001
0000
0000
0010
0000
0000
0100
0000
1000
0000
0001
0000
0100
0000
0010
0000
,
0100
0000
0000
0001
0000
0000
1000
0000
1001
0000
0000
2002
0000
0000
0000
0000
,
3003
0000
0000
0000
,
0000
0000
0000
0000
;

//---------------dance-double - ----------------
#NOTEDATA:;
#CHARTNAME:;
#STEPSTYPE:dance-double;
#DESCRIPTION:;
#CHARTSTYLE:;
#DIFFICULTY:Easy;
#METER:4;
#RADARVALUES:0.197643,0.305774,0.100254,0.200507,0.000000,138.000000,128.000000,10.000000,20.000000,0.000000,0.000000,0.000000,0.000000,0.000000,0.197643,0.305774,0.100254,0.200507,0.000000,138.000000,128.000000,10.000000,20.000000,0.000000,0.000000,0.000000,0.000000,0.000000;
#CREDIT:;
#NOTES:
00000000
00000000
00000000
00000000
,
00000000
00000000
00000000
00000000
,
00000000
00000000
00000000
00000000
,
00000000
00000000
00000000
00000000
,
00000000
00000000
00000000
00000000
,
00000010
00000000
00000000
00000000
,
00001000
00000000
00000000
00000000
,
00100000
00000000
00000000
00000000
,
00020000
00000000
00000000
00030000
,
10010000
00000000
00100000
00100000
,
00100000
00000000
00010000
00000000
,
00001000
00000000
00000100
00000100
,
00000100
00000000
00000010
00000000
,
00001001
00000000
00000010
00000010
,
00000010
00000000
00001000
00000000
,
00010000
00000000
00100000
00100000
,
00100000
00000000
01000000
00000000
,
10000000
00000000
00010000
00000000
,
00100000
00000000
00001000
00000000
,
00010000
00000000
00000100
00000000
,
00001000
00000000
00000010
00000010
,
00000100
00000000
00000001
00000000
,
00001000
00000000
00000100
00000000
,
00010000
00000000
00001000
00000000
,
00100000
00000000
00010000
00010000
,
20000000
30000000
02000000
03000000
,
00020000
00030000
00001000
00010000
,
00002000
00003000
00000020
00000030
,
00000002
00000003
00000100
00001000
,
00020000
00030000
00200000
00300000
,
20000000
30000000
00010000
00010000
,
20000000
30000000
00200000
00300000
,
00020000
00030000
00001000
00001000
,
00022000
00000000
00000000
00000000
,
00033000
00000000
00000010
00000000
,
00002002
00000000
00000000
00000000
,
00000000
00000000
00003003
00000000
,
00000010
00000010
00000010
00000010
,
00000010
00000000
00001000
00000000
,
00000100
00000000
00010000
00000000
,
00001000
00010000
00010000
00010000
,
00001000
00000000
00100000
00100000
,
01000000
00000000
10000000
00000000
,
00010000
00000000
00100000
00000000
,
00001000
00010000
00011000
00000000
,
00010000
00001000
00010000
00000000
,
00000020
00000000
00000030
00000000
,
00000001
00000000
00000100
00000000
,
00001000
00010000
00010000
00010000
,
00001000
00000000
01000000
00000000
,
00010000
00000000
10000000
10000000
,
01000000
00000000
00100000
00000000
,
01000000
00000000
00000000
00000000
,
10010000
00000000
00100000
00100000
,
00100000
00000000
00010000
00001000
,
00011000
00000000
00000010
00000010
,
00000010
00000000
00000100
00000000
,
00001001
00000000
00000100
00000100
,
00000100
00000000
00010000
00001000
,
00011000
00000000
01000000
01000000
,
00010000
10000000
20020000
00000000
,
30030000
00000000
00000000
00000000
,
00000000
00000000
00000000
00000000
;

//---------------dance-double - ----------------
#NOTEDATA:;
#CHARTNAME:;
#STEPSTYPE:dance-double;
#DESCRIPTION:;
#CHARTSTYLE:;
#DIFFICULTY:Medium;
#METER:8;
#RADARVALUES:0.307922,0.366928,0.240609,0.120304,0.000000,215.000000,191.000000,24.000000,12.000000,0.000000,0.000000,0.000000,0.000000,0.000000,0.307922,0.366928,0.240609,0.120304,0.000000,215.000000,191.000000,24.000000,12.000000,0.000000,0.000000,0.000000,0.000000,0.000000;
#CREDIT:;
#NOTES:
00000000
00000000
00000000
00000000
,
00000000
00000000
00000000
00000000
,
00000000
00000000
00000000
00000000
,
00000000
00000000
00000000
00000000
,
00000000
00000000
00000000
00000000
,
10100000
00000000
00000000
00000000
,
00101000
00000000
00000000
00000000
,
00010010
00000000
00000000
00000000
,
00000022
00000000
00000000
00000033
,
00001000
00000000
00001000
00000000
00000001
00000010
00000001
00000000
,
00000100
00001000
00010000
00000000
,
00100000
00100000
01000000
00010000
,
10000000
00100000
01000000
00000000
,
00100000
00000000
00100000
00000000
10000000
01000000
10000000
00000000
,
01000000
00010000
00001000
00000000
,
00000010
00000000
00000010
00000000
00001000
00000100
00001000
00000000
,
00010000
00001000
00011000
00000000
,
00101000
00000000
00010000
00000000
,
11000000
00000000
00100000
00000000
,
00011000
00000000
00000100
00000000
,
00000011
00000000
00000100
00000001
,
00000101
00000000
00000000
00000000
00000010
00000100
00000000
00000000
,
00001100
00000000
00010000
00001000
,
00011000
00000000
00000000
00000000
00100000
01000000
00000000
00000000
,
01010000
00000000
11000000
01010000
,
10000000
00000000
00000000
00100000
00000000
00000000
00010000
00000000
,
00000000
00001000
00000000
00000000
00000100
00000000
00000001
00000000
,
00000010
00000000
00000000
00001000
00000000
00000000
00010000
00000000
,
00000000
01000000
00000000
00000000
10000000
00000000
00100000
00000000
,
00020000
00000000
00000000
00000100
00000000
00000000
00001000
00000000
,
00000000
00030010
00000000
00000000
00001000
00000000
00010000
00000000
,
00001000
00000000
00000000
00010000
00000000
00000000
10000000
00000000
,
00000000
00010000
00000000
00000000
00001000
00000000
00011000
00000000
,
00202000
00000000
00000000
00000000
,
00303000
00000000
00000000
00000000
00001000
00010000
00000000
00020020
,
00000000
00000000
00000000
00030030
,
00000000
00001000
00000000
00011000
00000000
00000000
00000000
00000000
,
00000010
00000010
00000100
00000000
00000001
00000000
00001000
00000000
,
00000100
00001000
00010000
00100000
,
02000000
00010000
00100000
10000000
,
03100000
00000000
10000000
01000000
10000000
01000000
10000000
00000000
,
00100000
01000000
01000000
00000000
00100000
00000000
10000000
00000000
,
01000000
00010000
00001000
00000100
,
00000001
00000000
00001000
00000010
00001000
00000010
00001000
00000010
,
00000000
00010000
00000000
00001000
00000000
00011000
00000000
00000000
,
00001000
01000000
00010000
01000000
,
00110000
00000000
01000000
00000000
10000000
01000000
00010000
00000000
,
00002000
00010000
00000100
00013000
,
01000000
00000000
00010000
00001000
00010000
00001000
00010000
00000000
,
00001000
00000100
00000001
00001000
,
00000010
00000000
00001001
00000000
00000001
00000100
00001000
00000000
,
00020000
00001000
00000100
00031000
,
00100000
00000000
00000000
01000000
00000000
10010000
00000000
00000000
,
10000000
00000000
00010000
00000000
10000000
00100000
01000000
00000000
,
00010000
00010000
00001000
00000000
,
00000010
00000000
00001000
00000000
00000001
00000100
00000010
00000000
,
00001000
00000001
00000010
00000000
,
00000010
00000000
00000100
00000000
00001000
00000010
00000100
00000000
,
00000001
00000100
00001000
00000000
,
00100000
00000000
00001000
00000000
00010000
00001000
00100000
00000000
,
00010000
10000000
20020000
00000000
,
30030000
00000000
00000000
00000000
,
00000000
00000000
00000000
00000000
;

//---------------dance-double - ----------------
#NOTEDATA:;
#CHARTNAME:;
#STEPSTYPE:dance-double;
#DESCRIPTION:;
#CHARTSTYLE:;
#DIFFICULTY:Hard;
#METER:12;
#RADARVALUES:0.484082,0.519815,0.421065,0.200507,0.100254,338.000000,296.000000,42.000000,20.000000,0.000000,0.000000,0.000000,0.000000,0.000000,0.484082,0.519815,0.421065,0.200507,0.100254,338.000000,296.000000,42.000000,20.000000,0.000000,0.000000,0.000000,0.000000,0.000000;
#CREDIT:;
#NOTES:
00000000
00000000
00000000
00000000
,
00000000
00000000
00000000
00000000
,
00000000
00000000
00000000
00000000
,
00000000
00000000
00000000
00000000
,
00000000
00000000
00000000
00000000
,
00001001
00000000
00000000
00001000
00000000
00010000
00000000
00000000
,
10010000
00000000
00000000
00010000
00000000
00001000
00000000
00000000
,
00001001
00000000
00000000
00001000
00000000
00010000
00000000
00000000
,
00022000
00000000
00000000
00033000
,
00010000
00000000
00000000
00010000
00000000
00000000
01000000
00000000
00100000
00000000
10000000
00000000
00010000
00000000
00000000
00000000
,
00100000
00000000
00000000
00010000
00000000
00000000
00010000
00000000
00001000
00000000
00000100
00000000
00000010
00000000
00000000
00000000
,
00000001
00000000
00000000
00000001
00000000
00000000
00001000
00000000
00000010
00000000
00000100
00000000
00000010
00000000
00000100
00000000
,
00000001
00000000
00000000
00001000
00000000
00000000
00001000
00000000
00010000
00000000
00000000
01000000
00000000
00000000
00100000
00000000
,
10000000
00000000
00000000
00010000
00000000
00000000
00010000
00000000
00001000
00000000
00000010
00000000
00000001
00000000
00000100
00000000
,
00000001
00000000
00000000
00001000
00000000
00000000
00001000
00000000
00010000
00000000
01000000
00000000
00100000
00000000
01000000
00000000
,
10000000
00000000
00000000
00010000
00000000
00000000
00010000
00000000
00001000
00000000
00000100
00000000
00000001
00000000
00000010
00000000
,
00000001
00000000
00000000
00001000
00000000
00000000
00001000
00000000
00010000
00000000
00000000
00011000
00000000
00000000
00000000
00000000
,
00101000
00000000
00000000
01000000
00100000
01000000
00000000
00000000
,
11000000
00000000
00000000
00100000
00010000
00001000
00000010
00000000
,
00000011
00000000
00000000
00000001
00001000
00000001
00000000
00000000
,
00010100
00000000
00010010
00011000
,
01001000
00000000
00000000
00001000
00010000
00100000
00000000
00000000
,
01100000
00000000
10000000
01000000
00100000
00001000
00010000
00000000
,
00010010
00000000
00001010
00001000
00000001
00000010
00000000
00000010
,
00000220
00000330
00000011
00001100
,
00001001
00000000
00000001
00000100
00000000
00000100
00001000
00000000
,
00001000
00010000
00000000
00010000
00100000
00000000
10010000
00000000
,
01000000
00000000
01000000
00010000
00000000
00010000
00001000
00000000
,
00001000
00000010
00000000
00000010
00000001
00000000
00001001
00000000
,
00000022
00000033
00000000
00002200
00003300
00000000
00020020
00030030
,
00000000
00202000
00303000
00000000
01100000
00000000
10010000
00000000
,
11000000
00000000
10000000
00100000
00000000
01000000
00010000
00000000
,
00010000
00001000
00000000
00000010
00000001
00000000
00000100
00000000
,
00020000
01000000
10000000
00100000
,
00031000
00000000
00000000
00000000
00001000
00010000
00000000
00010000
,
01000000
00100000
01000000
00010000
10000000
00010000
00100000
01000000
,
10000000
10010000
00000000
10010000
00000000
00000000
00000000
00000000
,
10000000
01000000
00100000
00001000
01000000
00100000
10000000
00010000
,
00100000
00001000
00010000
00100000
10000000
01000000
00010000
00000000
,
00001000
00001000
00010000
00010000
00000000
00001000
00000000
00000100
,
00000000
00000000
00000001
00000020
00000001
00000001
00000031
00000000
,
00000001
00000010
00000100
00010000
00000010
00000100
00000001
00001000
,
00000100
00010000
00001000
00000010
00000001
00000100
00001000
00000000
,
00011000
00000000
00010000
00002000
00010000
00013000
00000000
00011000
,
00000000
00100000
00000000
11000000
00000000
10010000
00000000
00000000
,
10000000
01000000
01100000
00000000
00001000
00010000
01000000
00200000
,
00000000
00001000
00301000
00000000
00010000
00001000
00010000
00001000
,
00000100
00000010
00001001
00001100
,
00000010
00000000
00000001
00002000
00010000
00010000
00013000
00000000
,
00010000
00000000
00001000
00000000
00000010
00000000
00001000
00000100
,
00010000
00100000
00000000
00100000
01000000
00010000
01000000
00000000
,
00100000
00000000
10000000
02000000
10000000
13000000
00000000
10010000
,
00000000
01000000
00010000
00110000
00000000
00011000
00000000
00000000
,
00001000
00000000
00000000
00001000
00000000
00000000
00000010
00000000
00000100
00000000
00001000
00000000
00000001
00000000
00000000
00000000
,
00000100
00000000
00000000
00001000
00000000
00000000
00001000
00000000
00010000
00000000
00100000
00000000
01000000
00000000
00000000
00000000
,
10000000
00000000
00000000
10000000
00000000
00000000
00010000
00000000
01000000
00000000
00100000
00000000
01000000
00000000
00100000
00000000
,
10000000
00000000
00000000
00010000
00000000
00000000
00010000
00000000
00001000
00000000
00000000
00000010
00000000
00000000
00000100
00000000
,
00000001
00000000
00000000
00001000
00000000
00000000
00001000
00000000
00010000
00000000
01000000
00000000
10000000
00000000
00100000
00000000
,
10000000
00000000
00000000
00010000
00000000
00000000
00010000
00000000
00001000
00000000
00000010
00000000
00000100
00000000
00000010
00000000
,
00000001
00000000
00000000
00001000
00000000
00000000
00001000
00000000
00010000
00000000
00100000
00000000
10000000
00000000
01000000
00000000
,
10000000
00000000
00000000
00100000
00000000
00000000
00010000
00000000
00011000
00000000
00000000
00022000
00000000
00000000
00000000
00000000
,
00033000
00000000
00000000
00000000
,
00000000
00000000
00000000
00000000
;

//---------------dance-single - ----------------
#NOTEDATA:;
#CHARTNAME:;
#STEPSTYPE:dance-single;
#DESCRIPTION:;
#CHARTSTYLE:;
#DIFFICULTY:Challenge;
#METER:16;
#RADARVALUES:0.834970,0.943637,0.390989,0.380964,0.837118,583.000000,544.000000,39.000000,38.000000,0.000000,0.000000,0.000000,0.000000,0.000000,0.834970,0.943637,0.390989,0.380964,0.837118,583.000000,544.000000,39.000000,38.000000,0.000000,0.000000,0.000000,0.000000,0.000000;
#CREDIT:;
#NOTES:
// measure 0
0000
0000
0000
0000
,  // measure 1
0000
0000
0000
0000
,  // measure 2
0000
0000
0000
0000
,  // measure 3
0000
0000
0000
0000
,  // measure 4
0000
0000
0000
0000
,  // measure 5
0110
0100
0020
0100
0000
1000
0000
0031
,  // measure 6
0101
0010
2000
0010
0000
0100
0000
3001
,  // measure 7
1001
0001
0200
1000
0000
0001
0000
0310
,  // measure 8
0220
0000
0000
0330
,  // measure 9
1000
0000
0001
0100
0000
0100
1000
0000
0001
0100
0010
1000
0200
0000
0010
0000
,  // measure 10
0310
0000
0001
0010
0000
1000
0010
0000
0001
0010
0100
1000
0020
0000
0100
0000
,  // measure 11
0130
0000
1000
0010
0000
0100
0001
0000
0010
0001
0100
0010
1000
0100
0010
0001
,  // measure 12
0100
1000
0100
0001
0000
1000
0100
0010
0001
1000
0010
0100
0000
0010
0001
0100
,  // measure 13
0010
0000
1000
0010
0000
0010
0001
0000
1000
0100
0010
0001
2000
0000
0001
0000
,  // measure 14
3001
0000
0010
0001
0000
0100
0001
0000
1000
0010
0001
0100
0020
0000
1000
0000
,  // measure 15
1030
0000
0100
0010
0000
0001
1000
0000
0010
0001
0100
0010
1000
0100
0010
0001
,  // measure 16
0100
0010
1000
0100
0000
0010
0001
0010
0100
0000
0000
1100
0000
0000
0000
0000
,  // measure 17
1001
1000
0100
0001
0200
0010
0010
0310
,  // measure 18
0110
0001
0010
1000
0020
0100
0100
0130
,  // measure 19
0011
0001
0100
0010
2000
0001
0001
3001
,  // measure 20
1001
1000
0010
0100
0002
0010
0010
0013
,  // measure 21
0101
0100
0010
1000
1010
1000
1001
0001
,  // measure 22
0101
0001
0100
0010
1010
1000
1100
0100
,  // measure 23
0110
0010
0001
0100
1100
1000
1001
0001
,  // measure 24
0011
0010
0100
1000
0001
0000
1001
0000
,  // measure 25
2000
0000
3100
0020
0000
0031
2000
0000
,  // measure 26
3100
0002
0000
1003
0200
0000
0301
0000
,  // measure 27
0200
0000
0310
0002
0000
1003
0020
0000
,  // measure 28
0130
0000
2000
0000
0000
0000
3001
0000
0200
0000
0000
0000
0310
0000
0001
0010
,  // measure 29
0002
0000
0103
0020
0000
1030
0200
0000
,  // measure 30
0310
0000
2000
0000
0000
0000
3100
0000
0020
0000
0000
0000
0031
0100
0001
0100
,  // measure 31
0001
0010
0100
1000
0001
1000
0100
0010
,  // measure 32
0001
0100
0010
1000
0101
0001
0011
0010
,  // measure 33
1000
0100
0010
0001
1000
0010
0100
0001
1000
0100
0010
0001
1000
0010
0100
0001
,  // measure 34
0010
0100
1000
0001
1010
1000
1100
0100
,  // measure 35
0001
0010
0100
1000
0001
0100
0010
1000
0001
0010
0100
1000
0001
0100
0010
1000
,  // measure 36
0100
0110
0000
2002
0000
0000
3003
0000
,  // measure 37
0001
0010
0100
0000
1000
0100
0010
0000
0001
0010
0100
1000
0001
0100
0010
1000
,  // measure 38
0100
0000
0010
0000
0110
0000
0010
0000
1000
0100
0001
0000
0001
0100
1000
0000
,  // measure 39
1000
0100
0001
0000
0001
0100
1000
0100
0001
0010
1000
0010
0001
1000
0100
1000
,  // measure 40
0020
1000
0001
1000
0001
1030
1001
0000
,  // measure 41
1000
0010
0100
0000
0001
0100
0010
1000
0100
0000
0010
1000
0001
0100
0010
1000
,  // measure 42
0100
0000
0010
0000
0110
0000
0100
0000
0001
0100
1000
0000
0100
0001
1000
0000
,  // measure 43
1000
0010
0001
0000
0001
0010
1000
0000
1000
0010
0001
0010
1000
0100
0001
0000
,  // measure 44
0000
0000
0001
0100
0000
0000
0100
1000
0000
0000
2020
0000
3030
0000
1000
0100
,  // measure 45
0010
0001
0100
0000
0010
1000
0100
0000
0100
0010
0001
0010
0100
1000
0010
0000
,  // measure 46
0001
0000
1000
0000
1001
0000
0001
0000
0100
1000
0010
0000
0010
1000
0100
0000
,  // measure 47
0100
1000
0010
1000
0100
1000
0010
0000
0010
1000
0100
0001
0100
1000
0010
1000
,  // measure 48
0200
0001
1000
0001
1000
0301
1001
0000
,  // measure 49
0001
0100
0010
0000
1000
0010
0100
0001
0010
0000
1000
0000
0100
0010
1000
0000
,  // measure 50
0100
0000
0010
0001
0100
0000
0010
0000
1000
0010
0001
0000
0001
0100
1000
0000
,  // measure 51
1000
0100
0001
0010
1000
0010
0001
0100
1000
0100
0001
0010
1000
0010
0001
0000
,  // measure 52
0000
0000
1000
0100
0000
0000
0100
0001
0000
0000
0022
0000
0033
0000
0000
0000
,  // measure 53
0101
0000
1000
0100
0000
0001
0100
0000
0010
0001
0100
0010
1000
0100
0001
0100
,  // measure 54
1100
0000
0001
0100
0000
1000
0100
0000
0010
0001
0100
0010
1000
0010
0100
0001
,  // measure 55
0011
0000
1000
0010
0000
0001
0010
0000
1000
0100
0001
0100
1000
0100
0001
0100
,  // measure 56
1000
0000
0001
0100
0000
0010
1000
0100
0010
0000
0001
0010
0000
0100
0010
1000
,  // measure 57
1010
0000
0001
1000
0000
0100
1000
0000
0100
0010
1000
0010
0100
1000
0001
1000
,  // measure 58
0011
0000
0001
0100
0000
0010
1000
0000
0010
0001
0100
0010
1000
0100
0010
0001
,  // measure 59
0100
0000
0010
1000
0000
0100
0010
0000
0001
0100
0010
1000
0001
0010
1000
0100
,  // measure 60
0010
0000
0001
0100
0000
0010
1000
0100
0010
0000
0000
2002
0000
0000
0000
0000
,  // measure 61
0000
0000
0000
0000
,  // measure 62
0000
0000
0000
3003
;
