#TITLE:STILL IN MY HEART;
#SUBTITLE:;
#ARTIST:NAOKI;
#TITLETRANSLIT:;
#SUBTITLETRANSLIT:;
#ARTISTTRANSLIT:;
#GENRE:;
#CREDIT:;
#BANNER:STILL IN MY HEART.png;
#BACKGROUND:STILL IN MY HEART-bg.png;
#LYRICSPATH:;
#CDTITLE:;
#MUSIC:STILL IN MY HEART.ogg;
#OFFSET:0.000000;
#SAMPLESTART:79.978996;
#SAMPLELENGTH:15.000000;
#SELECTABLE:YES;
#DISPLAYBPM:150.000000;
#BPMS:0.000000=149.699997
,4.000000=150.000000
;
#STOPS:
;
#BGCHANGES:;
#KEYSOUNDS:;
#ATTACKS:;

//---------------dance-single - ----------------
#NOTES:
     dance-single:
     :
     Beginner:
     3:
     0.171485,0.270089,0.039683,0.000000,0.000000,121.000000,117.000000,4.000000,0.000000,0.000000,0.000000,0.171485,0.270089,0.039683,0.000000,0.000000,121.000000,117.000000,4.000000,0.000000,0.000000,0.000000:
0000
0000
0000
0000
,
0000
0000
0000
0000
,
0000
0000
0000
0000
,
0000
0000
0000
0000
,
0100
0000
0000
0000
,
0100
0000
0100
0000
,
0010
0000
0100
0000
,
0010
0000
0010
0000
,
0100
0000
0000
1001
,
0000
0100
0000
0000
,
0000
1000
0000
0000
,
0000
0001
0000
0000
,
0010
0010
0000
1001
,
0000
0100
0000
0000
,
0000
0010
0000
0000
,
0000
1000
0000
1000
,
0000
0001
0000
0001
,
0000
0100
0100
0100
,
0000
1000
1000
1000
,
0000
0010
0010
0010
,
0000
0001
0001
0001
,
0000
0100
0000
0010
,
0000
1000
0000
0001
,
0000
0100
0000
0010
,
0010
0000
0000
0000
,
0000
1000
1000
0000
,
0000
0001
0001
0000
,
0000
0100
0100
0000
,
0000
0010
0010
0010
,
0000
1000
1000
0000
,
0000
0001
0001
0000
,
0000
0100
0100
0000
,
0000
0010
0010
0010
,
0000
0000
0000
0000
,
0000
0000
0000
0000
,
0100
0000
0001
0000
,
1000
0000
0010
0000
,
1000
0000
0000
0000
,
1000
0000
0000
0000
,
1000
0000
1000
0000
,
0010
0010
0010
0010
,
0000
1000
0000
0100
,
0000
0001
0000
0010
,
0000
1000
0000
0100
,
0000
0001
0000
0010
,
0000
1000
0000
0100
,
0000
0001
0000
0010
,
0000
1000
0000
0100
,
0100
0000
0000
1000
,
1000
0000
0110
0110
,
0000
0001
0001
0001
,
0000
1000
1000
1000
,
0000
0010
0010
0010
,
0000
0100
0100
0100
,
0000
0001
0001
0001
,
0000
1000
1000
1000
,
0000
0010
0010
0010
,
0000
0100
0100
0100
,
0100
0000
0000
0000
,
0001
0000
0000
0000
,
1000
0000
0100
0000
,
0000
0000
0000
0000
;

//---------------dance-single - ----------------
#NOTES:
     dance-single:
     :
     Easy:
     6:
     0.284864,0.420139,0.208333,0.000000,0.000000,201.000000,180.000000,21.000000,0.000000,0.000000,0.000000,0.284864,0.420139,0.208333,0.000000,0.000000,201.000000,180.000000,21.000000,0.000000,0.000000,0.000000:
0000
0000
0000
0000
,
0000
0000
0000
0000
,
0000
0000
0000
0000
,
0000
0000
0000
0000
,
0100
0000
0100
1001
,
0100
1001
0100
1001
,
0010
1001
0100
1001
,
0010
1000
0001
0100
,
0010
0010
1000
0001
,
0100
0000
0100
0010
,
1000
1000
1000
0001
,
0100
0000
0100
0010
,
1000
0001
0000
1001
,
0100
0000
0000
0001
,
1000
0010
0010
0100
,
0001
0000
0001
0000
,
1000
0000
1000
1001
,
0000
0100
0100
0100
,
0010
1000
0100
0010
,
1000
0000
0001
0100
,
0010
1001
0100
1001
,
1001
0000
0100
0000
,
0010
0010
1000
1000
,
0001
0001
0100
0010
,
1001
0000
0000
0000
,
0100
0110
1000
0001
,
0010
0110
0001
1000
,
0001
0000
0001
0100
,
0010
1000
0001
0100
,
0001
1001
0010
0100
,
1000
1001
0100
0010
,
1000
0000
1000
0010
,
0100
0001
1000
0010
,
0000
0000
0000
0100
,
0001
0000
0000
0000
,
0100
0000
0001
0000
,
1000
0010
0100
0001
,
1000
0000
0000
0000
0000
0000
0000
0001
,
1000
0000
0000
0000
0000
0000
0000
0001
,
1000
0000
1000
0000
,
0001
0100
0010
1000
,
0001
0000
0001
0100
,
0010
1000
1000
0001
,
0100
0000
0100
0010
,
1000
0001
0100
0010
,
1000
0000
0010
0100
,
0001
0000
1001
1001
,
0100
0000
0000
0100
,
0001
0000
0000
1000
,
0010
0000
1000
0001
,
0100
0110
1000
0001
,
0010
0110
0001
1000
,
0001
0000
0001
0100
,
0010
1000
0001
0100
,
0001
1001
0010
0100
,
1000
1001
0100
0010
,
1000
0000
1000
0010
,
0100
0001
1000
0010
,
1000
0000
0000
0000
0000
0000
0000
0001
,
1000
0000
0000
0000
0000
0000
0000
0010
,
0100
0000
0000
0001
1000
0000
0000
0000
,
0000
0000
0000
0000
;

//---------------dance-single - ----------------
#NOTES:
     dance-single:
     :
     Medium:
     8:
     0.385488,0.420139,0.168651,0.000000,0.014881,272.000000,255.000000,17.000000,0.000000,0.000000,0.000000,0.385488,0.420139,0.168651,0.000000,0.014881,272.000000,255.000000,17.000000,0.000000,0.000000,0.000000:
0000
0000
0000
0000
,
0000
0000
0000
0000
,
0000
0000
0000
0000
,
0000
0000
0000
0000
,
0100
0100
0010
1001
,
0100
0000
0000
0010
1000
0001
0001
0000
,
0100
0000
0000
0010
0100
0001
1000
0000
,
0010
0010
0100
0001
,
1000
1000
1000
1000
,
0010
0000
1000
0100
,
0010
0001
1000
0000
0001
0000
0001
0000
,
0100
0001
0100
0001
,
1000
0000
1000
1001
,
0100
0000
0010
0000
1000
0001
0100
0000
,
0001
0000
0001
0000
1000
0010
0100
0010
,
1000
0000
0000
0001
0000
0000
0100
0000
,
0000
0000
0000
1001
,
0100
0101
1001
1100
,
1000
0001
0001
0001
,
0100
0110
0101
1001
,
1000
0000
0010
0000
0100
0000
0100
0001
,
1000
1000
0010
0100
,
0001
0001
1000
1000
,
0010
1010
0001
0101
,
1001
0000
0000
1000
0001
0100
0010
0000
,
0001
0000
0001
0000
1000
0010
0100
0001
,
1000
0000
1000
0000
0010
0100
0001
1000
,
0010
0000
0010
0000
0100
0100
0001
1000
,
0000
0010
0100
0001
0000
0001
0001
0000
,
1000
0000
1000
0000
0001
0100
0010
1000
,
0001
0000
0001
0000
0100
0010
1000
0001
,
0100
0000
0100
0000
0010
0010
1000
0001
,
0000
0100
0010
1000
0000
0001
1000
0000
,
0000
0000
0100
0100
,
1000
1000
1000
1000
,
0010
1000
0001
0100
,
0010
0010
1000
0001
,
0100
0000
0000
0010
0100
0000
0000
0001
,
1000
0000
0000
0001
0010
0000
0000
0100
,
1000
0000
1000
0001
,
0100
0101
0110
1010
,
0001
0001
0001
0000
0100
0000
0010
1000
,
0001
0100
0100
0100
,
0100
0010
1000
0000
0000
0000
1000
0000
,
0010
0000
0100
0000
0100
0001
1000
0010
,
0100
0000
0000
0010
0000
1000
0000
0001
,
0000
0000
0100
1001
,
0100
0100
0100
0100
,
0010
0000
1000
0001
,
0001
0000
1000
1001
,
0001
0000
0001
0000
1000
0010
0100
0001
,
1000
0000
1000
0000
0010
0100
0001
1000
,
0010
0000
0010
0000
0100
0100
0001
1000
,
0000
0010
0100
0001
0000
0001
0001
0000
,
1000
0000
1000
0000
0001
0010
0100
1000
,
0001
0000
0001
0000
0010
0100
1000
0001
,
0010
0000
0010
0000
0100
0100
1000
0001
,
0000
0010
0100
1000
0000
1000
1000
0000
,
0001
0000
0000
0000
0000
0000
0000
1000
,
0001
0000
0000
1000
0000
0000
0001
0000
0000
1000
0000
0000
0001
0000
1000
0000
,
0001
0000
0000
1000
0000
0000
0001
0000
1000
0000
0000
0000
0000
0000
0000
0000
,
0000
0000
0000
0000
;

//---------------dance-single - ----------------
#NOTES:
     dance-single:
     :
     Hard:
     10:
     0.456349,0.480159,0.317460,0.000000,0.014881,322.000000,290.000000,32.000000,0.000000,0.000000,0.000000,0.456349,0.480159,0.317460,0.000000,0.014881,322.000000,290.000000,32.000000,0.000000,0.000000,0.000000:
0000
0000
0000
0000
,
0000
0000
0000
0000
,
0000
0000
0000
0000
,
0000
0000
0000
0000
,
0001
0000
0001
0000
1000
0010
1000
0010
,
0100
0001
1000
0010
0100
0100
0100
0000
,
0010
1000
0001
0100
0001
0001
0001
0000
,
1000
0000
1000
0000
0100
0001
1000
0000
,
0010
0000
0010
0000
1000
0100
0001
0000
,
1000
0000
0001
0000
0100
0001
1000
0000
,
0010
0010
0010
0010
1000
0000
0001
0000
,
0100
0010
1000
0001
,
0100
0101
1010
1001
,
0100
0000
0100
0000
0100
0010
1000
0001
,
0000
0100
0010
0000
1000
0100
0001
0000
,
1000
1000
1010
0100
0000
0000
0100
0000
,
0001
0100
0010
1000
0001
0000
1001
0000
,
0100
0100
0100
0010
1000
0001
0100
0010
,
1000
0000
1000
0000
1000
0001
0100
0000
,
0010
0000
0100
0001
0000
1000
0000
0010
,
0000
0000
0000
0000
0101
0000
0100
1000
,
0001
0000
0100
0010
0000
1000
0000
0000
,
0001
0000
1000
0000
1000
0000
1000
0010
,
0100
0000
0100
0000
,
0110
0000
0000
0000
,
1000
0100
0001
0000
1000
0010
0001
0000
,
0010
1000
0001
0000
1000
0001
0100
0000
,
0010
0010
0010
0100
0001
0000
0101
0000
,
1000
1010
0110
0101
,
0001
0100
1000
0000
0001
0010
1000
0000
,
0010
0001
1000
0000
0001
1000
0100
0000
,
0010
0100
0010
0010
1000
0000
1100
0000
,
0001
0011
0110
1100
,
0010
0000
0000
0000
0000
0000
0000
0001
,
1000
0000
0010
0010
,
1000
0010
0100
0001
,
1000
1000
1000
1001
,
0100
0100
0100
0000
0001
0000
0101
0000
,
0010
0010
0010
0000
1000
0000
1010
0000
,
0001
0100
1000
0000
0001
0100
1000
0000
,
1000
0000
0110
0000
0001
0000
0001
1000
,
0010
0000
0010
0000
0010
0001
1000
0000
,
0100
0000
0100
0000
0100
0010
1000
0001
,
0100
0100
0100
0000
0100
0000
0101
0000
,
1000
0010
0001
0000
0001
0010
0100
0001
,
1000
0100
1000
0000
0001
0000
0001
0100
,
0010
1000
1000
1000
,
0001
0100
1000
0000
0001
0000
1001
0000
,
0110
0000
0100
0000
0001
1000
0010
0100
,
0001
0000
0000
0000
1000
0001
1000
0001
,
1000
0010
0001
0000
1000
0100
0001
0000
,
0100
1000
0001
0000
1000
0001
0010
0000
,
0100
0100
0100
0010
0001
0000
0011
0000
,
1000
1100
0110
0011
,
0001
0010
1000
0000
0001
0100
1000
0000
,
0100
0001
1000
0000
0001
1000
0010
0000
,
0100
0100
0100
0010
1000
0000
1010
0000
,
0001
0101
0110
1010
,
0001
0000
1001
0000
1001
0000
0001
1000
,
0010
0000
0000
0100
0000
0000
0001
0000
0000
1000
0000
0000
0010
0000
0100
0000
,
0001
0000
0000
1000
0000
0000
0010
0000
1000
0000
0000
0000
0000
0000
0000
0000
;

//---------------dance-double - ----------------
#NOTES:
     dance-double:
     :
     Easy:
     6:
     0.248016,0.300099,0.059524,0.000000,0.000000,175.000000,169.000000,6.000000,0.000000,0.000000,0.000000,0.248016,0.300099,0.059524,0.000000,0.000000,175.000000,169.000000,6.000000,0.000000,0.000000,0.000000:
00000000
00000000
00000000
00000000
,
00000000
00000000
00000000
00000000
,
00000000
00000000
00000000
00000000
,
00000000
00000000
00000000
00000000
,
00010000
00010000
00000010
00000100
,
00000001
00000000
00000100
00010000
,
01000000
00000000
00100000
10000000
,
00010000
00000000
00010000
00000000
,
01000000
00001000
00001000
00100000
,
00000000
10010000
01000000
00001000
,
00010000
00010000
00000010
00001000
,
00000100
00000000
00000000
00100000
,
00001000
01000000
10000000
01000000
,
00100000
00000000
00000000
00000100
,
00010000
00000010
00000100
00000001
,
00001000
00000000
00000100
00000000
,
00010000
00010000
00010000
01000000
,
00100000
01000000
00001000
01000000
,
00001000
00100000
00100000
00010000
,
01000000
00000000
00001000
00100000
,
00001000
00000000
00000100
00000000
,
00000001
00000000
00000000
00001000
,
00000010
00000000
00010000
00000100
,
00000010
00000000
00000010
00000001
,
00001000
00000000
00000000
01000000
,
10000000
10000000
10000000
10000000
,
00100000
01000000
01000000
01000000
,
00001000
00000000
00010000
00000000
,
00000010
00010010
00000100
00000001
,
00001000
00001000
00001000
00001000
,
00000001
00000010
00000010
00000010
,
00000100
00000000
00010000
00000000
,
01000000
01001000
00100000
10000000
,
00010000
00000000
00000000
00000000
,
00000100
00000000
00000000
00000000
,
00000001
00000000
00000100
00000000
,
00000010
00010000
01000000
10000000
,
00010000
00000000
00000000
00000000
,
01000000
00000000
00000000
00000000
,
00001000
00000000
00010000
00000000
,
00000010
00001000
00000001
00000100
,
00000010
00000000
00010000
01000000
,
10000000
10000000
00100000
01000000
,
00010000
00000000
00000100
00000010
,
00001000
00000001
00001000
00000001
,
00000100
00000100
00000010
00010000
,
00010000
00000000
00001000
00000000
,
01000000
01000000
01000000
01000000
,
00010000
00000000
00000000
00000000
,
00000000
00000000
00000000
10010000
,
10000000
10000000
10000000
10000000
,
00100000
01000000
01000000
01000000
,
00001000
00000000
00010000
00000000
,
00000100
00010100
00000010
00001000
,
00000001
00001000
00001000
00000001
,
00000010
00000100
00000100
00000100
,
00010000
00000000
00001000
00100000
,
01000000
10000000
00010000
00100000
,
00001000
00000000
00000000
00000000
00000000
00000000
00000000
00000100
,
00000001
00000000
00000000
00000000
00000000
00000000
00000000
00000100
,
00000001
00000000
00001001
00000000
,
00000000
00000000
00000000
00000000
;

//---------------dance-double - ----------------
#NOTES:
     dance-double:
     :
     Medium:
     7:
     0.367063,0.390129,0.287698,0.000000,0.004960,259.000000,230.000000,29.000000,0.000000,0.000000,0.000000,0.367063,0.390129,0.287698,0.000000,0.004960,259.000000,230.000000,29.000000,0.000000,0.000000,0.000000:
00000000
00000000
00000000
00000000
,
00000000
00000000
00000000
00000000
,
00000000
00000000
00000000
00000000
,
00000000
00000000
00000000
00000000
,
00100000
00000000
00001000
00000000
00100000
00001000
00010000
00000010
,
00000100
00000100
00000100
00001010
,
00010000
00010000
00010000
01010000
,
10000000
00100000
01000000
00010000
,
10000000
00100000
01000000
00001000
,
00010000
00000000
00010010
00000000
00000100
00000010
00000100
00000000
,
00000001
00000100
00010000
01000000
,
00001000
00010010
00001000
01000000
,
00100000
10100000
01000000
01010000
,
10000000
01000000
00001000
00000100
,
00001000
00000001
00000010
00000110
,
00001000
00000000
00000000
00000100
00000000
00000000
00010000
00000000
,
01000000
00000000
10000000
00000000
01000000
10000000
01000000
10000000
,
00100000
00000000
01000000
00001000
00010000
00000000
00000010
00000000
,
00000100
00000000
00000100
00001001
,
00000010
00010000
01000000
10000000
,
00000000
00000000
00010000
10010000
,
01000000
00001000
00100000
00001000
,
00000100
00000100
00000100
00001001
,
00000010
00010000
00000100
00010000
,
00101000
00000000
01000000
00000000
,
00100000
00100000
00100000
01010000
,
00001000
00001000
00001000
00001010
,
00000001
00000100
00000010
00001000
,
00000100
00010000
00000010
00001000
,
00000100
00000100
00000100
00001010
,
00010000
00010000
00010000
01010000
,
10000000
00100000
01000000
00010000
,
00100000
00001000
01000000
00010000
,
10000000
10000000
10000000
10000000
,
00100000
00001000
00010000
00000100
,
00000010
00001000
00000001
00000100
,
00000010
00001010
00010100
00011000
,
00100000
00000000
00000000
00010000
10000000
00000000
00000000
01000000
,
10000000
00000000
00000000
10000000
00100000
00000000
00000000
00100000
,
01000000
01010000
00100000
00101000
,
00010000
00010100
00000010
00001010
,
00000100
00000000
00000100
00000000
00000010
00001000
00000100
00000000
,
00010000
00010000
00000010
00000100
,
00000001
00000000
00000001
00000000
00000010
00000100
00010000
00000000
,
01000000
01000000
00000000
00100000
,
10000000
00000000
10000000
00000000
00100000
01000000
00001000
00000000
,
00010000
00000000
00000100
00000000
00000100
00000000
00000100
00001000
,
00000001
00000000
00000001
00001000
,
00000100
00000000
00000100
00010100
,
00010010
00000000
00001000
01001000
,
01000000
01000000
01000000
00110000
,
00001000
00001000
00001000
00001100
,
00000001
00000010
00000100
00001000
,
00000010
00010000
00000100
00001000
,
00000010
00000010
00000010
00001100
,
00010000
00010000
00010000
00110000
,
10000000
01000000
00100000
00010000
,
01000000
00001000
00100000
00010000
,
01000000
00000000
01000000
00000000
01000000
00000000
01000000
00001000
,
00100000
00000000
00100000
00000000
00010000
00000000
00010000
00000010
,
00000100
00000000
00000000
00000001
00000000
00000000
00001000
00000000
00000010
00000000
00000000
00000000
00000000
00000000
00000000
00000000
,
00000000
00000000
00000000
00000000
;

//---------------dance-double - ----------------
#NOTES:
     dance-double:
     :
     Hard:
     9:
     0.423753,0.450149,0.228175,0.000000,0.024802,299.000000,276.000000,23.000000,0.000000,0.000000,0.000000,0.423753,0.450149,0.228175,0.000000,0.024802,299.000000,276.000000,23.000000,0.000000,0.000000,0.000000:
00000000
00000000
00000000
00000000
,
00000000
00000000
00000000
00000000
,
00000000
00000000
00000000
00000000
,
00000000
00000000
00000000
00000000
,
00100000
10000000
00010000
01000000
00001000
00000000
00011000
00000000
,
00000010
00000000
00000010
00000000
00001000
00000100
00010000
00000100
,
00010000
00000000
00010000
00000000
00010000
01000000
10000000
01000000
,
00100000
01000000
10000000
00010000
,
00000100
00000100
00000010
00001001
,
00000100
00010000
01000000
00000000
10000000
00000000
10100000
00000000
,
01000000
00010000
10000000
00100000
01000000
00000000
01001000
00000000
,
00010000
00000000
00010000
00000000
00000010
00000100
00000001
00000000
,
00001000
00001100
00010000
00010010
,
00001000
01000000
10000000
00000000
10000000
01000000
00100000
00000000
,
10000000
10010000
01000000
01001000
,
10000000
00100000
01000000
00001000
00010000
00000000
00010010
00000000
,
00000100
00000000
00000100
00000010
00001000
00000001
00001000
00000010
,
00001000
00000000
00001010
00000000
00010000
01000000
00100000
00000000
,
00010000
10000000
00100000
01100000
,
01000000
00001000
00000100
00010000
,
00000100
00000000
00000110
00000000
00000001
00000000
00001000
00000010
,
00000100
00000000
00000101
00000000
00000110
00000000
00000010
00010000
,
00001000
00000000
00000000
00000000
01000000
00000000
01000000
00100000
,
10000000
00000000
00010000
00000100
00000000
00000010
00000000
00001000
,
00000001
00000000
00000000
00000000
00001000
00100000
10000000
00010000
,
00100000
00000000
00100000
00000000
00010000
01000000
00001000
01000000
,
00001000
00000000
00001000
00000000
00001000
00000100
00000001
00000100
,
00000010
00000100
00000001
00001000
,
01000000
01000000
00100000
10010000
,
01000000
00000000
01000000
00000000
00010000
00100000
00001000
00100000
,
00001000
00000000
00001000
00000000
00001000
00000010
00000001
00000010
,
00000100
00000010
00000001
00001000
,
00100000
00100000
01000000
10010000
,
01000000
00000000
00000000
00000000
,
00001000
00000100
00000001
00000010
,
00001000
01000000
00010000
00100000
,
01000000
10000000
00010000
00100000
,
00001000
00000000
00000000
00010000
00001000
00000000
00000000
00010000
,
00000100
00000000
00000000
00001000
00000010
00000000
00000000
00000100
,
00000001
00000000
00001000
00000010
,
00010000
00000000
00000000
00010000
00001000
00000000
00000000
00001000
01000000
00000000
00100000
00000000
10000000
00000000
00010000
00000000
,
01000000
01000000
00001000
00000100
,
00000010
00001000
00000001
00000000
00000001
00000100
00000010
00000000
,
00010000
00000000
00010000
00001000
,
01000000
00100000
01000000
00100000
10000000
00000000
10010000
00000000
,
01000000
00001000
00000100
00000010
,
00001000
00000000
00001000
00000000
00001000
00000001
00000100
00000010
,
00010000
00001000
00001000
00000000
01000000
00000000
01000000
00000000
,
10010000
00010000
01000000
00100000
00000000
00000000
00001000
00000000
,
00001000
00000000
00000000
00000000
00001001
00001001
00001001
00000000
,
00000010
00000000
00000010
00000000
00001000
00000100
00010000
00000100
,
00010000
00000000
00010000
00000000
00010000
01000000
10000000
01000000
,
00100000
01000000
10000000
00010000
,
00000100
00000100
00000010
00001001
,
00000010
00000000
00000010
00000000
00001000
00000100
00010000
00000100
,
00010000
00000000
00010000
00000000
00010000
01000000
10000000
01000000
,
00100000
01000000
10000000
00010000
,
00000100
00000100
00000010
00001001
,
00000100
00000000
00010000
00000000
01000000
00000000
00001000
00000100
,
00010000
00000000
00000000
01000000
00000000
00000000
00100000
00000000
00000000
00010000
00000000
00000000
10000000
00000000
00100000
00000000
,
01000000
00000000
00000000
00001000
00000000
00000000
00010000
00000000
00000010
00000000
00000000
00000000
00000000
00000000
00000000
00000000
,
00000000
00000000
00000000
00000000
;

//---------------dance-solo - ----------------
#NOTES:
     dance-solo:
     :
     Easy:
     4:
     0.287698,0.420139,0.228175,0.000000,0.000000,203.000000,180.000000,23.000000,0.000000,0.000000,0.000000,0.287698,0.420139,0.228175,0.000000,0.000000,203.000000,180.000000,23.000000,0.000000,0.000000,0.000000:
000000
000000
000000
000000
,
000000
000000
000000
000000
,
000000
000000
000000
000000
,
000000
000000
000000
000000
,
000001
000000
000001
101000
,
000001
101000
000001
101000
,
000010
101000
000001
010010
,
000100
010000
001000
000001
,
000100
000100
010000
000010
,
000001
000000
000001
000010
,
100000
100000
100000
001000
,
000001
000000
000001
000010
,
010000
000010
000000
010010
,
000001
000000
000000
000010
,
010000
000100
000100
000001
,
000010
000000
000010
000000
,
100000
000000
100000
101000
,
000000
000001
000001
000001
,
000010
100000
000001
000110
,
100000
000000
001000
000001
,
000110
101000
000001
101000
,
101000
000000
000001
000000
,
000100
000100
100000
100000
,
001000
001000
000001
000010
,
101000
000000
000000
000000
,
000001
000101
100000
001000
,
000010
000101
001000
100000
,
001000
000000
001000
000001
,
010000
100000
001000
000001
,
000010
010010
000100
000001
,
010000
011000
000001
000100
,
100000
000000
100000
000100
,
000001
000010
010000
000100
,
000000
000000
000000
000001
,
001000
000000
000000
000000
,
000001
000000
001000
000000
,
100000
000010
010000
001000
,
100000
000000
000000
000000
000000
000000
000000
001000
,
100000
000000
000000
000000
000000
000000
000000
001000
,
100000
000000
100000
000000
,
001000
000001
000100
100000
,
000010
000000
000010
000001
,
000100
010000
010000
001000
,
000001
000000
000001
000100
,
010000
001000
000001
000100
,
010000
000000
000100
000001
,
000010
000000
010010
010010
,
000001
000000
000000
000001
,
000010
000000
000000
010000
,
000100
000000
010000
001000
,
000001
000101
010000
001000
,
000100
000101
001000
100000
,
001000
000000
001000
000001
,
000100
100000
001000
000001
,
001000
101000
000100
000001
,
100000
010010
000001
000100
,
100000
000000
100000
000100
,
000001
001000
100000
000100
,
100000
000000
000000
000000
000000
000000
000000
000001
,
010000
000000
000000
000000
000000
000000
000000
000100
,
001000
000000
000000
000001
100000
000000
000000
000000
;

//---------------dance-solo - ----------------
#NOTES:
     dance-solo:
     :
     Medium:
     6:
     0.384070,0.420139,0.158730,0.000000,0.014881,271.000000,255.000000,16.000000,0.000000,0.000000,0.000000,0.384070,0.420139,0.158730,0.000000,0.014881,271.000000,255.000000,16.000000,0.000000,0.000000,0.000000:
000000
000000
000000
000000
,
000000
000000
000000
000000
,
000000
000000
000000
000000
,
000000
000000
000000
000000
,
000001
000001
000100
010010
,
000001
000000
000000
000100
100000
001000
001000
000000
,
000001
000000
000000
000100
000001
001000
010000
000000
,
000010
000010
000001
001000
,
010000
010000
010000
010000
,
000100
000000
010000
000001
,
000100
001000
010000
000000
000010
000000
000010
000000
,
000001
001000
000001
001000
,
010000
000000
010000
011000
,
000001
000000
000010
000000
010000
001000
000001
000000
,
000010
000000
000010
000000
010000
000100
000010
000100
,
010000
000000
000000
000010
000000
000000
000001
000000
,
000000
000000
000000
010010
,
000001
000011
010010
010001
,
010000
001000
001000
001000
,
000001
000011
001001
101000
,
100000
000000
000100
000000
000001
000000
000001
001000
,
010000
010000
000100
000001
,
000010
000010
010000
010000
,
000100
010100
000010
000011
,
010000
000000
000000
100000
001000
000001
000100
000000
,
001000
000000
001000
000000
100000
000100
000001
001000
,
100000
000000
100000
000000
000010
000001
001000
100000
,
000010
000000
000010
000000
000001
000001
001000
100000
,
000000
000100
000001
001000
000000
001000
001000
000000
,
010000
000000
010000
000000
001000
000001
000100
100000
,
000010
000000
000010
000000
000001
000100
100000
001000
,
000001
000000
000001
000000
000100
000100
100000
001000
,
000000
000001
000100
100000
000000
001000
100000
000000
,
000000
000000
000001
000001
,
010000
010000
010000
010000
,
000100
100000
001000
000001
,
000100
000100
010000
000010
,
000001
000000
000000
000100
000001
000000
000000
000010
,
100000
000000
000000
000010
000100
000000
000000
010000
,
100000
000000
100000
001000
,
000001
001001
000011
100010
,
001000
001000
001000
000000
000001
000000
000100
100000
,
001000
000001
000001
000001
,
000001
000010
100000
000000
000000
000000
100000
000000
,
000100
000000
000001
000000
000001
001000
100000
000010
,
000001
000000
000000
000010
000000
100000
000000
001000
,
000000
000000
000001
010010
,
000001
000001
000001
000001
,
000100
000000
100000
000010
,
000010
000000
010000
010010
,
000010
000000
000010
000000
100000
000100
000001
001000
,
100000
000000
100000
000000
000100
000001
001000
100000
,
000100
000000
000100
000000
000001
000001
001000
100000
,
000000
000100
000001
001000
000000
001000
001000
000000
,
100000
000000
100000
000000
001000
000010
000001
100000
,
001000
000000
001000
000000
000100
000001
100000
000010
,
000100
000000
000100
000000
000001
000001
100000
001000
,
000000
000010
000001
100000
000000
100000
100000
000000
,
000001
000000
000000
000000
000000
000000
000000
100000
,
000001
000000
000000
100000
000000
000000
000001
000000
000000
100000
000000
000000
000001
000000
100000
000000
,
000001
000000
000000
100000
000000
000000
000001
000000
100000
000000
000000
000000
000000
000000
000000
000000
;

//---------------dance-solo - ----------------
#NOTES:
     dance-solo:
     :
     Hard:
     6:
     0.453515,0.480159,0.297619,0.000000,0.014881,320.000000,290.000000,30.000000,0.000000,0.000000,0.000000,0.453515,0.480159,0.297619,0.000000,0.014881,320.000000,290.000000,30.000000,0.000000,0.000000,0.000000:
000000
000000
000000
000000
,
000000
000000
000000
000000
,
000000
000000
000000
000000
,
000000
000000
000000
000000
,
000010
000000
000010
000000
010000
000100
010000
000100
,
000001
000010
100000
000100
000001
000001
000001
000000
,
000100
010000
001000
000001
001000
001000
001000
000000
,
100000
000000
100000
000000
000001
001000
100000
000000
,
000010
000000
000010
000000
100000
000001
001000
000000
,
100000
000000
001000
000000
000001
001000
100000
000000
,
000100
000100
000100
000100
100000
000000
000010
000000
,
000001
000100
010000
001000
,
000001
000011
010100
010010
,
000001
000000
000001
000000
000001
000100
010000
001000
,
000000
000001
000010
000000
010000
000001
000010
000000
,
100000
100000
100100
000001
000000
000000
000001
000000
,
001000
000001
000100
100000
000010
000000
010010
000000
,
000001
000001
000001
000100
100000
001000
000001
000100
,
010000
000000
010000
000000
010000
001000
000001
000000
,
000100
000000
000001
001000
000000
100000
000000
000100
,
000000
000000
000000
000000
001001
000000
000001
100000
,
001000
000000
000001
000100
000000
100000
000000
000000
,
001000
000000
010000
000000
010000
000000
010000
000100
,
000001
000000
000001
000000
,
000101
000000
000000
000000
,
010000
000001
000010
000000
010000
000100
000010
000000
,
000100
100000
000010
000000
010000
001000
000001
000000
,
000100
000100
000100
000001
001000
000000
001001
000000
,
100000
100100
000101
001001
,
000010
000001
010000
000000
000010
000100
010000
000000
,
000100
001000
000010
100000
000001
000000
000000
000000
,
000010
000001
000010
000100
010000
000000
010001
000000
,
001000
001010
000011
100001
,
000100
000000
000000
000000
000000
000000
000000
001000
,
100000
000000
000100
000100
,
100000
000100
000001
001000
,
010000
010000
010000
010000
,
000001
000001
000001
000000
001000
000000
001001
000000
,
000100
000100
000100
000000
100000
000000
100100
000000
,
001000
000001
100000
000000
001000
000001
100000
000000
,
100000
000000
000100
000001
000010
000000
000010
100000
,
000100
000000
000100
000000
000100
001000
010000
000000
,
000001
000000
000001
000000
000001
000010
100000
001000
,
000001
000001
000001
000000
000001
000000
001001
000000
,
100000
000010
001000
000000
001000
000010
000001
001000
,
100000
010000
100000
000000
001000
000000
001000
010000
,
000100
100000
100000
100000
,
001000
000001
010000
000000
001000
000000
011000
000000
,
000101
000000
000001
000000
001000
100000
000100
000001
,
001000
000000
000000
000000
100000
001000
100000
001000
,
100000
000100
000010
000000
010000
000001
001000
000000
,
000001
100000
001000
000000
100000
001000
000100
000000
,
000001
000001
000001
000100
000010
000000
000110
000000
,
010000
010001
000101
000110
,
000010
000100
010000
000000
000010
000001
010000
000000
,
000001
001000
100000
000000
001000
100000
000100
000000
,
000001
000001
000001
000100
100000
000000
100010
000000
,
001000
001001
000011
100010
,
000001
000000
100001
000000
100001
000000
000001
100000
,
000100
000000
000000
001000
000000
000000
000001
000000
000000
100000
000000
000000
000100
000000
001000
000000
,
000001
000000
000000
100000
000000
000000
000100
000000
100000
000000
000000
000000
000000
000000
000000
000000
;

//---------------dance-single - ----------------
#NOTES:
     dance-single:
     :
     Challenge:
     14:
     0.644841,0.750248,0.357143,0.168651,0.287698,455.000000,419.000000,36.000000,17.000000,0.000000,0.000000,0.644841,0.750248,0.357143,0.168651,0.287698,455.000000,419.000000,36.000000,17.000000,0.000000,0.000000:
// measure 0
0000
0000
0000
0000
,  // measure 1
0000
0000
0000
0000
,  // measure 2
0000
0000
0000
0000
,  // measure 3
0000
0000
0000
0000
,  // measure 4
0001
0000
0010
0000
0100
0000
1000
0000
0010
0100
0010
0001
0010
0100
0010
1000
,  // measure 5
0100
0010
0100
1000
0010
0001
0100
0010
,  // measure 6
1000
0001
0100
0001
0010
0100
0001
1000
,  // measure 7
0010
0100
0010
1000
0100
0001
0010
0100
,  // measure 8
0001
0000
0010
0000
0100
0000
0010
0000
1000
0000
0100
0001
0100
0000
1000
0010
,  // measure 9
1000
0000
1100
0000
0010
0100
0001
0020
,  // measure 10
0000
0001
0000
0100
0000
0031
0100
0010
,  // measure 11
1000
0000
0110
0000
0001
0010
1000
0200
,  // measure 12
0000
0001
0000
1000
0000
0010
0310
0000
,  // measure 13
1001
0000
0110
0000
1000
0010
0100
0002
,  // measure 14
0000
0010
0000
0100
0000
0013
0100
0001
,  // measure 15
2000
0000
0000
0100
0000
0000
3001
0000
,  // measure 16
1001
0000
0000
0000
1100
0000
0000
0000
1010
0000
0100
0000
0010
0001
0010
0000
,  // measure 17
0100
0000
0001
0100
0001
0000
0010
0000
0100
0000
1000
0100
1000
0000
0010
0000
,  // measure 18
1000
0000
0010
1000
0010
0000
0100
0000
0001
0000
0010
0001
0010
0000
0100
0000
,  // measure 19
1000
0000
0001
1000
0001
0000
0100
0000
0010
0000
1000
0100
1000
0000
0010
0000
,  // measure 20
0001
0010
1000
0010
0100
0001
0100
1000
,  // measure 21
0010
0001
0010
0000
0100
0000
0010
0000
1000
0100
1000
0000
0010
0000
0001
0000
,  // measure 22
0100
0000
0001
0100
0001
0000
0010
0000
1000
0000
0100
1000
0100
0000
0010
0000
,  // measure 23
0011
0000
1000
0001
0000
0101
0000
0010
,  // measure 24
0200
0000
0000
0010
0000
0010
0010
0310
,  // measure 25
0120
0000
0000
0000
1030
0000
0001
0000
0100
0000
0010
1000
0010
0000
0001
0010
,  // measure 26
0002
0000
0000
0000
0103
0000
0010
0000
1000
0000
0010
1000
0010
0000
0100
0001
,  // measure 27
0100
0000
0110
0000
1000
0100
0001
0200
,  // measure 28
0000
0001
0000
0001
0000
1000
1300
0010
,  // measure 29
0210
0000
0000
0000
0301
0000
0010
0000
1000
0000
0100
1000
0100
0000
1000
0010
,  // measure 30
2000
0000
0000
0000
3100
0000
0010
0000
0001
0000
0100
0001
0100
0000
0010
1000
,  // measure 31
0010
0000
0000
0000
0110
0000
0000
0000
0100
0010
1000
0000
0100
0000
0002
0000
,  // measure 32
0000
0203
0000
2300
0000
3010
0001
0100
,  // measure 33
1000
0000
0000
1000
0000
0000
1000
0000
0000
0000
0001
0000
0010
0000
0100
0000
,  // measure 34
1000
0000
0000
1000
0000
0000
1000
0000
0000
0000
0010
0000
0001
0000
0100
0000
,  // measure 35
1000
0000
0000
1000
0000
0000
1000
0000
0100
0000
0010
0000
0100
0000
1000
0000
,  // measure 36
0001
0000
0000
0001
0000
0000
0001
0000
0200
0000
0000
0000
0010
0000
0310
0000
,  // measure 37
1010
1000
0100
1000
0000
1100
0000
0100
,  // measure 38
0001
0101
0000
0100
0000
0010
0000
1000
,  // measure 39
0010
1010
0000
1000
0001
1001
0000
0001
,  // measure 40
0101
0000
0100
0010
0100
0000
0010
1000
0010
0000
1000
0000
0100
0000
0010
0000
,  // measure 41
0001
0000
0000
0001
1000
0000
0010
0000
0100
0000
0001
0000
0010
0000
0100
0000
,  // measure 42
1000
0000
0000
1000
0001
0000
0010
0000
0100
0000
1000
0000
0010
0000
0001
0000
,  // measure 43
0100
0000
0000
0100
1000
0000
0100
0000
0010
0000
0001
0000
1000
0000
0010
0000
,  // measure 44
0001
0000
0000
0001
0100
0000
0010
0000
1000
0000
0010
0000
0100
0000
0001
0000
,  // measure 45
0010
0000
0000
0010
1000
0000
0100
0000
0001
0000
0100
0000
0010
0000
1000
0000
,  // measure 46
0100
0000
0000
0100
1000
0000
0010
0000
0100
0000
0001
0000
0010
0000
0001
0000
,  // measure 47
0100
0000
0000
0100
0001
0000
0010
0000
0100
0000
1000
0000
0010
0000
0100
0000
,  // measure 48
0110
0010
0100
0010
0000
0100
0000
2002
,  // measure 49
0000
0000
0000
3003
,  // measure 50
1001
0000
1000
0010
0100
0000
0001
0010
0100
0000
1000
0000
0010
0000
0100
0000
,  // measure 51
0101
0000
0010
0100
1000
0000
0100
0010
0001
0000
0100
0000
0010
0000
1000
0000
,  // measure 52
0011
0000
0100
0001
0010
0000
1000
0010
0100
0000
0001
0000
0010
0000
0110
0000
,  // measure 53
0000
0000
1010
0000
0000
0000
1100
0000
0000
0000
0101
0000
0100
0010
0100
0000
,  // measure 54
1010
0000
1000
0001
0100
0000
0001
0010
1000
0000
0100
0000
0010
0000
0001
0000
,  // measure 55
0011
0000
1000
0100
0010
0000
0100
0010
0001
0000
0010
0000
1000
0000
0100
0000
,  // measure 56
0110
0000
0010
0001
0100
0000
0010
1000
0100
0000
0010
0000
0001
0000
0101
0000
,  // measure 57
0000
0100
0010
2000
0000
0001
3001
1000
,  // measure 58
0010
0000
0000
0010
0000
0000
0010
0000
0000
0000
0100
0010
0100
0000
0010
0000
,  // measure 59
1000
0000
0000
1000
0000
0000
1000
0000
0000
0000
1000
0000
0001
0010
0001
0000
,  // measure 60
0011
0000
0101
0000
1001
0000
1100
0000
0000
0000
0000
0000
;
