#VERSION:0.83;
#TITLE:STAY;
#SUBTITLE:;
#ARTIST:TESS;
#TITLETRANSLIT:;
#SUBTITLETRANSLIT:;
#ARTISTTRANSLIT:;
#GENRE:;
#ORIGIN:;
#CREDIT:;
#BANNER:STAY.png;
#BACKGROUND:STAY-bg.png;
#PREVIEWVID:;
#JACKET:STAY-jacket.png;
#CDIMAGE:;
#DISCIMAGE:;
#LYRICSPATH:;
#CDTITLE:;
#MUSIC:STAY.ogg;
#OFFSET:0.000000;
#SAMPLESTART:61.689999;
#SAMPLELENGTH:15.000000;
#SELECTABLE:YES;
#DISPLAYBPM:140.000000;
#BPMS:0.000=138.842,
4.000=139.994;
#STOPS:;
#DELAYS:;
#WARPS:;
#TIMESIGNATURES:0.000=4=4;
#TICKCOUNTS:0.000=4;
#COMBOS:0.000=1;
#SPEEDS:0.000=1.000=0.000=0;
#SCROLLS:0.000=1.000;
#FAKES:;
#LABELS:0.000=Song Start;
#BGCHANGES:;
#KEYSOUNDS:;
#ATTACKS:
;

//---------------dance-single - ----------------
#NOTEDATA:;
#CHARTNAME:;
#STEPSTYPE:dance-single;
#DESCRIPTION:;
#CHARTSTYLE:;
#DIFFICULTY:Easy;
#METER:2;
#RADARVALUES:0.109580,0.194544,0.022234,0.244569,0.000000,69.000000,67.000000,2.000000,22.000000,0.000000,0.000000,0.000000,0.000000,0.000000,0.109580,0.194544,0.022234,0.244569,0.000000,69.000000,67.000000,2.000000,22.000000,0.000000,0.000000,0.000000,0.000000,0.000000;
#CREDIT:;
#DISPLAYBPM:140.000000;
#NOTES:
0000
0000
0000
0000
,
0000
0000
0000
0000
,
0000
0000
0000
0000
,
0020
0000
0000
0000
,
0000
0000
0000
0030
,
2000
0000
0000
3000
,
0002
0000
0000
0003
,
2000
0000
0000
3000
,
0002
0000
0000
0003
,
1001
0000
0000
0000
,
0010
0000
0000
0000
,
1000
0000
0000
0000
,
0001
0000
0000
0000
,
0100
0000
0000
0000
,
1000
0000
0000
0000
,
0001
0000
0000
0000
,
0100
0000
0000
0000
,
0010
0000
0000
0000
,
2000
0000
0001
0000
,
0001
0000
0001
3000
,
0010
0000
0001
0000
,
0010
0000
1000
0000
,
0100
0000
0001
0000
,
0100
0000
1000
0000
,
0001
0000
1000
0000
,
0001
0000
1000
0000
,
0020
0000
0000
1000
,
1030
0000
0010
0010
,
0020
0000
0000
0100
,
0130
0000
0010
0010
,
0020
0000
1000
1000
,
1030
0000
0001
0001
,
2000
0000
0000
3000
,
0002
0000
0000
0003
,
0200
0000
0000
0300
,
0010
0010
0010
0010
,
2000
0000
0000
3000
,
0002
0000
0000
0003
,
0200
0000
0000
0300
,
0020
0000
0000
0030
,
2000
0000
0000
3000
,
0020
0000
0000
0030
,
0002
0000
0000
0003
,
0020
0000
0000
0030
,
2000
0000
0000
3000
,
0010
0000
0000
0000
,
1000
0000
0000
0000
,
0001
0000
0000
0000
,
0200
0000
0000
0000
,
0000
0000
0000
0300
,
1001
0000
0000
0000
;

//---------------dance-single - ----------------
#NOTEDATA:;
#CHARTNAME:;
#STEPSTYPE:dance-single;
#DESCRIPTION:;
#CHARTSTYLE:;
#DIFFICULTY:Medium;
#METER:8;
#RADARVALUES:0.271567,0.305712,0.100051,0.311270,0.133402,171.000000,162.000000,9.000000,28.000000,0.000000,0.000000,0.000000,0.000000,0.000000,0.271567,0.305712,0.100051,0.311270,0.133402,171.000000,162.000000,9.000000,28.000000,0.000000,0.000000,0.000000,0.000000,0.000000;
#CREDIT:;
#DISPLAYBPM:140.000000;
#NOTES:
0000
0000
0000
0000
,
0000
0000
0000
0000
,
0000
0000
0000
0000
,
0010
0000
1000
0000
,
0100
0000
0000
0000
0000
0000
0000
0010
,
2000
0000
0000
3000
,
0002
0000
0000
0003
,
0200
0000
0000
0310
,
0020
0000
1000
0030
,
2010
0000
0010
0000
3001
0001
0001
0000
,
0000
0000
0010
0000
0000
0100
0000
0000
0010
0000
0000
0100
0000
0000
0001
0000
,
0000
0000
0100
0000
0000
1000
0000
0000
0100
0000
0000
1000
0000
0000
0001
0000
,
0000
0000
0001
0000
0000
0100
0000
0000
0001
0000
0000
0100
0000
0000
1000
0000
,
0000
0000
0010
0000
0000
0100
0000
0000
0001
0000
0000
0100
0000
0000
0010
0000
,
0000
0000
1000
0000
0000
0010
0000
0000
1000
0000
0000
0010
0000
0000
0100
0000
,
0000
0000
0001
0000
0000
0010
0000
0000
0010
0000
0000
0001
0000
0000
1000
0000
,
0000
0000
0010
0000
0000
0010
0000
0000
1000
0000
0000
1000
0000
0000
1000
0000
,
0000
0000
0010
0000
0000
0010
0000
0000
0001
0000
0000
0001
0000
0000
0001
0000
,
1000
0010
0001
0010
,
1000
0100
0001
0100
,
1001
0010
1000
0002
,
0100
0103
1000
0100
,
0010
1000
0001
0100
,
0001
2000
0100
3010
,
1000
0100
0001
0100
,
1000
0010
0001
0010
,
2000
0000
0000
0001
,
0100
3000
0010
0100
,
2002
0000
0003
0100
,
0001
3000
0010
0100
,
0002
0100
1000
0100
,
1000
0003
1000
0100
,
2000
0000
0100
3100
,
0002
0000
0100
0103
,
0020
0100
0100
0130
,
0110
1000
0100
1001
,
2000
0000
0002
3003
,
1001
0010
0001
1000
,
0002
0000
2000
3003
,
1000
0010
0001
0010
,
2002
0000
0003
0100
,
3002
0000
0000
0100
,
2003
0000
0000
3000
,
0020
0000
0200
0330
,
0010
0000
0001
0000
0000
1000
0000
0000
0010
0000
0000
0100
0000
0000
0001
0000
,
0000
0000
1000
0000
0000
0001
0000
0000
0100
0000
0000
0010
0000
0000
1000
0000
,
0000
0000
0100
0000
0000
0010
0000
0000
1000
0000
0000
0001
0000
0000
0100
0000
,
0000
0000
1000
0000
0000
0100
0000
0000
1000
0000
0000
0001
0000
0000
1000
0000
,
0020
0000
0200
0330
,
2002
0000
0000
3003
,
0110
0000
0000
0000
;

//---------------dance-single - ----------------
#NOTEDATA:;
#CHARTNAME:;
#STEPSTYPE:dance-single;
#DESCRIPTION:;
#CHARTSTYLE:;
#DIFFICULTY:Hard;
#METER:13;
#RADARVALUES:0.586014,0.694800,0.322387,0.077818,0.389088,369.000000,340.000000,29.000000,7.000000,0.000000,0.000000,0.000000,0.000000,0.000000,0.586014,0.694800,0.322387,0.077818,0.389088,369.000000,340.000000,29.000000,7.000000,0.000000,0.000000,0.000000,0.000000,0.000000;
#CREDIT:;
#DISPLAYBPM:140.000000;
#NOTES:
0000
0000
0000
0000
,
0000
0000
0000
0000
,
0000
0000
0000
0000
,
2000
0000
0010
0000
,
3010
0000
0001
0010
0000
1000
0001
1000
,
1001
0000
0100
0000
0010
0100
0010
1001
,
0000
0000
0100
0000
0010
0100
0010
0001
,
1000
0010
1000
0010
0100
0010
0100
0010
,
0100
0001
0100
0000
0010
0100
0010
0000
1000
0010
1000
0000
0010
0100
0010
0000
,
1000
0000
1000
0000
0001
1000
0001
1000
,
0100
0000
0001
0000
0000
0100
0000
0000
1000
0000
0000
0010
0000
0000
0100
0001
,
0000
0000
1000
0000
0000
0100
0000
0000
0001
0000
0000
0010
0000
0000
0100
1000
,
0000
0000
0001
0000
0000
0100
0000
0000
1000
0000
0000
0100
0000
0000
0010
0001
,
0000
0000
1000
0000
0000
0010
0000
0000
0001
0000
0000
0100
0000
0010
1000
0010
,
0000
0000
0100
0000
0000
1000
0000
0000
0010
0000
0000
0100
0000
0100
0001
0100
,
0000
0000
0010
0000
0000
0001
0000
0000
0100
0000
0000
0010
0000
0000
0010
1000
,
0000
0000
0001
0000
0000
0001
0000
0000
0010
0000
0000
1000
0000
0000
1000
0000
,
0000
0000
1000
0000
0000
1000
0000
0000
0100
0000
0000
0001
0000
0000
0001
0000
,
1000
0100
0001
0101
1000
0100
0010
1010
,
0100
0110
0100
0101
0100
0001
1001
0000
,
0010
1000
0010
0000
0100
0000
0001
0000
0100
0001
0100
0000
0010
0000
1000
0000
,
0100
1000
0100
0000
1000
0000
0001
0000
0100
0001
0100
0000
0001
0000
1000
0000
,
0010
1000
0010
0000
0100
0000
0001
0000
0010
0001
0010
0000
0100
0000
0010
0000
,
0001
1000
0001
0000
0100
0000
0001
0000
1000
0001
1000
0000
0100
0000
0010
0000
,
0001
0100
0001
0000
1000
0000
0100
0000
0001
0100
0001
0000
0100
0000
1000
0000
,
0010
0001
0010
0000
1000
0000
0001
0000
0100
1000
0100
0000
0001
0000
0010
0000
,
1000
0010
1000
0000
0010
0000
0001
0000
0100
0010
0100
0000
0010
0000
1000
0000
,
0010
0100
0010
0000
0100
0000
0001
0000
1000
0000
0010
0000
0101
0000
0000
0000
,
1001
0010
0100
0010
1000
0001
0110
0000
,
1001
0010
0100
0010
0001
1000
0110
0001
,
0110
1000
0010
0100
1001
0010
0100
1000
,
0110
0001
1000
0001
1100
0010
0101
0000
,
1001
0010
1000
0010
0100
0001
0100
0001
,
0110
1000
0001
1000
0100
0010
0100
0010
,
1001
0010
0001
0010
,
0001
0010
0001
0000
0010
0100
0010
0000
0100
1000
0100
0000
2000
0000
0000
0000
,
0001
3000
1001
0000
,
0001
1000
0001
1000
0010
0100
0010
0100
,
0010
0000
1000
0001
1000
0000
0010
0100
0010
0000
1000
0100
1000
0000
0001
0010
,
0001
0000
0100
0010
0100
0000
0001
1000
0001
0000
1000
0010
1000
0000
0001
0100
,
0001
0100
1000
0100
0001
0010
0100
1000
,
0001
0000
1000
0100
1000
0000
0001
0100
0001
0000
1000
0100
1000
0000
0001
0100
,
0002
0010
1003
0110
,
0011
0001
0100
0000
1010
1000
0100
0000
,
0100
0000
1000
0000
0000
0010
0000
0000
0100
0000
0000
0001
0000
0000
1000
0010
,
0000
0000
0001
0000
0000
0010
0000
0000
0100
0000
0000
1000
0000
0100
0010
0100
,
0000
0000
0001
0000
0000
1100
0000
0000
0101
0000
0000
1100
0000
0000
0001
1000
,
0000
0000
0100
0000
0000
0100
0000
0000
0010
0000
0000
0010
0000
0000
0100
0000
,
0002
0003
0020
0030
,
2002
0000
0000
3003
,
0110
0000
0000
0000
;

//---------------dance-double - ----------------
#NOTEDATA:;
#CHARTNAME:;
#STEPSTYPE:dance-double;
#DESCRIPTION:;
#CHARTSTYLE:;
#DIFFICULTY:Easy;
#METER:2;
#RADARVALUES:0.141342,0.194544,0.044467,0.144518,0.000000,89.000000,85.000000,4.000000,13.000000,0.000000,0.000000,0.000000,0.000000,0.000000,0.141342,0.194544,0.044467,0.144518,0.000000,89.000000,85.000000,4.000000,13.000000,0.000000,0.000000,0.000000,0.000000,0.000000;
#CREDIT:;
#DISPLAYBPM:140.000000;
#NOTES:
00000000
00000000
00000000
00000000
,
00000000
00000000
00000000
00000000
,
00000000
00000000
00000000
00000000
,
00000000
00000000
00000000
00000000
,
00000000
00000000
00000000
00000000
,
00100000
00000000
00000000
00000000
,
00010000
00000000
00000000
00000000
,
00001000
00000000
00000000
00000000
,
00000010
00000000
00000000
00000000
,
00010000
00000000
00000000
00000000
,
00001000
00000000
00000000
00000000
,
01000000
00000000
00000000
00000000
,
00010000
00000000
00000000
00000000
,
00000010
00000000
00000000
00000000
,
00000001
00000000
00000000
00000000
,
00000100
00000000
00000000
00000000
,
00010000
00000000
00000000
00000000
,
01000000
00000000
00000000
00010000
,
00001000
00000000
00000000
00000000
,
00010000
00001000
00010000
00100000
,
00000000
10000000
00000000
01000000
,
00000000
00010000
00000000
00001000
,
00000000
00000010
00000000
00001000
,
00000000
00010000
00000000
00001000
,
00000000
00010000
00000000
00010000
,
00000000
00100000
00000000
01000000
,
00020000
00000000
00000000
10030000
,
01000000
00000000
00000000
00010000
,
00011000
00000000
00000000
00000010
,
00000100
00000000
00000001
00000100
,
00002000
00003000
00001000
00010000
,
00200000
00300000
10000000
00010000
,
02000000
03000000
00100000
00010000
,
00000200
00000300
00000010
00000001
,
00000200
00000000
00000000
00000300
,
00000100
00000100
00001000
00001000
,
00011000
00000000
00000000
00000000
,
00001000
00010000
00100000
00000000
,
00010000
00000100
00001000
00000000
,
00001000
00000000
00100000
10000000
,
00010000
00000000
00000000
00100000
,
01000000
00000000
00000000
00010000
,
00001000
00000000
00000000
00000000
,
00020000
00030000
00002000
00003000
,
00000200
00000000
00000000
00000300
,
00000000
00001000
00010000
00000000
,
00010000
00100000
01000000
00000000
,
00100000
00000000
10000000
00000000
,
02200000
00000000
00000000
03300000
,
00022000
00000000
00000000
00030000
,
00013000
00000000
00000000
00000000
;

//---------------dance-double - ----------------
#NOTEDATA:;
#CHARTNAME:;
#STEPSTYPE:dance-double;
#DESCRIPTION:;
#CHARTSTYLE:;
#DIFFICULTY:Medium;
#METER:5;
#RADARVALUES:0.238217,0.361296,0.077818,0.255686,0.000000,150.000000,143.000000,7.000000,23.000000,0.000000,0.000000,0.000000,0.000000,0.000000,0.238217,0.361296,0.077818,0.255686,0.000000,150.000000,143.000000,7.000000,23.000000,0.000000,0.000000,0.000000,0.000000,0.000000;
#CREDIT:;
#DISPLAYBPM:140.000000;
#NOTES:
00000000
00000000
00000000
00000000
,
00000000
00000000
00000000
00000000
,
00000000
00000000
00000000
00000000
,
00000000
00000000
00000000
00000000
,
00000000
00000000
00000000
00000000
00000000
00000000
00000000
00001000
,
00020000
00000000
00000000
00030000
,
00002000
00000000
00000000
00003000
,
00000010
00000000
00000000
00000000
,
00000200
00000000
00000000
00000300
,
00001000
00100000
00010000
00000010
,
00011000
01000000
00011000
00000100
,
00011000
00100000
00011000
00000010
,
00001000
00000001
00000100
00010000
,
00100000
00001000
01000000
00100000
,
10000000
01000000
00010000
00001000
,
00000010
00000001
00000100
00000001
,
00001000
00100000
10000000
00010000
,
01000000
00001000
00010000
00000100
,
00000010
00000001
00000100
00001000
,
00100000
01000000
10000000
00000000
10000000
01000000
00010000
00000000
,
00011000
00001000
00000010
00000001
,
00001000
00000200
00000000
00000000
,
00000300
00001000
00000100
00010000
,
00100000
00000000
01000000
00000000
00010000
00000000
10000000
01000000
,
00000000
01000000
00100000
00010000
,
10000000
00000000
01000000
00000000
00010000
00000000
00001000
00020000
,
00000000
00000000
00000000
00000000
00000000
00001000
00000000
00031000
,
00000000
00000000
00000010
00000001
,
00002002
00000000
00003003
00000100
,
00001000
00000000
00010000
00100000
,
20000000
00000000
00000000
00000000
30010000
00000000
10000000
00020000
,
00000000
00030000
00100000
00001000
,
00000010
00000001
00001000
00001000
,
00000010
00010000
00000100
00001000
,
00020000
00000000
00000000
00000000
,
00100000
00230000
01000000
01300000
,
20020000
00000000
00000000
30030000
,
00100000
00010000
00000010
00001000
,
00000200
00000300
00020000
00030000
,
00100000
00000000
10000000
00000000
01000000
00000000
00100000
00020000
,
00000000
00000000
00030000
00010000
,
00000010
00000000
00000000
00000000
00000000
00000000
00000010
00000001
,
00000200
00000000
00000000
00000300
,
00002000
00013000
00200000
00310000
,
02000000
13000000
00000000
00000000
,
00100000
00000000
00001000
00000000
00010000
00000000
00000100
00000010
,
00000001
00000000
00001000
00000000
00100000
00000000
10000000
01000000
,
00010000
00000000
00000010
00000000
00001000
00000000
00000001
00000100
,
00002000
00000000
00023000
00000000
,
00000200
00000000
00000000
00030000
,
00001300
00000000
00000000
00000000
;

//---------------dance-double - ----------------
#NOTEDATA:;
#CHARTNAME:;
#STEPSTYPE:dance-double;
#DESCRIPTION:;
#CHARTSTYLE:;
#DIFFICULTY:Hard;
#METER:9;
#RADARVALUES:0.517725,0.583632,0.133402,0.133402,0.377971,326.000000,314.000000,12.000000,12.000000,0.000000,0.000000,0.000000,0.000000,0.000000,0.517725,0.583632,0.133402,0.133402,0.377971,326.000000,314.000000,12.000000,12.000000,0.000000,0.000000,0.000000,0.000000,0.000000;
#CREDIT:;
#DISPLAYBPM:140.000000;
#NOTES:
00000000
00000000
00000000
00000000
,
00000000
00000000
00000000
00000000
,
00000000
00000000
00000000
00000000
,
00200000
00300000
20000000
30000000
,
01000000
00000000
00010000
00001000
00000000
00001000
00000010
00000001
,
00000101
00000000
00000010
00000000
00000000
00000001
00000000
00000000
00001000
00000000
00000000
00001000
00000000
00000000
00000010
00000000
,
00000000
00000000
00000100
00000000
00000000
00001000
00000000
00000000
00010000
00000000
00000000
01000000
00000000
00000000
10000000
00000000
,
00000000
00000000
01000000
00000000
00000000
00100000
00000000
00000000
10000000
00000000
00000000
01000000
00000000
00000000
00100000
00000000
,
00000000
00000000
00001000
00000000
00000000
00010000
00000000
00000000
00000010
00000000
00000000
00000100
00000000
00000000
00000001
00000000
,
00001100
00000000
00010100
00000000
00010000
00010000
00010000
00010000
,
00000000
00000000
00100000
00000000
00000000
00010000
00000000
00000000
10000000
00000000
00000000
01000000
00000000
00000000
10000000
01000000
,
00000000
00000000
00010000
00000000
00000000
00001000
00000000
00000000
00000100
00000000
00000000
00000001
00000000
00000000
00000010
00000100
,
00000000
00000000
00001000
00000000
00000000
00000100
00000000
00000000
00010000
00000000
00000000
00001000
00000000
00000000
00000100
00000001
,
00000000
00000000
00000100
00000000
00000000
00001000
00000000
00000000
00000100
00000000
00000000
00001000
00000000
00000000
00010000
00001000
,
00000000
00000000
00000100
00000000
00000000
00001000
00000000
00000000
00010000
00000000
00000000
00100000
00000000
00000000
00010000
00001000
,
00000000
00000000
00100000
00000000
00000000
00010000
00000000
00000000
01000000
00000000
00000000
01000000
00000000
00000000
10000000
01000000
,
00000000
00000000
00100000
00000000
00000000
00010000
00000000
00000000
00100000
00000000
00000000
00001000
00000000
00000000
00010000
00000000
,
00000000
00000000
00010000
00000000
00000000
00000010
00000000
00000000
00000100
00000000
00000000
00001000
00000000
00000000
00000001
00000000
,
00002001
00000100
00000100
00003100
,
00000010
00000100
00001000
00010000
01000000
00100000
00010000
10000000
,
01000000
00000000
10000000
00000000
00100000
00000000
10000000
01000000
00000000
00100000
01000000
00000000
00100000
00000000
00010000
00100000
,
00000000
01000000
10000000
00000000
00100000
00000000
01000000
00010000
00000000
00100000
00001000
00000000
00010000
00000000
00000010
00001000
,
00000000
00000100
00001000
00000000
00000100
00000000
00000010
00000001
00000000
00000100
00001000
00000000
00000100
00000000
00001000
00010000
,
00000000
00010000
01000000
00000000
00100000
00000000
10000000
00010000
00000000
10000000
01000000
00000000
00010000
00000000
01000000
10000000
,
00000000
01000000
00010000
00000000
00001000
00000000
00010000
00000010
00000000
00010000
00001000
00000000
00010000
00000000
00001000
00100000
,
00000000
00001000
00010000
00000000
00001000
00000000
00000010
00000001
00000000
00000100
00000001
00000000
00000010
00000000
00000100
00001000
,
00000000
00000100
00001000
00000000
00010000
00000000
01000000
00100000
00000000
01000000
00010000
00000000
10000000
00000000
01000000
00000000
,
00010000
01000000
00100000
00010000
10000000
00100000
01010000
00000000
,
10010000
01000000
00010000
00001000
00010000
00000100
00000010
00000001
,
00001000
00000010
00010000
00001000
00000100
00000010
00001000
00000001
,
00000100
00001000
00010000
00001000
00010000
01000000
10000000
00100000
,
01000000
00001000
00100000
01000000
00100000
00001000
00010000
01000000
,
00100000
00010000
10000000
00010000
00100000
01000000
10000000
00100000
,
00010000
00001000
00000010
00000001
00001000
00000010
00000100
00000010
,
00001000
00000100
00000010
00001000
00000010
00000001
00000100
00000010
,
00000110
00000000
00000000
00000000
00001100
00000000
00000000
00000000
00011000
00000000
00000000
00010000
00001000
00000000
00010000
00000000
,
00022000
00000000
00000000
00033000
,
00100000
00010000
00100000
01000000
10000000
01000000
00100000
00001000
,
00010000
00001000
00010000
00001000
00010000
00001000
00000100
00000010
,
00001000
00000001
00000001
00000001
00000000
00000100
00000100
00000100
,
00000010
00000100
00000001
00000010
00000100
00010000
00001000
00000100
,
00001000
00010000
01000000
00100000
00010000
01000000
00001000
00100000
,
00010000
01000000
10000000
01000000
00001000
00010000
00100000
01000000
,
20020000
30030000
02200000
03300000
,
00000000
00000000
00100000
00000000
00000000
10000000
00000000
00000000
00010000
00000000
00010000
01000000
00010000
00000000
10000000
01000000
,
00000000
00000000
00100000
00000000
00000000
00001000
00000000
00000000
00010000
00000000
00000100
00001000
00000100
00000000
00000100
00001000
,
00000000
00000000
00000100
00000000
00000000
00000010
00000000
00000000
00000001
00000000
00000000
00000100
00000000
00000000
00000010
00000100
,
00000000
00000000
00010000
00000000
00000000
00100000
00000000
00000000
10000000
00000000
00000000
01000000
00000000
00000000
10000000
00000000
,
00020000
01030000
00200000
00310000
,
00002000
00000000
00000000
00000000
,
00013000
00000000
00000000
00000000
;

//---------------dance-single - ----------------
#NOTEDATA:;
#CHARTNAME:;
#STEPSTYPE:dance-single;
#DESCRIPTION:;
#CHARTSTYLE:;
#DIFFICULTY:Beginner;
#METER:1;
#RADARVALUES:0.046055,0.138960,0.022234,0.088934,0.000000,29.000000,27.000000,2.000000,8.000000,0.000000,0.000000,0.000000,0.000000,0.000000,0.046055,0.138960,0.022234,0.088934,0.000000,29.000000,27.000000,2.000000,8.000000,0.000000,0.000000,0.000000,0.000000,0.000000;
#CREDIT:;
#DISPLAYBPM:140.000000;
#NOTES:
0000
0000
0000
0000
,
0000
0000
0000
0000
,
0000
0000
0000
0000
,
0200
0000
0000
0000
,
0300
0000
0000
0000
,
2000
0000
3000
0000
,
0000
0000
0000
0000
,
0020
0000
0000
0030
,
0000
0000
0000
0000
,
0002
0000
0000
0003
,
0000
0000
0000
0000
,
1000
0000
0000
0000
,
0000
0000
0000
0000
,
0100
0000
0000
0000
,
0000
0000
0000
0000
,
0001
0000
0000
0000
,
0000
0000
0000
0000
,
0010
0000
0000
0000
,
0000
0000
0000
0000
,
0000
0000
0000
0000
,
1000
0000
0000
0000
,
0000
0000
0000
0000
,
0010
0000
0000
0000
,
0000
0000
0000
0000
,
0100
0000
0000
0000
,
0000
0000
0000
0000
,
0001
0000
0000
0000
,
0000
0000
0000
0000
,
0010
0000
0000
0000
,
0000
0000
0000
0000
,
0100
0000
0000
0000
,
0000
0000
0000
0000
,
1000
0000
0000
0000
,
0000
0000
0000
0000
,
0010
0000
0000
0000
,
0000
0000
0000
0000
,
0100
0000
0000
0000
,
0000
0000
0000
0000
,
0001
0000
0000
0000
,
0000
0000
0000
0000
,
0010
0000
0000
0000
,
0000
0000
0000
0000
,
1000
0000
0000
0000
,
0001
0000
0100
0000
,
0020
0000
0000
0030
,
0000
0000
0000
0000
,
1000
0000
0000
0000
,
0000
0000
0000
0000
,
0002
0000
0000
0003
,
2002
0000
0000
3003
,
0110
0000
0000
0000
;

//---------------dance-single - ----------------
#NOTEDATA:;
#CHARTNAME:;
#STEPSTYPE:dance-single;
#DESCRIPTION:;
#CHARTSTYLE:;
#DIFFICULTY:Challenge;
#METER:16;
#RADARVALUES:0.871874,1.167263,0.188985,0.244569,1.200614,549.000000,532.000000,17.000000,22.000000,0.000000,0.000000,0.000000,0.000000,0.000000,0.871874,1.167263,0.188985,0.244569,1.200614,549.000000,532.000000,17.000000,22.000000,0.000000,0.000000,0.000000,0.000000,0.000000;
#CREDIT:;
#DISPLAYBPM:140.000000;
#NOTES:
// measure 0
0000
0000
0000
0000
,  // measure 1
0000
0000
0000
0000
,  // measure 2
0000
0000
0000
0000
,  // measure 3
0200
0000
2300
3002
,  // measure 4
0023
0000
0130
0001
0000
0001
0100
0010
,  // measure 5
2000
0000
0001
0001
3002
0100
0100
0103
,  // measure 6
0200
0000
0010
0010
0320
0100
0100
0130
,  // measure 7
0001
0100
0010
1000
0001
0010
0100
1000
0001
0100
0010
1000
0001
0100
0010
1000
,  // measure 8
0010
0100
0010
0100
0010
0100
0010
0100
1000
0001
1000
0001
1000
0001
1000
0001
,  // measure 9
1000
0000
1100
0000
0101
0001
1001
1000
,  // measure 10
0001
0000
0100
0001
0000
0010
0100
0000
0010
0000
1000
0010
0000
0100
0001
0100
,  // measure 11
0000
0000
1000
0100
0000
0010
0001
0000
0100
0000
0010
1000
0000
0010
0001
0010
,  // measure 12
0000
0000
0100
0001
0000
1000
0100
0000
0001
0000
0010
0100
0000
1000
0010
0001
,  // measure 13
0000
0000
0100
0010
0000
1000
0001
0000
0010
0000
0100
0001
0000
1000
0100
0001
,  // measure 14
0000
0000
0100
0010
0000
0001
0010
0000
0100
0000
1000
0100
0000
0001
0010
0100
,  // measure 15
0000
0010
0100
0000
0000
0100
1000
0000
0001
0000
0100
0001
0000
0100
0010
1000
,  // measure 16
0000
0100
0010
0100
0000
1000
0100
0000
0010
0000
0100
0001
0000
0100
0010
1000
,  // measure 17
0000
0010
0100
0010
0000
0001
0100
0000
0010
0000
1000
0100
0000
0010
0001
0010
,  // measure 18
0001
0001
0100
0100
0010
0010
1000
1000
,  // measure 19
0001
0100
0001
0100
0010
1000
0010
1000
0001
0100
0010
1000
0001
0100
0010
1000
,  // measure 20
0020
0000
1030
0001
0100
0100
0010
1000
,  // measure 21
1200
0301
0201
1300
,  // measure 22
0100
1000
0100
0001
0100
0010
1000
0100
,  // measure 23
0120
0000
0031
0000
0120
0000
1000
1000
,  // measure 24
1030
0000
0100
0000
0010
0001
0010
0000
0001
0000
0100
0000
0010
0000
1000
0000
,  // measure 25
0100
0000
1100
0000
0101
0000
1000
0001
,  // measure 26
0210
0000
0000
0000
0001
0000
0001
0000
0301
0000
0010
0100
1000
0001
0200
0000
,  // measure 27
1000
1000
1000
1300
0101
0000
1100
0000
,  // measure 28
2000
0000
3100
1000
0001
0000
0100
0001
1000
0000
0100
1000
0001
1000
0100
0000
,  // measure 29
0001
0100
0010
1000
1200
0000
0301
0000
,  // measure 30
0200
0000
0301
1000
0100
0000
1000
0001
0100
0001
0010
1000
0100
0010
0001
0000
,  // measure 31
0100
0010
1000
0001
0201
0000
1300
0000
,  // measure 32
0100
0000
1000
0100
0001
0000
0001
0100
1000
0000
0100
0001
1000
0100
0010
0001
,  // measure 33
0100
0000
0010
1000
0100
0000
0010
0001
0100
0000
1000
0000
0001
0100
0010
1000
,  // measure 34
0100
0100
1000
1000
0001
0001
0100
0100
,  // measure 35
1000
0000
0100
0000
1000
0000
0100
0000
0000
0000
0000
0000
0001
0000
0100
0000
0001
0000
0100
0000
0000
0000
0000
0000
1000
0000
0010
0000
1000
0000
0010
0000
0000
1000
0000
0000
0001
0000
0100
0000
0001
0000
0100
0000
0000
0001
0000
0000
,  // measure 36
0020
0030
2002
3003
,  // measure 37
0110
0000
1000
0100
0001
0000
0001
0100
1000
0000
0010
0100
0001
0000
0100
0000
,  // measure 38
1000
0000
0100
0000
1000
0000
0100
0000
0000
0010
0000
0000
0001
0000
0100
0000
0001
0000
0100
0000
0000
0010
0000
0000
1000
0000
0000
0001
0000
0000
1000
0000
0000
0001
0000
0000
0100
0000
0000
1000
0000
0000
0001
0000
0000
1000
0000
0000
,  // measure 39
0100
0000
1000
0000
0001
0000
0100
0000
0010
0000
1000
0100
0010
0001
0100
0010
,  // measure 40
1000
0000
0000
0100
0000
0000
1000
0000
0000
0100
0000
0000
1000
0000
0100
0000
1000
0000
0100
0000
1000
0000
0100
0000
1000
0000
0000
0100
0000
0000
0010
0000
0000
0001
0000
0000
0100
0000
0000
0010
0000
0000
1000
0000
0000
0001
0000
0000
,  // measure 41
0100
0000
0000
0001
0000
0000
0100
0000
0000
0001
0000
0000
0100
0000
0001
0000
0100
0000
0001
0000
0100
0000
0001
0000
0100
0000
0000
0001
0000
0000
0010
0000
0000
0100
0000
0000
1000
0000
0000
0001
0000
0000
0100
0000
0000
0010
0000
0000
,  // measure 42
1000
0100
0010
0001
1000
0010
0100
0001
1000
0100
0010
0001
1000
0100
0010
0001
,  // measure 43
0100
0000
0010
0000
0100
0000
0010
0000
0000
0100
0000
0000
0010
0000
0100
0000
0010
0000
0100
0000
0000
0010
0000
0000
1000
0000
0001
0000
1000
0000
0001
0000
0000
1000
0000
0000
0001
0000
1000
0000
0001
0000
1000
0000
0000
0001
0000
0000
,  // measure 44
0010
0000
0000
0100
0000
0000
0010
0000
0000
0001
0000
0000
1000
0000
0000
0010
0000
0000
0100
0000
0000
0001
0000
0000
1000
0000
0100
0000
0010
0000
0000
0000
0001
0000
0100
0000
0010
0000
0000
0000
1000
0000
0100
0000
0010
0000
0000
0000
,  // measure 45
0001
0000
0000
0010
0000
0000
0100
0000
0000
1000
0000
0000
0100
0000
0000
0010
0000
0000
0001
0000
0000
0100
0000
0000
0010
0000
0100
0000
0001
0000
0000
0000
0100
0000
0010
0000
1000
0000
0000
0000
0100
0000
0010
0000
1000
0000
0001
0000
,  // measure 46
0100
0000
0000
0010
0000
0000
0001
0000
0000
1000
0000
0000
0010
0000
0000
0100
0000
0000
0001
0000
0000
1000
0000
0000
0100
0000
0001
0000
0010
0000
0000
0000
1000
0000
0100
0000
0010
0000
0000
0000
0001
0000
0100
0000
0010
0000
0000
0000
,  // measure 47
1000
0100
1000
0100
0010
0001
0010
0001
1000
0100
0010
0001
1000
0100
0010
0001
,  // measure 48
1000
0000
0010
0000
1000
0000
0010
0000
1000
0000
0010
0000
1000
0000
0000
0010
0000
0000
0100
0000
0000
0001
0000
0000
0010
0000
0001
0000
0010
0000
0001
0000
0010
0000
0001
0000
0010
0000
0000
0100
0000
0000
0001
0000
0000
1000
0000
0000
,  // measure 49
0001
1000
0001
0000
1000
0000
0100
0000
0010
0001
0010
0000
0001
0000
0010
0000
0100
1000
0100
0000
1000
0000
0100
0000
0010
0001
0010
0000
0001
0000
1000
0000
,  // measure 50
1001
0000
0000
0000
;
