#VERSION:0.83;
#TITLE:SPEED OVER BEETHOVEN;
#SUBTITLE:;
#ARTIST:ROSE;
#TITLETRANSLIT:;
#SUBTITLETRANSLIT:;
#ARTISTTRANSLIT:;
#GENRE:;
#ORIGIN:;
#CREDIT:;
#BANNER:SPEED OVER BEETHOVEN.png;
#BACKGROUND:SPEED OVER BEETHOVEN-bg.png;
#PREVIEWVID:;
#JACKET:SPEED OVER BEETHOVEN-jacket.png;
#CDIMAGE:;
#DISCIMAGE:;
#LYRICSPATH:;
#CDTITLE:;
#MUSIC:SPEED OVER BEETHOVEN.ogg;
#OFFSET:0.000000;
#SAMPLESTART:27.874001;
#SAMPLELENGTH:15.000000;
#SELECTABLE:YES;
#DISPLAYBPM:169.000000;
#BPMS:0.000=169.005;
#STOPS:;
#DELAYS:;
#WARPS:;
#TIMESIGNATURES:0.000=4=4;
#TICKCOUNTS:0.000=4;
#COMBOS:0.000=1;
#SPEEDS:0.000=1.000=0.000=0;
#SCROLLS:0.000=1.000;
#FAKES:;
#LABELS:0.000=Song Start;
#BGCHANGES:;
#KEYSOUNDS:;
#ATTACKS:
;

//---------------dance-single - ----------------
#NOTEDATA:;
#CHARTNAME:;
#STEPSTYPE:dance-single;
#DESCRIPTION:;
#CHARTSTYLE:;
#DIFFICULTY:Beginner;
#METER:6;
#RADARVALUES:0.247136,0.345715,0.253432,0.022038,0.000000,157.000000,134.000000,23.000000,2.000000,0.000000,0.000000,0.000000,0.000000,0.000000,0.247136,0.345715,0.253432,0.022038,0.000000,157.000000,134.000000,23.000000,2.000000,0.000000,0.000000,0.000000,0.000000,0.000000;
#CREDIT:;
#DISPLAYBPM:169.000000;
#NOTES:
0000
0000
0000
0000
,
0000
0000
0000
0000
,
0000
0000
0000
0000
,
0000
0000
0000
0000
,
0000
0000
0000
0000
,
0010
0000
1000
0000
,
0110
0000
0000
0000
,
1001
0000
0000
0000
,
0110
0000
0000
0000
,
0001
0000
1000
0000
,
0001
0000
1000
0000
,
0001
0001
0001
0000
,
0010
0010
0010
0000
,
1000
1000
1000
0000
,
0100
0100
0100
0000
,
0001
0001
0001
0000
,
0010
0010
0010
0000
,
0001
0001
0001
0000
,
0100
0100
0100
0000
,
1000
1000
1000
0000
,
1001
0000
1001
0000
,
0110
0000
0110
0000
,
1001
0000
1001
0000
,
0110
0000
0110
0000
,
0010
0010
0010
0000
,
0100
0100
0100
0000
,
0001
0000
1000
0000
,
0010
0000
0100
0000
,
0110
0000
0110
0000
,
0001
0000
0001
0000
,
0110
0000
0110
0000
,
1000
0000
1000
0000
,
0010
0010
0010
0000
,
0100
0100
0100
0000
,
0001
0000
1000
0000
,
1001
1001
1001
0000
,
0001
0000
0100
0000
,
1000
0000
0100
0000
,
0001
0000
0100
0000
,
1000
0000
0100
0000
,
0010
0010
0010
0000
,
0100
0100
0100
0000
,
1000
0000
0001
0000
,
0010
0000
0100
0000
,
0001
0000
0100
0000
,
1000
0000
0100
0000
,
0001
0000
0100
0000
,
1000
0000
0100
0000
,
0010
0000
0100
0000
,
0001
0000
1000
0000
,
0010
0000
0100
0000
,
1001
1001
1001
0000
,
0001
0001
0001
0000
,
0010
0010
0010
0000
,
1000
1000
1000
0000
,
0100
0100
0100
0000
,
0001
0001
0001
0000
,
0010
0010
0010
0000
,
0001
0001
0001
0000
,
0110
0000
0100
0000
,
1000
0000
1000
0000
,
2002
0000
0000
0000
,
0000
0000
0000
3003
;

//---------------dance-single - ----------------
#NOTEDATA:;
#CHARTNAME:;
#STEPSTYPE:dance-single;
#DESCRIPTION:;
#CHARTSTYLE:;
#DIFFICULTY:Easy;
#METER:8;
#RADARVALUES:0.294359,0.414858,0.374639,0.022038,0.000000,187.000000,153.000000,34.000000,2.000000,0.000000,0.000000,0.000000,0.000000,0.000000,0.294359,0.414858,0.374639,0.022038,0.000000,187.000000,153.000000,34.000000,2.000000,0.000000,0.000000,0.000000,0.000000,0.000000;
#CREDIT:;
#DISPLAYBPM:169.000000;
#NOTES:
0000
0000
0000
0000
,
0000
0000
0000
0000
,
0000
0000
0000
0000
,
0000
0000
0000
0000
,
0000
0000
0000
0000
,
0010
0000
1000
0000
,
0110
0000
0000
0000
,
1001
0000
0000
0000
,
0110
0000
0000
0000
,
0001
0000
1000
0000
,
0001
0000
1000
0000
,
0001
0001
0001
0001
,
0110
0010
0010
0010
,
1001
1000
1000
1000
,
0110
0100
0100
0100
,
0001
0001
0001
0001
,
0110
0010
0010
0010
,
1001
0001
0001
0001
,
0110
0100
0100
0100
,
1000
1000
1000
0000
,
1001
0000
1001
0000
,
0110
0000
0110
0000
,
1001
0000
1001
0000
,
0110
0000
0110
0000
,
0010
0010
0010
0000
,
0100
0100
0100
0000
,
0001
0000
1000
0000
,
0010
0000
0100
0000
,
0110
0000
0110
0000
,
0001
0000
0001
0000
,
0110
0000
0110
0000
,
1000
0000
1000
0000
,
0010
0010
0010
0000
,
0100
0100
0100
0000
,
0001
0000
1000
0000
,
1001
1001
1001
0000
,
0001
0000
0100
0000
,
1000
0000
0100
0000
,
0001
0000
0100
0000
,
1000
0000
0100
0000
,
0010
0010
0010
0000
,
0100
0100
0100
0000
,
1000
0000
0001
0000
,
0010
0000
0100
0000
,
0001
0100
0100
0000
,
1000
0100
0100
0000
,
0001
0100
0100
0000
,
1000
0100
0100
0000
,
0010
0000
0100
0000
,
0001
0000
1000
0000
,
0010
0000
0100
0000
,
1001
1001
1001
0000
,
0001
0001
0001
0001
,
0110
0010
0010
0010
,
1001
1000
1000
1000
,
0110
0100
0100
0100
,
0001
0001
0001
0001
,
0110
0010
0010
0010
,
1001
0001
0001
0001
,
0110
0000
0100
0000
,
1000
0000
1000
0000
,
2002
0000
0000
0000
,
0000
0000
0000
3003
;

//---------------dance-single - ----------------
#NOTEDATA:;
#CHARTNAME:;
#STEPSTYPE:dance-single;
#DESCRIPTION:;
#CHARTSTYLE:;
#DIFFICULTY:Medium;
#METER:11;
#RADARVALUES:0.429733,0.518572,0.429733,0.231395,0.000000,273.000000,234.000000,39.000000,21.000000,0.000000,0.000000,0.000000,0.000000,0.000000,0.429733,0.518572,0.429733,0.231395,0.000000,273.000000,234.000000,39.000000,21.000000,0.000000,0.000000,0.000000,0.000000,0.000000;
#CREDIT:;
#DISPLAYBPM:169.000000;
#NOTES:
0000
0000
0000
0000
,
0000
0000
0000
0000
,
0000
0000
0000
0000
,
0000
0000
0000
0000
,
0000
0000
0000
0000
,
0010
1000
0100
0001
,
0220
0000
0000
0330
,
2020
0000
0000
3030
,
2200
0000
0000
3300
,
0001
0010
1000
0100
,
0001
0010
1000
0100
,
1000
0001
1000
0001
1000
0001
1000
0000
,
0110
0000
0010
0000
0010
1000
0100
0000
,
1001
0000
1000
0000
1000
0100
0001
0000
,
0110
0000
0100
0000
0100
0001
0010
0000
,
0001
1000
0001
1000
0001
1000
0001
0000
,
0110
0000
0010
0000
0010
0001
0100
0000
,
1001
0000
0001
0000
0001
0100
1000
0000
,
0110
0000
0100
0000
0100
1000
0010
0000
,
0100
0010
0100
0010
0100
0000
0000
0000
,
1001
0000
1100
0000
0001
0001
0000
0000
,
1001
0101
1000
0000
,
1001
0000
1100
0000
0001
0001
0000
0000
,
1001
0101
1000
0000
,
0010
1000
0100
0001
,
0010
1000
0100
0100
,
0001
0001
1000
0100
,
0001
0100
0220
0330
,
0110
0000
0101
0000
1000
1000
0000
0000
,
0110
1100
0001
0000
,
0110
0000
0101
0000
1000
1000
0000
0000
,
0110
1100
0001
0000
,
0010
1000
0100
0001
,
0010
1000
0100
0001
,
0010
0000
0100
0000
0001
1000
0100
0000
,
0002
2003
3200
0300
,
1001
0000
0010
0000
0010
1000
0100
0000
,
1100
0000
0001
0000
0100
0001
0010
0000
,
0110
0000
1000
0000
0001
0010
0100
0000
,
1100
0000
0010
0000
0001
1000
0100
0000
,
0010
0001
0100
1000
,
0010
0001
0100
0100
,
1000
1000
0001
0100
,
1000
0100
0220
0330
,
0001
0100
2000
3000
,
0100
0001
0020
0030
,
0100
1000
0002
0003
,
0001
0010
0200
0300
,
0010
0001
0100
1000
,
0010
0001
0100
1000
,
0010
0000
0010
0000
0001
1000
0100
0000
,
0010
0010
2002
3003
,
0010
0100
0010
0100
0010
0100
0010
0000
,
1000
0000
0100
0000
0010
0001
0100
0000
,
0001
0000
0100
0000
0010
1000
0100
0000
,
1000
0000
0100
0000
0010
0001
0100
0000
,
1000
0100
1000
0100
1000
0100
1000
0000
,
0101
0000
0010
0000
1000
0010
0100
0000
,
1100
0000
0010
0000
0001
0010
0100
0000
,
1001
0010
1100
0010
,
1001
0010
0101
0010
,
0220
0000
0000
0000
,
0000
0000
0000
0330
;

//---------------dance-single - ----------------
#NOTEDATA:;
#CHARTNAME:;
#STEPSTYPE:dance-single;
#DESCRIPTION:;
#CHARTSTYLE:;
#DIFFICULTY:Hard;
#METER:13;
#RADARVALUES:0.598163,0.587715,0.088150,0.011019,0.286489,380.000000,372.000000,8.000000,1.000000,0.000000,0.000000,0.000000,0.000000,0.000000,0.598163,0.587715,0.088150,0.011019,0.286489,380.000000,372.000000,8.000000,1.000000,0.000000,0.000000,0.000000,0.000000,0.000000;
#CREDIT:;
#DISPLAYBPM:169.000000;
#NOTES:
0000
0000
0000
0000
,
0000
0000
0000
0000
,
0000
0000
0000
0000
,
0000
0000
0000
0000
,
0000
0000
0000
0000
,
0010
0000
0000
0000
1000
0000
0000
0000
0001
0000
0000
1000
0100
0000
0001
0000
,
0100
0000
0010
0000
0010
1000
0100
0010
,
0001
0000
1000
0000
0001
0010
0100
1000
,
0001
1000
0001
1000
,
0001
1000
0010
0001
0010
1000
0100
0001
,
0100
1000
0000
0000
1000
0001
0000
0000
0001
0100
0000
0000
0100
0010
0000
0000
,
1000
0100
0010
0001
0100
1000
0100
0001
,
0010
0000
0100
1000
0000
1000
0010
0100
,
0001
0000
0010
0100
0000
0100
0010
0001
,
0100
0000
1000
0000
0001
0010
0100
0000
,
1000
0010
0100
0001
0010
0100
1000
0010
,
0100
0000
0001
1000
0000
1000
0100
0010
,
0001
0000
0100
0010
0000
1000
0001
0010
,
0100
0001
1000
0100
,
0010
0001
1000
0100
0000
1000
0001
0010
,
0100
0000
0000
0000
1000
0100
0000
0000
1001
0000
1001
0000
0000
0000
0000
0000
,
0010
0000
0000
0000
0100
0001
0000
0000
0110
0000
0110
0000
0000
0000
0000
0000
,
0010
0000
0000
0000
0001
0100
0000
0000
1001
0000
1001
0000
0000
0000
0000
0000
,
1000
0000
0000
0000
0010
1000
0000
0000
0110
0000
0110
0000
0000
0000
0000
0000
,
0010
1000
0000
0000
1000
0001
0000
0000
0001
0010
0000
0000
0010
0100
0000
0000
,
0100
1000
0000
0000
1000
0001
0000
0000
0001
0100
0000
0000
0001
0000
0000
0000
,
1000
0001
0000
0000
0001
0000
0000
0000
0010
0000
0000
0000
0100
0000
1000
0000
,
0001
0000
0010
0001
0100
1000
0100
0001
,
0010
0000
0000
0000
0100
1000
0000
0000
1000
0000
0010
0000
0100
0000
0000
0000
,
0001
0000
0000
0000
0100
0010
0000
0000
1000
0000
0100
0000
0010
0000
0000
0000
,
0001
0000
0000
0000
1000
0100
0000
0000
1000
0000
0001
0000
0100
0000
0000
0000
,
0100
0000
0000
0000
0001
0010
0000
0000
0100
0000
1000
0000
0001
0000
0000
0000
,
0010
0100
0000
0000
0100
1000
0000
0000
1000
0010
0000
0000
0010
0001
0000
0000
,
0001
0010
0000
0000
0010
1000
0000
0000
1000
0100
0000
0000
1000
0000
0000
0000
,
0001
0010
0100
1000
0010
0100
0000
0001
,
0000
0100
0010
1000
0100
0010
0001
0100
,
0001
0000
0000
0000
1000
0100
0000
0000
0100
0000
0010
0000
0001
0000
0100
0000
,
0001
0000
0000
0000
1000
0001
0000
0000
0010
0000
0001
0000
1000
0000
0100
0000
,
1000
0000
0000
0000
0010
1000
0000
0000
0001
0000
0010
0000
0100
0000
1000
0000
,
0010
0000
0000
0000
0100
0001
0000
0000
0010
0000
0100
0000
1000
0000
0010
0000
,
0100
0001
0000
0000
0001
0010
0000
0000
0010
0100
0000
0000
0100
1000
0000
0000
,
1000
0001
0000
0000
0001
1000
0000
0000
1000
0010
0000
0000
0100
0000
0000
0000
,
1000
0100
0000
0000
0001
0000
0000
0000
0100
0000
0000
0000
0010
0000
1000
0000
,
0100
0000
1000
0010
0100
0001
0010
0100
,
1000
0000
0000
0000
0001
0100
0000
0000
0001
0000
0010
0000
0100
0000
1000
0000
,
0001
0000
0000
0000
0010
0001
0000
0000
1000
0000
0100
0000
0010
0000
0100
0000
,
1000
0000
0000
0000
1000
0001
0000
0000
0010
0000
0100
0000
1000
0000
0010
0000
,
0100
0000
0000
0000
0010
0100
0000
0000
0001
0000
0010
0000
0100
0000
0010
0000
,
0001
1000
0000
0000
1000
0010
0000
0000
0010
0001
0000
0000
0001
0010
0000
0000
,
0010
1000
0000
0000
1000
0100
0000
0000
0100
0001
0000
0000
0100
0000
1000
0000
,
0010
0100
0001
0010
0100
1000
0000
0010
,
0000
0000
0100
0000
0001
0000
0010
0000
0100
0000
0000
1000
0001
0000
1000
0000
,
0100
1000
0100
1000
0100
1000
0010
0100
,
0001
0010
0100
1000
0000
1000
0010
1000
,
0001
0010
0100
1000
0000
1000
0001
0010
,
0100
0000
1000
0000
0001
0010
0100
1000
,
0010
0100
0010
0100
0010
0100
0001
0010
,
0100
1000
0001
1000
0000
1000
0010
0100
,
0001
0010
0100
1000
0000
1000
0010
0100
,
0001
0010
0000
0001
1000
0001
0000
1000
,
0010
0100
0000
0001
1000
0010
0000
1000
,
0002
0000
0000
0000
,
0000
0000
0000
0003
;

//---------------dance-double - ----------------
#NOTEDATA:;
#CHARTNAME:;
#STEPSTYPE:dance-double;
#DESCRIPTION:;
#CHARTSTYLE:;
#DIFFICULTY:Easy;
#METER:3;
#RADARVALUES:0.310100,0.336073,0.407696,0.000000,0.000000,197.000000,160.000000,37.000000,0.000000,0.000000,0.000000,0.000000,0.000000,0.000000,0.310100,0.336073,0.407696,0.000000,0.000000,197.000000,160.000000,37.000000,0.000000,0.000000,0.000000,0.000000,0.000000,0.000000;
#CREDIT:;
#DISPLAYBPM:169.000000;
#NOTES:
00000000
00000000
00000000
00000000
,
00000000
00000000
00000000
00000000
,
00000000
00000000
00000000
00000000
,
00000000
00000000
00000000
00000000
,
00000000
00000000
00000000
00000000
,
00100000
00000000
00001000
00000000
,
00011000
00000000
00000100
00000100
,
00001001
00000000
00010000
00001000
,
00011000
00000000
00000000
00000000
,
00100000
00100000
10000000
10000000
,
01000000
01000000
00010000
00010000
,
00001000
00001000
00000100
00000100
,
00001001
00000000
00000100
00001000
,
00011000
00000000
01000000
00100000
,
01100000
00000000
10000000
01000000
,
00010000
00010000
00010000
00001000
,
00000110
00000000
00000001
00000010
,
00001001
00000000
00000100
00001000
,
00011000
00000000
00010000
01000000
,
10000000
10000000
10000000
00000000
,
01100000
00010000
00011000
00000000
,
00010000
00000000
00001000
00000000
,
00000110
00001000
00011000
00000000
,
00001000
00000000
00010000
00000000
,
00100000
10000000
01000000
00010000
,
00001000
00000000
00000100
00000000
,
00000001
00000000
00000100
00000000
,
00001000
00000000
00010000
00000000
,
01100000
10000000
01100000
00000000
,
00001000
00000000
00010000
00000000
,
00000110
00000001
00000110
00000000
,
00010000
00000000
00001000
00000000
,
00010000
00100000
10000000
01000000
,
00010000
00000000
00001000
00000000
,
00000010
00000000
00000001
00000000
,
00000100
00001000
00011000
00000000
,
00100000
01000000
01100000
00000000
,
10000000
00010000
10010000
00000000
,
00001000
00010000
00011000
00000000
,
00000010
00000100
00000110
00000000
,
00001000
00010000
00100000
10000000
,
01000000
00000000
00010000
00000000
,
00001000
00000000
00000100
00000000
,
00000001
00000000
00001000
00000000
,
00000010
00000100
00000110
00000000
,
00001000
00010000
00011000
00000000
,
00100000
01000000
01100000
00000000
,
00010000
00001000
00011000
00000000
,
00001000
00000010
00000001
00000100
,
00001000
00000000
00010000
00000000
,
00100000
00000000
10000000
00000000
,
01000000
00010000
00011000
00000000
,
00000010
00000010
00000001
00000001
,
00001001
00000000
00000100
00001000
,
00011000
00000000
00100000
01000000
,
01100000
00000000
00100000
10000000
,
01000000
01000000
00010000
00010000
,
00011000
00000000
00001000
00000010
,
00001001
00000000
00000100
00001000
,
00011000
00000000
00011000
00000000
,
00011000
00000000
00011000
00000000
,
00011000
00000000
00000000
00000000
,
00000000
00000000
00000000
00000000
;

//---------------dance-double - ----------------
#NOTEDATA:;
#CHARTNAME:;
#STEPSTYPE:dance-double;
#DESCRIPTION:;
#CHARTSTYLE:;
#DIFFICULTY:Medium;
#METER:5;
#RADARVALUES:0.387232,0.449429,0.506865,0.550940,0.000000,246.000000,200.000000,46.000000,50.000000,0.000000,0.000000,0.000000,0.000000,0.000000,0.387232,0.449429,0.506865,0.550940,0.000000,246.000000,200.000000,46.000000,50.000000,0.000000,0.000000,0.000000,0.000000,0.000000;
#CREDIT:;
#DISPLAYBPM:169.000000;
#NOTES:
00000000
00000000
00000000
00000000
,
00000000
00000000
00000000
00000000
,
00000000
00000000
00000000
00000000
,
00000000
00000000
00000000
00000000
,
00000000
00000000
00000000
00000000
,
00100000
00100000
00001000
00010000
,
00020200
00030300
00001000
00000100
,
00002002
00003003
00000100
00010000
,
00022000
00000000
00000000
00033000
,
00100000
00100000
10000000
10000000
,
01000000
01000000
00010000
00010000
,
00001000
00000100
00000001
00000010
00000100
00001000
00000100
00000000
,
00002002
00003003
00000100
00001000
,
00022000
00033000
01000000
00100000
,
02200000
03300000
10000000
01000000
,
00010000
00001000
00010000
00001000
00010000
00000000
00001000
00000000
,
00000220
00000330
00000001
00000010
,
00002002
00003003
00000100
00001000
,
00022000
00033000
00010000
01000000
,
10000000
00100000
02020000
03030000
,
01100000
00000000
00010000
00000000
00011000
00011000
00000000
00000000
,
00010000
00020200
00030300
00000010
,
00000110
00000000
00001000
00000000
00011000
00011000
00000000
00000000
,
00001000
02002000
03003000
00100000
,
00100000
10000000
01000000
00010000
,
00001000
00000100
00000001
00000001
,
00000001
00000000
00000100
00000000
,
00001000
00010000
01001000
00100000
,
01100000
00000000
10000000
00000000
01100000
01100000
00000000
00000000
,
00001000
00020000
00030000
00000010
,
00000110
00000000
00000001
00000000
00000110
00000110
00000000
00000000
,
00010000
00002000
00003000
00100000
,
00010000
00100000
10000000
01000000
,
00010000
00001000
00000100
00000100
,
00000100
00000000
00000001
00000000
,
00000100
00001000
00022000
00033000
,
00100000
01000000
01100000
10000000
,
01000000
00010000
00011000
00000100
,
00000010
00000100
00000101
00000010
,
00000100
00010000
00010100
00010000
,
00100000
10000000
01000000
00010000
,
00001000
00000100
00000001
00000001
,
00000001
00000000
00000100
00000000
,
00001000
00010000
01001000
00010000
,
00000010
00000000
00000100
00000000
00000110
00000110
00000000
00000000
,
00001000
00010000
01000000
10000000
,
00100000
00000000
01000000
00000000
01100000
01100000
00000000
00000000
,
00001000
00010000
00000010
00000100
,
00001000
00000010
00000001
00000100
,
00001000
00010000
01000000
01000000
,
01000000
00000000
10000000
00000000
,
01000000
00010000
00022000
00033000
,
00000010
00001000
00000010
00001000
00000001
00000100
00000001
00000000
,
00002002
00003003
00000100
00001000
,
02002000
03003000
00010000
00100000
,
02200000
03300000
10000000
01000000
,
00010000
00001000
00010000
00001000
00010000
00000000
00001000
00000000
,
00020200
00030300
00001000
00000010
,
00002002
00003003
00000100
00001000
,
00022000
00033000
02002000
03003000
,
02200000
03300000
00220000
00330000
,
00202000
00000000
00000000
00000000
,
00000000
00000000
00000000
00303000
,
00000000
00000000
00000000
00000000
;

//---------------dance-double - ----------------
#NOTEDATA:;
#CHARTNAME:;
#STEPSTYPE:dance-double;
#DESCRIPTION:;
#CHARTSTYLE:;
#DIFFICULTY:Hard;
#METER:9;
#RADARVALUES:0.604460,0.587715,0.132226,0.011019,0.286489,384.000000,372.000000,12.000000,1.000000,0.000000,0.000000,0.000000,0.000000,0.000000,0.604460,0.587715,0.132226,0.011019,0.286489,384.000000,372.000000,12.000000,1.000000,0.000000,0.000000,0.000000,0.000000,0.000000;
#CREDIT:;
#DISPLAYBPM:169.000000;
#NOTES:
00000000
00000000
00000000
00000000
,
00000000
00000000
00000000
00000000
,
00000000
00000000
00000000
00000000
,
00000000
00000000
00000000
00000000
,
00000000
00000000
00000000
00000000
,
00011000
00000000
00000000
00000000
01001000
00000000
00000000
00000000
01100000
00000000
00000000
10000000
01000000
00000000
00010000
00000000
,
00001000
00000000
00010000
00000000
00001000
00000010
00000001
00000100
,
00001000
00000000
00010000
00000000
00001000
00000100
00001000
00010000
,
01000000
10000000
00100000
00010000
,
00001000
00000100
00000001
00000010
00001000
00000010
00000001
00000100
,
00000100
00001000
00000000
00000000
00001000
00010000
00000000
00000000
00010000
01000000
00000000
00000000
01000000
10000000
00000000
00000000
,
10000000
00100000
00010000
00100000
10000000
01000000
00010000
00001000
,
00000100
00000000
00000001
00000010
00000000
00000010
00000001
00000100
,
00001000
00000000
00010000
00001000
00000000
00000100
00001000
00010000
,
01000000
00000000
10000000
00000000
00100000
00010000
00100000
00000000
,
10000000
00100000
00010000
00001000
00010000
01000000
00010000
00001000
,
00000100
00000000
00000010
00001000
00000000
00001000
00000010
00000001
,
00000010
00000000
00000100
00000001
00000000
00000001
00000100
00001000
,
00000010
00010000
00001000
01000000
,
00100000
10000000
01000000
00010000
00000000
00001000
00010000
01000000
,
00100000
00000000
00000000
00000000
00001000
00010000
00000000
00000000
00001100
00000000
00001100
00000000
00000000
00000000
00000000
00000000
,
00001000
00000000
00000000
00000000
00100000
00010000
00000000
00000000
01010000
00000000
01010000
00000000
00000000
00000000
00000000
00000000
,
00001000
00000000
00000000
00000000
00000100
00000010
00000000
00000000
00000101
00000000
00000101
00000000
00000000
00000000
00000000
00000000
,
00001000
00000000
00000000
00000000
00010000
00001000
00000000
00000000
00010100
00000000
00010100
00000000
00000000
00000000
00000000
00000000
,
00001000
00010000
00000000
00000000
00010000
00100000
00000000
00000000
00100000
10000000
00000000
00000000
10000000
01000000
00000000
00000000
,
01000000
00010000
00000000
00000000
00010000
00001000
00000000
00000000
00001000
00010000
00000000
00000000
00010100
00000000
00000000
00000000
,
00001000
00000100
00000000
00000000
00000010
00000000
00000000
00000000
00000001
00000000
00000000
00000000
00000100
00000000
00001000
00000000
,
00010000
00000000
00001000
00100000
01000000
10000000
00100000
00010000
,
00100000
00000000
00000000
00000000
01000000
10000000
00000000
00000000
10000000
00000000
00100000
00000000
00010000
00000000
00000000
00000000
,
00001000
00000000
00000000
00000000
00001000
00000100
00000000
00000000
00000001
00000000
00000010
00000000
00000100
00000000
00000000
00000000
,
00000100
00000000
00000000
00000000
00000010
00000001
00000000
00000000
00000100
00000000
00001000
00000000
00010000
00000000
00000000
00000000
,
01000000
00000000
00000000
00000000
10000000
00100000
00000000
00000000
00010000
00000000
00100000
00000000
10000000
00000000
00000000
00000000
,
10000000
01000000
00000000
00000000
01000000
00010000
00000000
00000000
00010000
00001000
00000000
00000000
00001000
00000100
00000000
00000000
,
00000100
00000001
00000000
00000000
00000001
00000010
00000000
00000000
00000010
00000100
00000000
00000000
00001000
00000000
00000000
00000000
,
00000001
00000100
00001000
00010000
01000000
01000000
00000000
10000000
,
00000000
00100000
00010000
00001000
00010000
01000000
10000000
00100000
,
00010000
00000000
00000000
00000000
00001000
00010000
00000000
00000000
00010000
00000000
00001000
00000000
00000100
00000000
00000001
00000000
,
00000010
00000000
00000000
00000000
00000100
00000010
00000000
00000000
00000010
00000000
00000001
00000000
00000100
00000000
00001000
00000000
,
00010000
00000000
00000000
00000000
00010000
01000000
00000000
00000000
00100000
00000000
10000000
00000000
01000000
00000000
10000000
00000000
,
00100000
00000000
00000000
00000000
01000000
00010000
00000000
00000000
10000000
00000000
01000000
00000000
00010000
00000000
00001000
00000000
,
00010000
00001000
00000000
00000000
00001000
00000100
00000000
00000000
00000100
00000001
00000000
00000000
00000001
00000010
00000000
00000000
,
00000010
00000100
00000000
00000000
00000100
00010000
00000000
00000000
00010000
00001000
00000000
00000000
01000000
00000000
00000000
00000000
,
10000000
01000000
00000000
00000000
00010000
00000000
00000000
00000000
01000000
00000000
00000000
00000000
10000000
00000000
00100000
00000000
,
00010000
00000000
00100000
00010000
00001000
00000010
00001000
00010000
,
00001000
00000000
00000000
00000000
00001000
00000100
00000000
00000000
00000001
00000000
00000010
00000000
00000100
00000000
00001000
00000000
,
00000010
00000000
00000000
00000000
00000001
00000010
00000000
00000000
00001000
00000000
00000001
00000000
00000010
00000000
00001000
00000000
,
00010000
00000000
00000000
00000000
00001000
00010000
00000000
00000000
01000000
00000000
10000000
00000000
00100000
00000000
00010000
00000000
,
00100000
00000000
00000000
00000000
00001000
00010000
00000000
00000000
01000000
00000000
10000000
00000000
00100000
00000000
00010000
00000000
,
00001000
00000100
00000000
00000000
00000100
00000010
00000000
00000000
00000010
00010000
00000000
00000000
00010000
00001000
00000000
00000000
,
00001000
00100000
00000000
00000000
00100000
01000000
00000000
00000000
01000000
10000000
00000000
00000000
10000000
00000000
00100000
00000000
,
00010000
00100000
10000000
01000000
00010000
00001000
00000000
00000100
,
00000000
00000000
00000001
00000000
00000010
00000000
00001000
00000000
00000010
00000000
00000000
00000010
00000001
00000000
00000100
00000000
,
00001000
00010000
00001000
00010000
00001000
00000100
00001000
00010000
,
01000000
10000000
00100000
00010000
00000000
00100000
10000000
01000000
,
00010000
00001000
00000100
00000001
00000000
00000010
00001000
00010000
,
00001000
00000000
00100000
00000000
00010000
00100000
01000000
00010000
,
00001000
00010000
00001000
00010000
00001000
00000100
00000001
00000010
,
00001000
00010000
00001000
00000100
00000000
00000001
00000010
00001000
,
00010000
00100000
10000000
01000000
00000000
10000000
00100000
00010000
,
00001000
00100000
00000000
00001000
00000100
00000001
00000000
00000010
,
00001000
00010000
00000000
00010000
00001000
00000100
00000000
00000001
,
00000020
00000000
00000000
00000000
,
00000000
00000000
00000000
00000030
,
00000000
00000000
00000000
00000000
;

//---------------dance-single - ----------------
#NOTEDATA:;
#CHARTNAME:;
#STEPSTYPE:dance-single;
#DESCRIPTION:;
#CHARTSTYLE:;
#DIFFICULTY:Challenge;
#METER:16;
#RADARVALUES:0.865763,1.110695,0.275470,0.253432,0.705203,550.000000,525.000000,25.000000,23.000000,0.000000,0.000000,0.000000,0.000000,0.000000,0.865763,1.110695,0.275470,0.253432,0.705203,550.000000,525.000000,25.000000,23.000000,0.000000,0.000000,0.000000,0.000000,0.000000;
#CREDIT:;
#DISPLAYBPM:169.000000;
#NOTES:
// measure 0
0000
0000
0000
0000
,  // measure 1
0000
0000
0000
0000
,  // measure 2
0000
0000
0000
0000
,  // measure 3
0000
0000
0000
0000
,  // measure 4
0000
0000
0000
0000
,  // measure 5
0010
0000
0100
0000
0010
0000
0100
0000
1000
0000
0000
1000
0001
0000
0100
0000
,  // measure 6
0010
1000
0010
0001
0100
0010
1000
0001
,  // measure 7
0010
0001
0100
0010
1000
0100
0010
0001
,  // measure 8
0010
0001
0100
0010
1000
0100
0010
0001
,  // measure 9
0010
0010
1000
1000
0001
0001
0100
0100
,  // measure 10
0001
0100
0001
0100
0010
1000
0010
1000
0100
0010
0100
0010
1000
0001
1000
0001
,  // measure 11
0100
0000
0100
0000
0010
0000
0010
0000
1000
0000
1000
0000
0001
0000
1000
0001
,  // measure 12
1000
0000
0010
0000
0100
0000
0001
0000
0010
0000
0001
0010
0100
1000
0100
0000
,  // measure 13
0010
0000
0001
0000
0010
0000
0100
0000
1000
0000
0100
0010
1000
0100
0010
0000
,  // measure 14
0001
0100
0010
1000
0100
0010
0001
1000
,  // measure 15
0010
0000
0010
0000
0100
0000
0100
0000
1000
0000
1000
0000
0001
1000
0001
1000
,  // measure 16
0001
0000
0100
0000
0010
0000
1000
0000
0100
0000
0010
0001
0100
0010
1000
0000
,  // measure 17
0010
0000
0100
0000
0001
0000
0010
0000
1000
0000
0100
0010
0001
0010
0100
0000
,  // measure 18
1000
0010
0100
0001
0010
0001
0100
0010
,  // measure 19
1000
0100
0010
0001
1000
0010
0100
0001
0010
0100
1000
0001
0100
0010
1000
0100
,  // measure 20
0010
0000
0011
0000
0001
0101
0100
0010
,  // measure 21
1000
0000
1100
0000
1000
1001
0001
0100
,  // measure 22
0010
0000
1010
0000
1000
1001
0001
0010
,  // measure 23
0100
0000
1100
0000
1000
1010
0010
0100
,  // measure 24
0001
0100
0000
0000
0100
1000
0000
0000
1000
0010
0000
0000
0010
0001
0000
0000
,  // measure 25
0020
0000
1000
0000
0130
0010
1000
0100
,  // measure 26
0020
0032
0203
2300
,  // measure 27
3002
0000
0000
0000
0203
0010
0310
0010
,  // measure 28
1000
0000
1010
0000
0010
0011
0010
0001
,  // measure 29
0100
0000
0101
0000
0001
1001
0001
1000
,  // measure 30
0010
0000
0110
0000
0100
0110
0010
1000
,  // measure 31
0100
0000
1100
0000
0001
1001
0001
0010
,  // measure 32
1000
0100
0000
0000
0100
0001
0000
0000
0001
0010
0000
0000
0010
1000
0000
0000
,  // measure 33
0200
0000
1000
0000
0310
0001
0100
0010
,  // measure 34
1000
0100
0010
0001
0100
0101
0000
0200
,  // measure 35
0000
0000
0010
0000
0010
0000
0010
0000
0310
0000
0000
0010
0001
0000
0100
0000
,  // measure 36
0010
0000
1000
0100
0010
0000
0001
0010
0100
0000
1100
0000
1000
0100
0010
0001
,  // measure 37
0100
0000
0001
0010
0100
0000
1000
0010
0100
0000
0011
0000
0001
0100
0010
1000
,  // measure 38
0100
0000
0010
1000
0100
0000
0010
0001
0100
0000
0101
0000
1000
0100
0010
0001
,  // measure 39
0100
0000
0010
1000
0001
0000
0010
0100
0001
0000
0011
0000
0010
0100
1000
0010
,  // measure 40
0100
0001
0100
0000
0010
1000
0010
0000
0001
0010
0001
0000
1000
0100
1000
0000
,  // measure 41
0002
0000
0000
0000
0010
0000
0000
0000
1003
0000
0010
0000
0001
0010
0100
1000
,  // measure 42
0020
0230
2300
3002
,  // measure 43
0203
0000
0000
0000
0000
0000
0000
0000
0310
0000
0100
0010
1000
0000
0100
0000
,  // measure 44
0010
0000
0001
0010
1000
0000
1000
0100
0001
0000
0010
0001
0100
0010
1000
0000
,  // measure 45
0010
0000
1000
0100
0010
0000
0001
0010
0100
0000
1000
0100
0010
0001
0100
0000
,  // measure 46
0010
0000
0001
0010
1000
0000
0010
0001
0100
0000
1000
0100
0001
0010
0100
0000
,  // measure 47
0010
0000
1000
0010
0100
0000
0001
1000
0100
0000
0010
0001
0100
1000
0010
1000
,  // measure 48
0001
0100
0001
0000
1000
0010
1000
0000
0010
0001
0010
0000
0100
1000
0100
0000
,  // measure 49
2000
0000
0000
0000
0100
0000
0000
0000
3001
0000
1000
0100
0010
0001
0100
0010
,  // measure 50
0100
0100
0010
0010
1000
1000
0001
0020
,  // measure 51
0000
0000
0100
0000
0100
0000
0100
0000
0130
0000
0010
0100
0010
0000
0000
0000
,  // measure 52
1000
1001
0001
1001
1000
1001
0001
1001
,  // measure 53
1000
0100
0010
0001
1000
0100
0010
0001
0100
0000
0001
0010
0100
1000
0001
0010
,  // measure 54
0100
1000
0010
0100
0001
1000
0010
0100
0001
1000
0010
0000
0001
0010
0100
1000
,  // measure 55
0001
0100
0010
1000
0001
0010
0100
1000
0001
0100
0010
1000
0100
0000
0010
0000
,  // measure 56
1000
0100
0010
0000
0001
0100
0010
0000
1000
0100
0010
0001
0100
0010
1000
0100
,  // measure 57
0010
0001
0100
0010
1000
0100
0010
0001
0100
0000
0001
0010
0100
1000
0001
0100
,  // measure 58
0010
1000
0100
0010
0001
0000
0100
0000
0010
0000
1000
0010
0100
0001
0010
0000
,  // measure 59
2000
0001
3002
0100
0203
0010
0320
0100
,  // measure 60
0130
0001
0100
0000
1000
0100
1000
0000
0010
0001
0100
0010
1000
0100
0010
0002
,  // measure 61
0200
0000
0000
0000
,  // measure 62
0000
0000
0000
0000
,  // measure 63
0303
0000
0000
0000
;
