#TITLE:SP-TRIP MACHINE~JUNGLE MIX~(SMM-Special);
#SUBTITLE:;
#ARTIST:DE-SIRE;
#TITLETRANSLIT:;
#SUBTITLETRANSLIT:;
#ARTISTTRANSLIT:;
#GENRE:;
#CREDIT:;
#BANNER:SP-TRIP MACHINE~JUNGLE MIX~(SMM-Special).png;
#BACKGROUND:SP-TRIP MACHINE~JUNGLE MIX~(SMM-Special)-bg.png;
#LYRICSPATH:;
#CDTITLE:;
#MUSIC:SP-TRIP MACHINE~JUNGLE MIX~(SMM-Special).mp3;
#OFFSET:-6.023000;
#SAMPLESTART:11.627000;
#SAMPLELENGTH:15.000000;
#SELECTABLE:YES;
#BPMS:0.000000=160.210007
;
#STOPS:12.000000=1.124000,
16.500000=0.187000,
21.500000=0.375000,
28.500000=0.375000,
30.000000=0.187000,
35.000000=0.375000,
42.500000=0.375000,
44.000000=0.375000,
47.000000=0.375000,
47.500000=0.187000,
50.000000=0.187000,
50.500000=0.187000,
51.000000=0.187000,
56.000000=0.375000,
59.000000=0.375000,
59.500000=0.187000,
66.500000=0.375000,
68.000000=0.187000,
69.500000=0.375000,
72.000000=0.375000,
72.500000=0.375000,
78.000000=0.375000,
78.500000=0.375000,
81.500000=0.375000,
83.000000=0.375000,
83.500000=0.375000,
84.000000=1.124000,
87.500000=0.562000,
88.000000=0.187000,
89.000000=0.187000,
89.500000=0.187000,
92.500000=0.187000,
95.500000=0.094000,
95.750000=0.094000,
96.000000=0.094000,
96.250000=0.094000,
99.000000=0.562000,
99.500000=0.187000,
100.500000=0.187000,
101.000000=0.187000,
104.000000=0.187000,
108.000000=0.187000,
110.000000=0.375000,
111.500000=0.375000,
114.500000=0.375000,
115.000000=0.187000,
117.500000=0.187000,
118.000000=0.187000,
118.500000=0.187000,
123.500000=0.375000,
126.500000=0.375000,
127.500000=0.375000,
128.500000=0.187000,
129.000000=0.187000,
129.500000=0.187000,
130.000000=0.187000,
131.500000=0.375000,
134.000000=0.375000,
134.500000=0.187000,
135.000000=0.187000,
136.500000=0.375000,
139.000000=0.187000,
139.500000=0.187000,
140.000000=0.187000,
142.000000=0.375000,
144.500000=0.187000,
145.000000=0.187000,
145.500000=0.187000,
146.000000=0.187000,
150.500000=0.187000,
152.000000=0.562000
;
#BGCHANGES:;
#KEYSOUNDS:;
#ATTACKS:;

//---------------dance-single - ----------------
#NOTES:
     dance-single:
     :
     Challenge:
     13:
     0.446098,0.480156,0.410280,0.045587,0.011397,274.000000,238.000000,36.000000,4.000000,0.000000,0.000000,0.446098,0.480156,0.410280,0.045587,0.011397,274.000000,238.000000,36.000000,4.000000,0.000000,0.000000:
0000
0000
0000
0000
,
0010
0000
0100
0000
,
1000
0000
0001
0000
,
1001
0000
0001
0100
1000
1000
0100
0001
,
0010
1000
0100
1000
0100
0100
1000
0001
,
0010
1000
0100
0001
0100
1000
0100
0000
,
0011
0100
1000
0010
1000
0100
0000
0110
,
0000
1001
1000
0100
0001
0000
0100
0100
,
0010
0001
0100
0000
1000
0010
0001
0010
,
1000
0010
0100
0100
0010
0100
0010
0010
,
0100
0000
1001
0010
0100
1000
0010
0000
,
0101
0010
1000
1000
0100
0000
0001
1000
,
0001
0100
0000
0010
0101
1100
0101
0000
,
0010
0000
1000
0000
0001
0001
1000
1000
,
1001
0001
1000
0100
0001
0000
0010
0100
,
1000
0001
0000
2000
0000
0000
0000
0000
,
0000
3000
0000
0001
1000
0100
0000
0010
,
0100
1000
0010
0100
0001
0000
1000
0100
,
1100
0101
0000
0010
0001
0100
1000
0010
,
0001
0100
0000
1000
0010
0100
0000
0001
,
0010
0100
1000
0001
0010
0001
0011
1010
,
0200
0300
0010
1000
1000
0100
0010
0100
,
0001
0001
0110
0110
0010
0001
0001
0100
,
0010
0000
0100
0000
0001
0000
0000
0000
1000
0000
0000
0000
0100
0000
0001
0010
,
0100
1000
0010
0000
1000
0000
1000
0000
0100
0000
0010
0000
0100
0000
0001
0000
,
0001
0110
0110
0010
0001
0001
0100
0010
,
0100
1010
0000
0101
0000
1100
0001
0100
,
1000
0001
0001
1000
0100
0010
0000
1001
,
0100
0010
0010
0100
0000
1000
0001
0100
,
0010
0000
1000
0101
1100
0101
0000
0010
,
0000
1000
0000
0001
0001
1000
1000
1001
,
0100
0010
1000
0100
0000
1000
0000
0001
,
0000
1000
0001
1000
0001
0010
0100
1000
,
0000
0001
0100
0000
0010
1100
1100
0010
,
1000
0001
0000
1000
0010
0000
0011
1100
,
0101
1000
0001
0000
0100
0000
0001
0000
,
0010
0101
1001
0011
1100
0001
0100
0000
,
1000
0100
0001
0000
1000
0010
0001
1000
,
0100
2002
0000
0000
0000
0000
0000
0000
,
0000
0000
0000
0000
,
0000
3003
0000
0000
0000
0000
0000
0000
;

//---------------dance-double - ----------------
#NOTES:
     dance-double:
     :
     Challenge:
     13:
     0.441214,0.503020,0.364693,0.045587,0.011397,271.000000,239.000000,32.000000,4.000000,0.000000,0.000000,0.441214,0.503020,0.364693,0.045587,0.011397,271.000000,239.000000,32.000000,4.000000,0.000000,0.000000:
00000000
00000000
00000000
00000000
,
00000010
00000000
00000001
00000000
,
00000100
00000000
00001000
00000000
,
00011000
00000000
00010000
00100000
10000000
00000000
00010000
00100000
,
01000000
10000000
00010000
01000000
00001000
00010000
00000010
00001000
,
00000100
00000001
00000100
00001000
00000010
00000001
00000010
00010000
,
00001000
00000010
00001000
00010000
00100000
10000000
00000000
00010000
,
00010000
01000000
00100000
10000000
01000000
00000000
00010000
00010000
,
00000100
00001000
00000010
00000000
00000001
00000100
00001000
00010000
,
00001000
01000000
00100000
00100000
01000000
00100000
01000000
01000000
,
00100000
00000000
00011000
00000100
00000010
00000001
00000100
00000000
,
00001010
00000100
00010000
00001000
00100000
00000000
00000010
00100000
,
00010000
10000000
00000000
00010000
01100000
00011000
00000110
00000000
,
00000100
00000000
00000001
00000000
00001000
00001000
00000001
00000001
,
00001001
00000001
00000010
00001000
00010000
00000000
01000000
00100000
,
10000000
00010000
00000000
20000000
00000000
00000000
00000000
00000000
,
00000000
30000000
00000000
00100000
10000000
00010000
00000000
01000000
,
00100000
00010000
00001000
00000010
00000001
00000000
00000001
00001000
,
00000110
00001001
00000000
00000100
00001000
00010000
00100000
10000000
,
00100000
00010000
00000000
01000000
10000000
00010000
00000000
01000000
,
00001000
00010000
00000010
00001000
00000100
00001000
00001100
00000101
,
00000020
00000030
00000100
00000001
00000001
00000010
00000100
00001000
,
00010010
01001000
00100000
00100000
10000000
01000000
01000000
00100000
,
01000000
00000000
10000000
00000000
10010000
00000000
00000000
00000000
00011000
00000000
00000000
00000000
00001001
00000000
00001000
00000100
,
00000010
00000001
00000100
00000000
00000001
00000000
00000001
00000000
00000010
00000000
00000100
00000000
00001000
00000000
00010100
00000000
,
00101000
01000000
01000000
10000000
00100000
00100000
01000000
00010000
,
10000000
01100000
00000000
00011000
00000000
00000110
00001000
00000010
,
00000001
00001000
00000010
00010000
00001000
00100000
00000000
10010000
,
00100000
01000000
01000000
00100000
00000000
00001000
00010000
01000000
,
10000000
00000000
00100000
01010000
00011000
00001010
00000000
00000100
,
00000000
00000001
00000000
00001000
00001000
00000001
00000001
00001001
,
00000010
00000100
00000001
00000010
00000000
00000001
00000000
00001000
,
00000000
00000001
00001000
00010000
10000000
01000000
00100000
00010000
,
00000000
10000000
00100000
00000000
01000000
01001000
00010010
00000100
,
00000001
00001000
00000000
00000001
00000100
00000000
00000110
00011000
,
01100000
10000000
00010000
00000000
00100000
00000000
01000000
00000000
,
10000000
00100000
00010000
00001000
00000010
00000001
00000010
00000000
,
00000001
00000010
00001000
00000000
00000001
00000100
00001000
00010000
,
01000000
20020000
00000000
00000000
00000000
00000000
00000000
00000000
,
00000000
00000000
00000000
00000000
,
00000000
30030000
00000000
00000000
00000000
00000000
00000000
00000000
;

//---------------dance-single - ----------------
#NOTES:
     dance-single:
     :
     Easy:
     10:
     0.278404,0.325873,0.113967,0.000000,0.000000,171.000000,161.000000,10.000000,0.000000,0.000000,0.000000,0.278404,0.325873,0.113967,0.000000,0.000000,171.000000,161.000000,10.000000,0.000000,0.000000,0.000000:
0000
0000
0000
0000
,
0000
0000
0000
0000
,
0000
0000
0000
0000
,
0000
0000
0010
0000
,
0010
0000
0000
1000
0000
0100
0000
0001
,
0000
0010
1000
0100
0000
1000
0000
0001
,
0000
0100
0000
0001
0000
0101
0000
0000
,
0000
0010
0000
0010
0000
0000
0001
0000
,
0100
0000
1000
0000
0010
0001
0100
0000
,
0001
1000
0100
1000
,
1100
1001
0100
0010
,
1000
0000
0010
0100
0010
0000
0010
0000
,
0010
0001
0000
0110
0000
0000
0000
0000
,
0001
0000
0100
0000
,
1000
0010
0100
0001
,
0000
0100
0000
0001
0000
0001
0000
0001
,
0000
0001
0000
0001
0010
0000
0000
0001
,
0100
0010
0001
0100
0000
0000
0000
0000
,
0100
0100
0010
0000
0001
0000
1000
0000
,
0010
0000
0100
0000
0001
0000
0000
0100
,
1000
0010
1000
0100
0000
0000
0100
0100
,
1000
0000
0010
0000
0100
0000
0001
1000
,
0010
1000
0100
0101
0010
0000
0100
0000
,
1000
0001
0010
0000
1000
0000
0100
1000
,
0000
0010
0000
0100
0000
1000
0001
0010
,
0001
0100
1100
0010
0000
0100
0000
0001
,
1000
0010
0000
0001
0000
0100
0001
0100
,
1000
0010
1000
0000
0100
0010
0000
0001
,
0000
0110
0000
1001
0000
0010
0001
0100
,
0010
0000
0010
0100
0100
0100
0001
1000
,
0000
0100
0000
0001
0000
1000
0000
0110
,
0000
1000
0000
0100
0000
1000
0000
0001
,
0000
1000
0001
0100
0010
0100
1000
0000
,
0000
0000
0000
1000
0100
1000
0101
0010
,
0001
0000
0000
0000
0000
0010
0100
0100
,
0100
0001
1000
0000
0010
0000
1000
0000
,
0010
0100
0100
0100
0001
0000
0010
0000
,
1000
0000
0001
0000
0100
0000
0000
1000
,
0000
0100
0000
0000
0000
0000
0000
0000
;

//---------------dance-single - Edit----------------
#NOTES:
     dance-single:
     :
     Edit:
     16:
     0.831956,0.888940,0.091173,0.695196,1.242236,511.000000,503.000000,8.000000,61.000000,0.000000,0.000000,0.831956,0.888940,0.091173,0.695196,1.242236,511.000000,503.000000,8.000000,61.000000,0.000000,0.000000:
// measure 0
0000
0000
0000
0000
,  // measure 1
0010
0000
0001
0000
0100
0001
0010
0001
0100
0000
0010
0000
1000
0100
0010
0100
,  // measure 2
1000
0000
0100
0000
0001
0010
0100
0010
0001
0000
0100
0000
0001
0010
1000
0100
,  // measure 3
1001
0000
0000
0000
1000
0010
0001
0000
0110
0000
0100
0000
0001
1000
0100
0010
,  // measure 4
0001
0000
0100
0000
0010
0100
0000
0000
1000
0100
0000
0000
1000
0010
0001
0100
,  // measure 5
0010
0000
1000
0100
0010
0001
0100
0000
0001
0010
0000
0000
0100
0010
0000
0000
,  // measure 6
1000
0010
0100
0001
1000
0100
0020
0000
0032
0000
0023
0000
0230
0000
1300
0010
,  // measure 7
0100
0001
1000
0000
0100
1000
0000
0100
0010
0000
0001
0010
0001
0000
0100
0010
,  // measure 8
1000
0000
0100
0010
1000
0001
0010
0000
1000
0010
0100
0001
0010
0000
0001
0010
,  // measure 9
0000
0000
0010
0100
0000
0000
1000
0010
0100
0001
1000
0100
0020
0000
0230
0000
,  // measure 10
2300
0000
3200
0000
0310
0001
0010
1000
0010
0001
0100
0000
1000
0100
0010
0001
,  // measure 11
0100
0000
0000
0000
0010
0000
0000
0000
0001
0000
0010
0000
0100
0000
1000
0000
0010
0000
0100
0000
0001
0000
1000
0000
0200
0000
0300
0010
0200
0000
0300
0000
,  // measure 12
0010
0000
0001
0000
1000
0000
0100
0000
0010
0000
0001
0000
0100
0000
0010
0000
2000
0000
3000
0100
0020
0000
0030
0001
0200
0000
0310
0000
1000
0000
0000
0000
,  // measure 13
0100
0001
0010
1000
0100
0001
0010
1000
0010
0001
0100
1000
0010
0100
0001
1000
,  // measure 14
0020
0000
0000
0000
0130
0000
0000
0000
0001
0000
0010
0000
0000
0000
0100
0000
0010
0000
0000
0000
1000
0000
0000
0000
0002
0000
0003
1000
0002
0000
0003
0000
,  // measure 15
0010
0001
0100
0010
1000
0000
0100
0000
0010
0000
0100
0000
1000
0010
0001
0100
,  // measure 16
1000
0100
0010
0001
0100
0000
0010
0100
0100
0000
1000
0000
0001
1000
0100
0010
,  // measure 17
0001
0000
0000
0000
0000
0000
0010
0000
0000
0001
0000
0000
0100
0000
0000
0010
0000
0000
1000
0000
1000
0000
0000
0000
1000
0000
0000
0100
0000
0000
0010
0000
0000
0001
0000
0000
0100
0000
0000
0010
0000
0000
1000
0000
0000
0001
0000
0000
,  // measure 18
0020
0000
0030
0100
0020
0000
0030
0000
0100
0000
0000
0000
0010
0000
1000
0000
0100
0000
0010
0000
0001
0000
0100
0000
0010
0000
1000
0000
0100
0000
0010
0000
,  // measure 19
0001
0000
0100
0000
0010
0000
1000
0000
0001
0000
0100
0000
0010
0000
1000
0000
0200
0000
0300
0010
0200
0000
0300
0000
0010
0000
0001
0000
1000
0000
0100
0000
,  // measure 20
0010
0000
0000
0000
0000
0000
0000
0000
0000
0000
0000
0000
0001
0000
0000
0000
0000
0000
0000
0000
0000
0000
0000
0000
0100
0000
0000
0000
0000
0000
0000
0000
0000
0000
0000
0000
0010
0000
0000
0000
0000
0000
0000
0000
0000
0000
0000
0000
1000
0000
0000
0000
0000
0000
0000
0000
0000
0000
0000
0000
0001
0000
0000
0000
0000
0000
0000
0000
0000
0000
0000
0000
0100
0000
0000
0000
0100
0000
0000
0000
0000
0000
0000
0000
0000
0000
0000
0000
0000
0000
0000
0000
0000
0000
0000
0000
0010
0000
0000
0000
0000
0000
0000
0000
0000
0000
0000
0000
0001
0000
0000
0000
0000
0000
0000
0000
0000
0000
0000
0000
1000
0000
0000
0000
0000
0000
0000
0000
0000
0000
0000
0000
0010
0000
0000
0000
0000
0000
0000
0000
0000
0000
0000
0000
0200
0000
0000
0000
0000
0000
0000
0000
0000
0000
0000
0000
0300
0000
0000
0000
0000
0000
1000
0000
0000
0000
0000
0000
0020
0000
0000
0000
0000
0000
0000
0000
0000
0000
0000
0000
0130
0000
0000
0000
0000
0000
0000
0000
0000
0000
0000
0000
,  // measure 21
2002
0000
0000
0000
3003
0000
0000
0000
1000
0000
0100
0000
0001
0000
0100
0000
1000
0000
0010
0000
0100
0000
0001
0000
0010
0000
0100
0000
2000
0000
3000
0001
,  // measure 22
2000
0000
3000
0000
0001
0000
1000
0000
0020
0000
0030
0100
0020
0000
0030
0000
0001
0000
0100
0000
0010
0000
1000
0000
0100
0000
0010
0000
0001
0000
0100
0000
,  // measure 23
0010
0000
0000
0000
0000
0000
0000
0000
0000
0000
0000
0000
1000
0000
0000
0000
0000
0000
0000
0000
0000
0000
0000
0000
0001
0000
0000
0000
0000
0000
0000
0000
0000
0000
0000
0000
0000
0000
0000
0000
0000
0000
0000
0000
0000
0000
0000
0000
0001
0000
0000
0000
0000
0000
0000
0000
0000
0000
0000
0000
0010
0000
0000
0000
0000
0000
0000
0000
0000
0000
0000
0000
0100
0000
0000
0000
0000
0000
0000
0000
0000
0000
0000
0000
1000
0000
0000
0000
0000
0000
0000
0000
0000
0000
0000
0000
0010
0000
0000
0000
0000
0000
0000
0000
0000
0000
0000
0000
0001
0000
0000
0000
0000
0000
0000
0000
0000
0000
0000
0000
0100
0000
0000
0000
0000
0000
0000
0000
0000
0000
0000
0000
0010
0000
0000
0000
0000
0000
0000
0000
0000
0000
0000
0000
1000
0000
0000
0000
0000
0000
0000
0000
0000
0000
0000
0000
0100
0000
0000
0000
0000
0000
0000
0000
0000
0000
0000
0000
0020
0000
0000
0000
0030
0000
0001
0000
0000
0000
0000
0000
0020
0000
0000
0000
0000
0000
0130
0000
0000
0000
0000
0000
,  // measure 24
0020
1030
0020
0000
0130
0000
0010
0000
1000
0000
0001
0000
0010
0000
0100
0000
1000
0000
0010
0000
0100
0000
0001
0000
1000
0000
0000
0010
1100
0000
0000
0000
,  // measure 25
1000
0100
0011
1001
0101
0000
0010
0001
0100
0010
1000
0100
0010
0100
0001
1000
,  // measure 26
0100
0000
0010
0100
0000
1000
0100
0000
0020
0000
0032
0000
0203
0000
2300
0000
,  // measure 27
3020
0000
0030
0000
0100
0000
0001
0000
1000
0000
0100
0000
0010
0000
0001
0000
0200
0000
0300
0010
1000
0000
0010
0000
0001
0000
0100
0000
0010
0000
0000
0000
,  // measure 28
1000
0000
0100
0000
1000
0000
0010
0000
0100
0000
0001
0000
0000
0000
0001
0000
0010
0000
0100
0000
0002
0000
0003
1000
0002
0000
0003
0000
0001
0000
0010
0000
,  // measure 29
0100
1000
0010
0100
0001
1000
0200
0310
0200
0301
0200
1300
0100
0010
1000
0001
,  // measure 30
0010
0100
1000
0010
0100
0001
1000
0100
0010
0001
0100
0010
1000
0100
0010
0000
,  // measure 31
0001
0000
0000
0000
0000
0000
0100
0000
0000
0001
0000
0000
0000
0000
0000
1000
0000
0000
0100
0000
0000
0000
0000
0000
0010
0000
0000
0000
0000
0000
0001
0001
0000
0010
0000
0000
0100
0000
0000
1000
0000
0000
0100
0100
0000
1000
0000
0000
,  // measure 32
0010
0100
0002
0013
0200
0310
2000
3100
0020
0130
0001
1000
0100
0010
0002
0000
,  // measure 33
1003
0000
0000
0000
0000
0000
0000
0000
0001
0000
0000
0000
0010
0000
0000
0000
1000
0000
0000
0000
0100
0000
0000
0000
0010
0000
0000
0000
0001
0000
0000
0000
0100
0000
0000
1000
0000
0000
0010
0000
0200
0000
0000
0000
0301
0000
0000
0000
0020
0000
0000
0000
0030
0000
0000
0000
1000
0000
0000
0000
0010
0000
0000
0000
,  // measure 34
0100
0000
0000
0000
0000
0000
0000
0000
0000
0000
0000
0000
0001
0000
0000
0000
0000
0000
0000
0000
0000
0000
0000
0000
0010
0000
0000
0000
0000
0000
0000
0000
0010
0000
0000
0000
0000
0000
0000
0000
0000
0000
0000
0000
0000
0000
0000
0000
0100
0000
0000
0000
0000
0000
0000
0000
0000
0000
0000
0000
0010
0000
0000
0000
0000
0000
0000
0000
0000
0000
0000
0000
1000
0000
0000
0000
0000
0000
0000
0000
0000
0000
0000
0000
0001
0000
0000
0000
0000
0000
0000
0000
0000
0000
0000
0000
0010
0000
0000
0000
0000
0000
0000
0000
0000
0000
0000
0000
0100
0000
0000
0000
0000
0000
0000
0000
0000
0000
0000
0000
1000
0000
0000
0000
0000
0000
0000
0000
0000
0000
0000
0000
0010
0000
0000
0000
0000
0000
0000
0000
0000
0000
0000
0000
2000
0000
0000
0000
0000
0000
0000
0000
0000
0000
0000
0000
3000
0000
0000
0000
0000
0000
0100
0000
0000
0000
0000
0000
0020
0000
0000
0000
0000
0000
0000
0000
0000
0000
0000
0000
0030
0000
0000
0000
0000
0000
0001
0000
0000
0000
0000
0000
,  // measure 35
2000
0000
0000
0000
0000
0000
3001
0000
0000
0100
0000
0000
0010
0000
0000
1000
0000
0000
0100
0000
0000
0001
0000
0000
0010
0010
0000
0001
0000
0000
0100
0000
0000
0010
0000
0000
1000
0000
0000
0100
0000
0000
0010
0000
0000
0001
0000
0000
,  // measure 36
0100
1000
0020
0130
0002
0013
0200
0310
2000
3000
0100
1000
0010
0100
0001
1000
,  // measure 37
0100
0010
0001
0100
0010
1000
0100
0010
0001
0100
0010
0000
0100
0000
0010
0200
,  // measure 38
0020
0330
2002
0000
0000
0000
0000
0000
0000
0000
0000
0000
0000
0000
0000
0000
,  // measure 39
0000
0000
0000
0000
,  // measure 40
3003
0000
0000
0000
;
