#TITLE:SOMEWHERE OVER THE RAINBOW;
#SUBTITLE:;
#ARTIST:COSMIC GATE;
#TITLETRANSLIT:;
#SUBTITLETRANSLIT:;
#ARTISTTRANSLIT:;
#GENRE:;
#CREDIT:;
#BANNER:SOMEWHERE OVER THE RAINBOW.png;
#BACKGROUND:SOMEWHERE OVER THE RAINBOW-bg.png;
#LYRICSPATH:;
#CDTITLE:;
#MUSIC:SOMEWHERE OVER THE RAINBOW.ogg;
#OFFSET:0.000000;
#SAMPLESTART:8.530000;
#SAMPLELENGTH:15.000000;
#SELECTABLE:YES;
#DISPLAYBPM:35.000000:140.000000;
#BPMS:0.000000=139.824997
,4.000000=139.968994
,20.000000=35.001999
,36.000000=140.000000
;
#STOPS:
;
#BGCHANGES:;
#KEYSOUNDS:;
#ATTACKS:;

//---------------dance-single - ----------------
#NOTES:
     dance-single:
     :
     Beginner:
     3:
     0.132442,0.192189,0.145835,0.000000,0.000000,89.000000,75.000000,14.000000,0.000000,0.000000,0.000000,0.132442,0.192189,0.145835,0.000000,0.000000,89.000000,75.000000,14.000000,0.000000,0.000000,0.000000:
0000
0000
0000
0000
,
0000
0000
0000
0000
,
0000
0000
0000
0000
,
1000
0000
0000
0000
,
1001
0000
0000
0000
,
0001
0001
0001
0001
,
0001
0001
0001
0000
,
1000
1000
1000
1000
,
1000
1000
1000
0000
,
1001
0000
0000
0000
,
1001
0000
0000
0000
,
0001
0000
0000
0000
,
1000
0000
0000
0000
,
0010
0000
0000
0000
,
0100
0000
0000
0000
,
0110
0000
0000
0000
,
0110
0000
0000
0000
,
0001
0001
0000
0000
,
0010
0010
0000
0000
,
1000
1000
0000
0000
,
0010
0010
0000
0000
,
0001
0001
0000
0000
,
0100
0100
0000
0000
,
1000
1000
0000
0000
,
0100
0100
0000
0000
,
1001
0000
0000
0000
,
0100
0100
0100
0000
,
1001
0000
0000
0000
,
0100
0100
0100
0000
,
0110
0000
0000
0000
,
0001
0001
0001
0000
,
0110
0000
0000
0000
,
1000
1000
1000
0000
,
0001
0000
0001
0000
,
1001
0000
1001
0000
,
1000
0000
1000
0000
,
1001
0000
1001
0000
,
0010
0000
0100
0000
,
0010
0000
0100
0000
,
0001
0001
0001
0000
,
1000
1000
1000
0000
,
1001
0000
0000
0000
;

//---------------dance-single - ----------------
#NOTES:
     dance-single:
     :
     Easy:
     5:
     0.183038,0.192189,0.000000,0.000000,0.000000,123.000000,123.000000,0.000000,0.000000,0.000000,0.000000,0.183038,0.192189,0.000000,0.000000,0.000000,123.000000,123.000000,0.000000,0.000000,0.000000,0.000000:
0000
0000
0000
0000
,
0000
0000
0000
0000
,
0000
0000
0000
0000
,
0001
0000
1000
1000
,
1000
0000
0000
0000
,
0001
1000
0001
1000
,
0001
1000
1000
0000
,
0001
1000
0001
1000
,
0001
1000
0001
0000
,
1000
0000
1000
0000
,
1000
1000
1000
1000
,
0001
0000
0001
0000
,
0001
0001
0001
0001
,
1000
0000
0100
0000
,
0001
0000
0100
0000
,
1000
0100
0001
0100
,
0001
1000
0001
1000
,
0001
0001
1000
1000
,
0001
0001
1000
1000
,
0001
0001
1000
1000
,
0001
0001
1000
1000
,
0010
0000
0100
0000
,
0010
0000
0100
0000
,
0001
0000
1000
0000
,
0001
0000
1000
0000
,
0001
0001
1000
1000
,
0001
0001
1000
1000
,
0010
0010
0100
0100
,
0010
0010
0100
0100
,
0001
0000
1000
0000
,
0001
0000
1000
0000
,
0010
0000
0010
0000
,
0100
0000
0100
0000
,
0001
0001
1000
1000
,
0001
0001
1000
1000
,
0010
0010
1000
1000
,
0001
0001
0010
0010
,
0001
0001
0001
0001
,
1000
1000
1000
1000
,
0001
0001
1000
1000
,
0010
0010
1000
0001
,
1000
0000
0000
0000
;

//---------------dance-single - ----------------
#NOTES:
     dance-single:
     :
     Medium:
     8:
     0.248515,0.282685,0.052084,0.041667,0.000000,167.000000,162.000000,5.000000,4.000000,0.000000,0.000000,0.248515,0.282685,0.052084,0.041667,0.000000,167.000000,162.000000,5.000000,4.000000,0.000000,0.000000:
0000
0000
0000
0000
,
0000
0000
0000
0000
,
0000
0000
0000
0000
,
0001
1000
0001
1000
,
0200
0000
0000
0300
,
0001
0000
0100
0000
0001
1000
0001
0001
,
1000
0100
2000
0000
,
3001
0000
1000
0000
0001
1000
0100
0100
,
1000
0001
1000
0001
2000
0000
0000
0000
,
3001
0001
0001
0001
,
1000
0001
1000
0001
,
1000
1000
1000
1000
,
0001
1000
0001
1000
,
0001
0001
0100
0100
,
1000
1000
0100
0100
,
0001
1000
0001
1000
,
0001
0000
0001
0000
1000
0001
1000
0001
,
1000
1000
0001
0001
,
1000
1000
0001
0001
,
1000
0101
1000
0101
,
0001
1100
0001
1100
,
1000
0100
0001
0100
,
1000
0100
0001
0100
,
1000
1000
0001
0001
,
1000
1000
0000
0000
,
0001
0000
0100
0000
1000
1000
0100
0000
,
0001
0000
0100
0000
1000
1000
0100
0000
,
1000
0000
0100
0000
0001
1000
0100
0000
,
1000
0000
0100
0000
0001
1000
0100
0000
,
1000
1000
0001
0000
0001
0001
1000
0000
,
1000
1000
0001
0000
0001
0001
1000
0000
,
1000
0001
1000
0001
,
1000
0001
0100
1001
,
0000
1000
0000
0100
0000
0001
0000
0100
,
0000
1000
0000
0100
0000
0001
0000
0100
,
0000
1000
0000
1000
0000
0001
0000
0001
,
0000
1000
0000
1000
0000
0001
0000
0001
,
1000
0000
0001
0001
,
0100
0000
1000
1000
,
0100
0001
0100
1000
,
0100
0000
0100
0000
0001
1000
0001
1000
,
0002
0000
0000
0003
;

//---------------dance-single - ----------------
#NOTES:
     dance-single:
     :
     Hard:
     12:
     0.495541,0.630606,0.343754,0.156252,0.307295,333.000000,300.000000,33.000000,15.000000,0.000000,0.000000,0.495541,0.630606,0.343754,0.156252,0.307295,333.000000,300.000000,33.000000,15.000000,0.000000,0.000000:
0000
0000
0000
0000
,
0000
0000
0000
0000
,
0000
0000
0000
0000
,
0001
1000
0001
1000
0010
0100
0010
0100
0001
1000
0001
1000
0010
0100
0010
0100
,
0020
0000
0000
0030
,
0200
0000
0000
0000
0302
0000
0000
0000
1003
0000
0100
0010
0001
0000
1100
0000
,
0110
0101
2000
0000
,
3010
0000
0000
0000
0100
0000
0000
0000
0001
0000
0010
0100
1000
0000
0100
0000
,
0010
0000
1000
0100
0010
0000
0100
0000
0020
0000
0000
0000
0030
0000
0000
0000
,
1001
1001
1001
1001
,
0010
0010
1001
1001
,
0010
0100
1001
0000
0100
0010
1001
0000
,
0010
0010
0100
0100
0010
0100
1001
0000
,
0010
0100
0101
0000
0010
0100
1100
0000
,
0001
0001
1000
1000
0001
1000
0110
0000
,
0001
0100
0110
0000
1000
0100
0110
0000
,
0010
0001
0100
0010
1000
0100
0010
0001
,
0100
0000
0010
0001
1000
0000
0010
0000
0100
0000
0010
0100
1000
0000
0100
0000
,
0010
0000
0100
0001
1000
0000
0100
0000
0010
0000
0100
0010
1000
0000
0100
0000
,
1000
0000
0100
1000
0100
0000
0010
0000
0001
0000
0100
0001
0010
0000
0001
0000
,
0100
0000
0010
0001
0100
0000
0010
0000
1000
0000
0100
0010
0001
0000
0100
0000
,
0000
1001
0000
0200
0000
0310
0000
1001
,
0000
0101
0000
0020
0000
1030
0000
1100
,
0000
0110
0000
0002
0000
0103
0000
0110
,
0000
1010
0000
0200
0000
0310
0000
0011
,
0100
0000
0100
1000
0100
0000
0010
1000
0010
0000
0001
1000
0001
1000
0001
0000
,
1100
0000
1000
0001
1000
0000
0100
0001
0100
0000
0010
0001
0010
0001
0010
0000
,
0011
0000
0001
0010
0001
0000
0100
0010
0100
0000
1000
0010
1000
0010
1000
0000
,
1010
0000
1000
0100
1000
0000
0001
0100
0001
0000
0010
0100
0010
0100
0010
0000
,
0000
0020
0000
0130
0000
1001
0100
0010
,
0000
0002
0000
1003
0000
1100
0010
0001
,
0000
2000
0000
3010
0000
1001
0100
0010
,
0000
0002
0000
0103
0000
1001
0000
1001
,
0010
0000
1000
0000
0100
0000
0010
0000
0100
0000
1000
0100
0010
0000
0100
0000
,
0010
0000
1000
0000
0100
0000
0010
0000
0001
0000
0100
0001
0010
0000
0100
0000
,
0001
0000
0010
0000
0100
0000
0010
0000
0001
0000
0100
0001
0010
0000
0100
0000
,
0010
0000
1000
0000
0100
0000
0010
0000
0100
0000
1000
0100
0010
0000
0100
0000
,
0001
0000
1000
0100
1000
0000
1000
0010
1000
0000
1000
0100
0010
0001
0100
0000
,
0001
0000
0001
0010
0001
0000
0010
0100
0010
0000
0001
0100
0010
1000
0100
0000
,
0010
0000
1000
0100
1000
0000
0010
0001
0010
0000
0100
0010
0001
0010
1000
0000
,
0100
0001
0010
0001
0010
0001
0100
0010
0100
0010
1000
0100
1000
0100
0010
0002
,
2000
0000
0000
3003
;

//---------------dance-double - ----------------
#NOTES:
     dance-double:
     :
     Easy:
     3:
     0.169645,0.192189,0.000000,0.000000,0.000000,114.000000,114.000000,0.000000,0.000000,0.000000,0.000000,0.169645,0.192189,0.000000,0.000000,0.000000,114.000000,114.000000,0.000000,0.000000,0.000000,0.000000:
00000000
00000000
00000000
00000000
,
00000000
00000000
00000000
00000000
,
00000000
00000000
00000000
00000000
,
00001000
00000000
00010000
00000000
,
00001000
00000000
00000000
00000000
,
00100000
00010000
00100000
01000000
,
00010000
00001000
00000100
00000000
,
00001000
00010000
01000000
00010000
,
00001000
00000100
00000010
00000000
,
00001000
00001000
00001000
00001000
,
00000010
00000000
00000100
00000000
,
00001000
00001000
00001000
00001000
,
00010000
00000000
01000000
00000000
,
00010000
00001000
00010000
00001000
,
00000100
00000000
00000010
00000000
,
00000100
00000100
00000010
00000010
,
00000100
00000100
00001000
00001000
,
00010000
00001000
00010000
00001000
,
00010000
00001000
00010000
00001000
,
00001000
00000100
00001000
00000100
,
00001000
00000100
00001000
00000100
,
00000001
00000000
00000001
00000000
,
00000100
00000000
00000100
00000000
,
00001000
00000000
00001000
00000000
,
00010000
00000000
00010000
00010000
,
01000000
01000000
01000000
01000000
,
01000000
01000000
01000000
01000000
,
00010000
00000000
00001000
00000000
,
00000100
00000100
00000100
00000100
,
00000001
00000000
00000001
00000000
,
00000010
00000010
00000010
00000010
,
00000100
00000000
00000100
00000000
,
00010000
00001000
00010000
00001000
,
00100000
00000000
00100000
00000000
,
00001000
00000000
00001000
00000000
,
00010000
00000000
00010000
00000000
,
00000100
00000000
00000100
00000000
,
00010000
00010000
00010000
00000000
,
00001000
00001000
00001000
00000000
,
01000000
00000000
00001000
00000000
,
00010000
00000000
00000100
00000100
,
00000100
00000000
00000000
00000000
,
00000000
00000000
00000000
00000000
;

//---------------dance-double - ----------------
#NOTES:
     dance-double:
     :
     Medium:
     5:
     0.269348,0.326175,0.020834,0.062501,0.000000,181.000000,179.000000,2.000000,6.000000,0.000000,0.000000,0.269348,0.326175,0.020834,0.062501,0.000000,181.000000,179.000000,2.000000,6.000000,0.000000,0.000000:
00000000
00000000
00000000
00000000
,
00000000
00000000
00000000
00000000
,
00000000
00000000
00000000
00000000
,
00100000
10000000
01000000
00010000
,
00011000
00000000
00000000
00000000
,
00100000
00000000
10000000
00000000
01000000
00010000
00001000
00000100
,
00000001
00001000
00000200
00000300
,
00000001
00000000
00000100
00000000
00001000
00010000
01000000
01000000
,
10000000
00100000
00010000
00001000
00000020
00000000
00000030
00000000
,
00000001
00000001
00000001
00000001
,
00000100
00001000
00010000
01000000
,
20000000
00010000
01000000
00010000
,
31000000
00010000
00001000
00000100
,
00000001
00000100
00001000
00010000
,
01000000
10000000
00100000
00010000
,
00001000
00000010
00000002
00001000
,
00000100
00001000
00000103
00001000
,
00000000
00010000
00000000
01000000
00000000
10000000
00000000
10000000
,
00000000
01000000
00000000
00010000
00000000
00001000
00000000
00001000
,
00000000
00000100
00000000
00000001
00000000
00000010
00000000
00000010
,
00000000
00000001
00000000
00000100
00000000
00001000
00000000
00001000
,
00000000
00010000
00000000
00100000
00000000
10000000
00000000
01000000
,
00000000
00010000
00000000
00100000
00000000
10000000
00000000
01000000
,
00000000
00010000
00000000
00001000
00000000
00000100
00000000
00000100
,
00000000
00000100
00000000
00000100
00000000
00000001
00000000
00000001
,
00001000
00000010
00000100
00000000
00000001
00001000
00000100
00000000
,
00010000
00001000
00000100
00000000
00001000
00010000
01000000
00000000
,
10000000
00100000
00010000
00000000
00100000
10000000
01000000
00000000
,
00010000
00001000
00000100
00000000
00000001
00001000
00000100
00000000
,
00000010
00000001
00000100
00000000
00001000
00010000
01000000
00000000
,
10000000
00100000
01000000
00000000
00001000
00010000
01000000
00000000
,
10000000
00010000
01000000
00000000
00100000
00010000
00001000
00000000
,
00000010
00000001
00000100
00000000
00001000
00000100
00000000
00000001
,
00001000
00000001
00000100
00000000
00000001
00000000
00000001
00000000
,
00000010
00010000
00001000
00000000
00010000
00000000
00010000
00000000
,
01000000
10000000
00100000
00000000
10000000
00000000
10000000
00000000
,
01000000
00010000
00001000
00000000
00000100
00000000
00000100
00000000
,
00000001
00000100
00000010
00000000
00001000
00000000
00000000
00000000
,
00010000
00001000
00000100
00000000
00001000
00000000
00000000
00000000
,
00001000
00010000
01000000
00000000
00001000
00010000
01000000
00000000
,
00001000
00010000
00001000
00010000
00001000
00010000
01000000
00000000
,
02002000
00000000
00000000
03003000
,
00000000
00000000
00000000
00000000
;

//---------------dance-double - ----------------
#NOTES:
     dance-double:
     :
     Hard:
     7:
     0.394349,0.456645,0.302086,0.041667,0.072917,265.000000,236.000000,29.000000,4.000000,0.000000,0.000000,0.394349,0.456645,0.302086,0.041667,0.072917,265.000000,236.000000,29.000000,4.000000,0.000000,0.000000:
00000000
00000000
00000000
00000000
,
00000000
00000000
00000000
00000000
,
00000000
00000000
00000000
00000000
,
00001000
00010000
00001000
00010000
00001000
01000000
00001000
01000000
00001000
00010000
00001000
00010000
00000100
00010000
00000100
00010000
,
00002000
00000000
00000000
00003000
,
00010000
00000000
00000000
00000000
00100000
00000000
00000000
00000000
10000000
00000000
01000000
00010000
00001000
00000100
00000001
00000000
,
00000010
00000100
00002000
00000000
,
00003001
00000000
00000000
00000000
00000100
00000000
00000000
00000000
00001000
00000000
00010000
01000000
10000000
00100000
00010000
00000000
,
00001000
00000000
00000010
00001000
00010000
00100000
10000000
00000000
02000000
00000000
00000000
00000000
00000000
00000000
00000000
00000000
,
03010000
00010000
00010000
00010000
,
00001000
00000100
00000001
00000010
,
00000010
00000001
00000100
00000000
00001000
00010000
01000000
00000000
,
10000000
00100000
00010000
00001000
00010000
01000000
10000000
00000000
,
10000000
00010000
01000000
00000000
00001000
00010000
01000000
00000000
,
00010000
00001000
00000100
00000001
00000010
00001000
00010000
00000000
,
00100000
10000000
01000000
00010000
01000000
10000000
00100000
00010000
,
00001000
00000010
00000001
00000100
00001000
00000100
00000001
00001000
,
00001100
00000000
00010100
00000000
00001000
00010000
01000000
00000000
,
10010000
00000000
11000000
00000000
00100000
00010000
01000000
00000000
,
00011000
00000000
01001000
00000000
00010000
00001000
00000100
00000000
,
00001001
00000000
00001100
00000000
00000010
00000001
00000100
00000000
,
00000000
00000101
00000000
00001100
00000000
00011000
00000000
00110000
,
00000000
10100000
00000000
11000000
00000000
01010000
00000000
00011000
,
00000000
00001010
00000000
00000011
00000000
00000101
00000000
00001100
,
00000000
00011000
00000000
00011000
00000000
00100000
00000000
10000000
,
01000000
01000000
01000000
00000000
10000000
01000000
00010000
00000000
,
00001000
00001000
00001000
00000000
00010000
00001000
00000100
00000000
,
00000001
00000001
00000001
00000000
00001000
00000001
00000100
00000000
,
00000100
00000100
00000100
00000000
00001000
00010000
01000000
00000000
,
00000000
10000000
00000000
00010000
00000000
10000000
01000000
00100000
,
00000000
00001000
00000000
00010000
00000000
00001000
00000100
00000001
,
00000000
00000010
00000000
00000100
00000000
00001000
00000001
00000100
,
00000000
00001000
00000000
00010000
00000000
01000000
10000000
00100000
,
10010000
01000000
00100000
00010000
10000000
01000000
00010000
00001000
,
00000100
00000001
00000010
00000100
00000010
00000001
00000100
00001000
,
00010000
01000000
10000000
00100000
10000000
01000000
00010000
00001000
,
00000100
00000001
00001000
00000100
00010000
00001000
00000100
00000001
,
00000101
00000010
00001000
00010000
00100000
10000000
01000000
00010000
,
11000000
00010000
00001000
00000100
00000010
00010000
00001000
00000010
,
00001001
00000100
00001000
00010000
00011000
01000000
10000000
00100000
,
10010000
00000000
10010000
00000000
01000000
00010000
00001000
00000100
,
00000002
00000000
00000000
00000003
,
00000000
00000000
00000000
00000000
;

//---------------dance-single - ----------------
#NOTES:
     dance-single:
     :
     Challenge:
     16:
     0.726198,1.456916,0.500005,0.166668,0.968760,488.000000,440.000000,48.000000,16.000000,0.000000,0.000000,0.726198,1.456916,0.500005,0.166668,0.968760,488.000000,440.000000,48.000000,16.000000,0.000000,0.000000:
// measure 0
0000
0000
0000
0000
,  // measure 1
0000
0000
0000
0000
,  // measure 2
0000
0000
0000
0000
,  // measure 3
1000
0100
1000
0100
0010
0001
0010
0001
0100
0010
0100
0010
1000
0001
1000
0001
,  // measure 4
0200
0000
0000
0300
,  // measure 5
2000
0000
0000
0000
0000
0000
0100
0000
3000
0000
0000
0000
0010
0000
0000
0000
0000
0000
0001
0000
0000
0000
0000
0000
0010
0000
0000
0000
0000
0000
0100
0000
0000
0000
0000
0000
1000
0000
0000
0000
0000
0000
0100
0000
0000
0000
0000
0000
0020
0000
0000
0000
0000
0000
0001
0000
0030
0000
0000
0000
0100
0000
0000
0000
0000
0000
0010
0000
0000
0000
0000
0000
1000
0000
0000
0000
0000
0000
0100
0000
0000
0000
0000
0000
0010
0000
0000
0000
0000
0000
0001
0000
0000
0000
0000
0000
0200
0000
0000
0000
0000
0000
0000
0000
0310
0000
0000
0000
0001
0000
0000
0000
0000
0000
0000
0000
0000
0000
0000
0000
0020
0000
0000
0000
0000
0000
0000
0000
0000
0000
0000
0000
0130
0000
0000
0000
0000
0000
0000
0000
0000
0000
0000
0000
2000
0000
0000
0000
0000
0000
0000
0000
3001
0000
0000
0000
0100
0000
0000
0000
0000
0000
0000
0000
0000
0000
0000
0000
1001
0000
0000
0000
0000
0000
0000
0000
0000
0000
0000
0000
1000
0000
0000
0000
0100
0000
0000
0000
0010
0000
0000
0000
,  // measure 6
0001
0000
0000
0010
0000
0000
0100
0000
0000
0000
0000
0000
1000
0000
0000
0000
0000
0000
0010
0000
0000
0000
0000
0000
0001
0000
0000
0010
0000
0000
0100
0000
0000
0000
0000
0000
1000
0000
0000
0000
0000
0000
0010
0000
0000
0000
0000
0000
0100
0000
0000
0010
0000
0000
0001
0000
0000
0000
0000
0000
0100
0000
0000
0000
0000
0000
0010
0000
0000
0000
0000
0000
1000
0000
0000
0100
0000
0000
0010
0000
0000
0000
0000
0000
0001
0000
0000
0000
0000
0000
0100
0000
0000
0000
0000
0000
0010
0000
0000
0000
0100
0000
0000
0000
0010
0000
0000
0000
1000
0000
0000
0000
0100
0000
0000
0000
0010
0000
0000
0000
0001
0000
0000
0000
0100
0000
0000
0000
0010
0000
0000
0000
1000
0000
0000
0000
0100
0000
0000
0000
0010
0000
0000
0000
0001
0000
0000
0000
0000
0000
0000
0000
0000
0000
0000
0000
0010
0000
0000
0000
0000
0000
0000
0000
0000
0000
0000
0000
0100
0000
0000
0000
0000
0000
0000
0000
0000
0000
0000
0000
1000
0000
0000
0000
0000
0000
0000
0000
0000
0000
0000
0000
,  // measure 7
0001
0000
0000
0010
0000
0000
0100
0000
0000
0000
0000
0000
1000
0000
0000
0000
0000
0000
0000
0000
0000
0000
0000
0000
0100
0000
0000
0000
0000
0000
0000
0000
0000
0000
0000
0000
0010
0000
0000
0000
0000
0000
0000
0000
0000
0000
0000
0000
0002
0000
0000
0000
0000
0000
0000
0000
0000
0000
0000
0000
0000
0000
0000
0000
0000
0000
0000
0000
0000
0000
0000
0000
0000
0000
0000
0000
0000
0000
0000
0000
0000
0000
0000
0000
0000
0000
0000
0000
0000
0000
0000
0000
0000
0000
0000
0000
0203
0000
0000
0000
0000
0000
0000
0000
0000
0000
0000
0000
0000
0000
0000
0000
0300
0000
0000
0000
0000
0000
0000
0000
0010
0000
0000
0000
0000
0000
0000
0000
0000
0000
0000
0000
1000
0000
0000
0000
0000
0000
0000
0000
0000
0000
0000
0000
0200
0000
0000
0000
0000
0000
0000
0000
0000
0000
0000
0000
0000
0000
0000
0000
0000
0000
0000
0000
0000
0000
0000
0000
0302
0000
0000
0000
0000
0000
0000
0000
0000
0000
0000
0000
0000
0000
0000
0000
0000
0000
0000
0000
0000
0000
0000
0000
,  // measure 8
2003
0000
3020
0130
0002
0000
2003
0000
0002
0000
0000
0000
0000
0000
3003
0000
,  // measure 9
1001
1001
1100
1100
,  // measure 10
1001
1001
0101
0101
,  // measure 11
0110
0110
1010
1010
,  // measure 12
0110
0110
0011
0011
,  // measure 13
0001
0010
1010
0000
1000
0010
0011
0000
,  // measure 14
0001
0100
1000
0100
0001
0010
1010
0000
,  // measure 15
1000
0000
0100
0000
1100
0000
0000
0000
0001
0000
0100
0000
0101
0000
0001
0100
,  // measure 16
0001
0100
0010
1000
0010
1000
0100
0010
0100
0010
1000
0001
1000
0001
1000
0001
,  // measure 17
0100
0000
0010
1000
0100
0000
0010
0001
0100
0000
0010
1000
0100
0000
0100
0001
,  // measure 18
0010
0000
0100
1000
0010
0000
0100
0001
0010
0000
0100
1000
0010
0000
0010
0001
,  // measure 19
1000
0000
0010
1000
0001
0000
0010
0001
1000
0000
0010
1000
0001
0000
0001
0100
,  // measure 20
1000
0000
0001
0010
1000
0000
0001
0100
1000
0000
0001
0010
1000
0010
0001
0000
,  // measure 21
0000
0101
0000
1100
0000
1010
1000
1100
,  // measure 22
0000
0110
0000
0101
0000
0011
0010
1010
,  // measure 23
0000
1001
0000
0101
0000
0011
0010
1010
,  // measure 24
0000
0000
0000
0000
1000
0000
0000
0000
1100
0000
0000
0000
0100
0000
0000
0000
0001
0000
0010
0000
0001
0000
0010
0000
0100
0000
1000
0000
0100
1000
0100
0000
,  // measure 25
0010
0000
0001
0010
1000
0000
0001
0100
1000
0000
0001
0010
1000
0000
1000
0010
,  // measure 26
0001
0000
1000
0100
0001
0000
1000
0010
0001
0000
1000
0100
0001
0000
0001
0010
,  // measure 27
0100
0000
0001
0100
0010
0000
0001
0010
0100
0000
0001
0100
0010
0000
0010
1000
,  // measure 28
0100
0000
0010
0100
1000
0000
0010
1000
0100
0000
0010
0100
1000
0001
0100
0000
,  // measure 29
0000
1010
0000
0011
0000
0101
0100
1100
,  // measure 30
0000
1010
0000
1100
0000
0101
0001
0011
,  // measure 31
0000
1001
0000
0110
0000
1001
0010
0110
,  // measure 32
0000
0000
0000
0000
0100
0000
0000
0000
0110
0000
0000
0000
0010
0000
0000
0000
1000
0000
0010
0000
1000
0000
0010
0000
0100
0000
0001
0000
0100
0010
0100
0000
,  // measure 33
0001
0010
0100
1000
0001
0100
0010
1000
0001
0010
0100
1000
0100
0010
0001
0100
,  // measure 34
0010
0001
0100
0010
1000
0100
0010
0001
0010
0100
1000
0010
0100
0001
1000
0100
,  // measure 35
0010
0001
0100
0010
1000
0100
0010
0001
0010
0100
1000
0010
0100
0001
0010
0100
,  // measure 36
1000
0010
0100
0001
1000
0100
0010
0001
1000
0010
0100
0001
1000
0100
0010
0001
,  // measure 37
0100
1000
0100
0000
0010
0000
0001
0000
0100
0000
0010
0000
1000
0000
0100
0000
0010
0000
0001
0000
0100
0000
0010
0000
1000
0000
0010
0000
0100
0000
0001
0000
,  // measure 38
1000
0100
1000
0000
0100
0000
0010
0000
1000
0000
0100
0000
0010
0000
0001
0000
0010
0000
0100
0000
1000
0000
0010
0000
0100
0000
0001
0000
0010
0000
0100
0000
,  // measure 39
1000
0010
1000
0000
0010
0000
0100
0000
0001
0000
0010
0000
0100
0000
1000
0000
0010
0100
0010
0000
0100
0000
0010
0000
1000
0000
0100
0000
0010
0000
0001
0000
,  // measure 40
0100
0010
0100
0000
0010
0000
1000
0000
0100
0010
0100
0000
0010
0000
0001
0000
0100
0010
0100
0000
0010
0000
1000
0000
0100
0010
0001
0010
0100
0000
1000
0000
,  // measure 41
0200
0000
0000
0300
;
