#TITLE:SO MANY MEN;
#SUBTITLE:;
#ARTIST:ME & MY;
#TITLETRANSLIT:;
#SUBTITLETRANSLIT:;
#ARTISTTRANSLIT:;
#GENRE:;
#CREDIT:;
#BANNER:SO MANY MEN.png;
#BACKGROUND:SO MANY MEN-bg.png;
#LYRICSPATH:;
#CDTITLE:;
#MUSIC:SO MANY MEN.ogg;
#OFFSET:0.000000;
#SAMPLESTART:48.355999;
#SAMPLELENGTH:15.000000;
#SELECTABLE:YES;
#DISPLAYBPM:120.000000;
#BPMS:0.000000=120.358002
,96.000000=120.244003
,100.000000=110.320999
,101.000000=120.389000
,148.000000=120.248009
,156.000000=121.732010
;
#STOPS:
;
#BGCHANGES:;
#KEYSOUNDS:;
#ATTACKS:;

//---------------dance-single - ----------------
#NOTES:
     dance-single:
     :
     Beginner:
     2:
     0.088886,0.162338,0.056564,0.000000,0.000000,55.000000,50.000000,5.000000,0.000000,0.000000,0.000000,0.088886,0.162338,0.056564,0.000000,0.000000,55.000000,50.000000,5.000000,0.000000,0.000000,0.000000:
0000
0000
0000
0000
,
0000
0000
0000
0000
,
0000
0000
0000
0000
,
0000
0000
0000
0000
,
0000
0000
0000
0000
,
0000
0100
0000
0100
,
0000
0001
0000
0001
,
0000
1000
0000
1000
,
0000
0010
0000
0010
,
0010
0000
0000
0000
,
1000
0000
0000
0000
,
0001
0000
0000
0000
,
1000
0000
0000
0000
,
0001
0001
0000
0000
,
1000
1000
0000
0000
,
0010
0000
0100
0000
,
0010
0000
0100
0000
,
0001
0000
0000
0000
,
1000
0000
0000
0000
,
0001
0000
0000
0000
,
1000
0000
0000
0000
,
0100
0000
0000
0000
,
0001
0000
0000
0000
,
1000
1000
1000
1000
,
1000
0000
0000
0000
,
1001
0000
0000
0000
,
0001
0000
0000
0000
,
1000
0000
0000
0000
,
0010
0000
0000
0000
,
1001
0000
0000
0000
,
0010
0000
0000
0000
,
1000
0000
0000
0000
,
0100
0000
0000
0000
,
1001
0000
0000
0000
,
0010
0000
0000
0000
,
1000
0000
0000
0000
,
0001
0000
0000
0000
,
1001
0000
0000
0000
,
0010
0000
0000
0000
,
1000
1000
0000
0000
,
0001
0001
0000
0000
,
0110
0000
0000
0000
;

//---------------dance-single - ----------------
#NOTES:
     dance-single:
     :
     Easy:
     4:
     0.203629,0.231911,0.135753,0.000000,0.000000,126.000000,114.000000,12.000000,0.000000,0.000000,0.000000,0.203629,0.231911,0.135753,0.000000,0.000000,126.000000,114.000000,12.000000,0.000000,0.000000,0.000000:
0000
0000
0000
0000
,
0000
0000
0000
0000
,
0000
0000
0000
0000
,
0000
0000
0000
0000
,
0000
0010
0001
1000
,
1001
0000
1000
0100
,
0001
0100
1000
0100
,
0001
0100
1000
0100
,
0001
0100
1000
0001
,
1001
0000
0001
0000
,
0000
0000
1000
0000
,
0000
0000
0001
0000
,
0000
0000
1000
0000
,
0001
0000
1000
0000
,
1000
0000
0001
0000
,
0001
0001
1000
1000
,
0000
0000
1000
0001
,
1001
0001
0100
0100
,
1000
1000
0010
0010
,
0001
0001
0100
0100
,
1000
1000
0010
0010
,
0001
0000
0100
0000
,
1000
0000
0100
0000
,
0100
0010
0001
0001
,
0010
0100
1000
0001
,
1001
0000
0000
0100
,
0110
1000
0100
0001
,
0100
0000
1000
0001
,
0100
0010
1000
0001
,
1001
0000
0000
0010
,
0110
0001
0100
1000
,
0100
0000
1000
0001
,
0100
0010
1000
0001
,
1001
0000
0000
0010
,
0110
0010
0100
1000
,
0001
0000
1000
0001
,
0100
0010
1000
0001
,
1001
0000
0000
0010
,
0110
0010
0100
1000
,
0001
0000
1000
0001
,
0100
0010
0001
1000
,
1001
0000
0000
0000
;

//---------------dance-single - ----------------
#NOTES:
     dance-single:
     :
     Medium:
     7:
     0.263425,0.324675,0.158378,0.000000,0.000000,163.000000,149.000000,14.000000,0.000000,0.000000,0.000000,0.263425,0.324675,0.158378,0.000000,0.000000,163.000000,149.000000,14.000000,0.000000,0.000000,0.000000:
0000
0000
0000
0000
,
0000
0000
0000
0000
,
0000
0000
0000
0000
,
0000
0000
0000
0000
,
0000
0010
0001
1000
,
1001
0000
0000
0000
1000
0000
1000
0100
,
0001
0000
0100
0000
0001
0000
0001
0100
,
1000
0000
0100
0000
1000
0000
1000
0100
,
0001
0100
1000
0001
,
1001
0001
0000
0001
,
0000
1000
0000
1000
,
0000
0001
0000
0001
,
0000
1000
0000
1000
,
0001
0010
0001
0000
0100
0000
0000
0000
,
1000
0100
1000
0000
0010
0000
0000
0000
,
0001
0100
1000
0000
1000
0100
0001
0000
,
0000
0000
1000
0001
,
1001
0001
0100
0100
,
1000
1000
0010
0010
,
0001
0010
0001
0000
0100
0001
0100
0000
,
1000
0100
1000
0000
0010
1000
0010
0000
,
1000
0100
0001
0000
0101
0000
0000
0000
,
0001
0100
1000
0000
1100
0000
0000
0000
,
0100
0010
0001
0001
,
0010
0100
1000
0001
,
1001
0000
0000
0000
0000
0010
0100
0010
,
0110
0000
0100
0000
1000
0000
1000
0100
,
0001
0000
0000
0000
1000
0100
0001
0000
,
0100
0010
1000
0001
,
1001
0000
0000
0000
0000
0100
0010
0100
,
0110
0000
0100
0000
0001
0000
0001
0100
,
1000
0000
0000
0000
0001
0100
1000
0000
,
0100
0010
0001
1000
,
1001
0000
0000
0000
0000
0010
0100
0010
,
0110
0010
0100
0001
,
1000
0000
0000
0000
1000
0100
0001
0000
,
0100
0010
1000
0001
,
1001
0000
0000
0000
0000
0100
0010
0100
,
0110
0010
0100
1000
,
0001
0000
0000
0000
0001
0100
1000
0000
,
0100
0010
0001
1000
,
1001
0000
0000
0000
;

//---------------dance-single - ----------------
#NOTES:
     dance-single:
     :
     Hard:
     9:
     0.347462,0.394249,0.248880,0.000000,0.000000,215.000000,193.000000,22.000000,0.000000,0.000000,0.000000,0.347462,0.394249,0.248880,0.000000,0.000000,215.000000,193.000000,22.000000,0.000000,0.000000,0.000000:
0000
0000
0000
0000
,
0000
0000
0000
0000
,
0000
0000
0000
0000
,
0000
0000
0000
0000
,
0000
0010
0011
1100
,
1001
0000
0001
0100
1000
0000
1000
0100
,
0001
0000
0001
0100
1000
0000
1000
0100
,
0001
0000
0001
0100
1000
0000
1000
0100
,
0001
0100
1100
0011
,
1001
0100
0001
0100
,
1000
0100
0001
0100
,
0001
0000
0100
0000
0010
1000
0100
0000
,
1000
0000
0100
0000
0010
0001
0100
0000
,
0001
0010
0001
0010
0100
0000
0000
0000
,
1000
0100
1000
0100
0010
0000
0000
0000
,
0001
0100
1000
0000
1000
0100
0001
0000
,
0000
0000
1000
0001
,
1001
0001
0100
0100
,
1000
1000
0010
0010
,
0001
0010
0001
0010
0100
0001
0100
0001
,
1000
0000
0000
0010
,
1000
0100
0001
0100
0101
0000
0010
0000
,
0001
0100
1000
0100
1100
0000
0100
1000
,
1000
0100
0010
0001
0001
0010
0100
1000
,
1000
0000
0010
0001
0100
0010
1000
0000
,
1001
0000
0000
0000
0000
0010
0100
0010
,
0110
0000
0001
0100
1000
0000
1000
0100
,
0001
0000
0000
0000
1000
0100
0001
0100
,
0101
0000
0010
1000
0100
0010
0001
0000
,
1001
0000
0000
0000
0000
0100
0010
0100
,
0110
0000
1000
0100
0001
0000
0001
0100
,
1000
0000
0000
0000
0001
0100
1000
0100
,
1100
0000
0010
0001
0100
0010
1000
0000
,
1001
0000
0000
0000
0000
0010
0100
0010
,
0110
0000
0010
0010
0100
0100
0001
0001
,
1000
0000
0000
0000
1000
0100
0001
0100
,
0101
0000
0010
1000
0100
0010
0001
0000
,
1001
0000
0000
0000
0000
0100
0010
0100
,
0110
0000
0010
0010
0100
0100
1000
1000
,
0001
0000
0000
0000
0001
0100
1000
0100
,
1100
0000
0100
0010
0001
0100
1000
0000
,
1001
0000
0000
0000
;

//---------------dance-double - ----------------
#NOTES:
     dance-double:
     :
     Easy:
     3:
     0.193932,0.255102,0.067876,0.000000,0.000000,120.000000,114.000000,6.000000,0.000000,0.000000,0.000000,0.193932,0.255102,0.067876,0.000000,0.000000,120.000000,114.000000,6.000000,0.000000,0.000000,0.000000:
00000000
00000000
00000000
00000000
,
00000000
00000000
00000000
00000000
,
00000000
00000000
00000000
00000000
,
00000000
00000000
00000000
00000000
,
00000000
00000000
00000000
00000000
,
00000000
00000000
00000000
01000000
,
00000000
00010000
00000000
01000000
,
00000000
10000000
00000000
00100000
,
00000000
00010000
00000000
00001000
,
00000000
00000100
00000000
00000001
,
00000000
00000100
00000000
00001000
,
00000000
00000010
00000000
00000100
,
00000000
00000001
00000100
00001000
,
00000000
00010000
00000000
01000000
,
00000000
10000000
00000000
00010000
,
01000000
10000000
00100000
00010000
,
00001000
00010000
00100000
10000000
,
00000000
01000000
00000000
00100000
,
00000000
01000000
00000000
00010000
,
00000000
00001000
00000000
01000000
,
00000000
10000000
01000000
00010000
,
00000000
00001000
00000000
00000010
,
00000000
00001000
00000000
00010000
,
00000100
00000001
00000100
00001000
,
00010000
01000000
00100000
00100000
,
10010000
01000000
00010000
00001000
,
00000100
00000100
00000010
00000001
,
00001000
00000100
00000010
00000001
,
00001000
00000100
00000100
00000100
,
00001001
00000100
00001000
00010000
,
01000000
01000000
00100000
10000000
,
00010000
01000000
00100000
10000000
,
00010000
01000000
01000000
01000000
,
01100000
00010000
00001000
00000100
,
00010000
00000100
00000001
00000001
,
00000110
00001000
00000100
00000001
,
00001000
00000100
00000100
00000100
,
00000110
00001000
00010000
01000000
,
00001000
01000000
00100000
00100000
,
01100000
00010000
01000000
10000000
,
00010000
01000000
01000000
10000000
,
01000000
00000000
00000000
00000000
;

//---------------dance-double - ----------------
#NOTES:
     dance-double:
     :
     Medium:
     4:
     0.234335,0.255102,0.067876,0.000000,0.000000,145.000000,139.000000,6.000000,0.000000,0.000000,0.000000,0.234335,0.255102,0.067876,0.000000,0.000000,145.000000,139.000000,6.000000,0.000000,0.000000,0.000000:
00000000
00000000
00000000
00000000
,
00000000
00000000
00000000
00000000
,
00000000
00000000
00000000
00000000
,
00000000
00000000
00000000
00000000
,
00000000
00000000
00000000
00000000
,
00000000
10000000
00010000
01000000
,
00000000
00010000
10000000
01000000
,
00000000
00100000
00010000
00001000
,
00000000
00000010
00001000
00000100
,
00000000
00000001
00000100
00001000
,
00000000
00001000
00000100
00000001
,
00000100
00001000
01000000
10000000
,
01000000
00010000
00001000
00000100
,
00000001
00000100
00001000
00000100
,
00001000
00000100
00000001
00000100
,
00000010
00000001
00000100
00001000
,
00010000
01000000
00010000
00001000
,
00000100
00010000
00000100
00010000
,
01000000
00001000
01000000
00001000
,
00000100
00010000
01000000
10000000
,
00010000
10000000
00010000
01000000
,
10000000
00100000
00010000
00001000
,
00000100
00010000
00100000
00001000
,
00000100
00000100
00010000
00000100
,
00000001
00000001
00001000
00001000
,
00000101
00000010
00000100
00001000
,
00000001
00000010
00001000
00010000
,
00100000
00010000
00001000
00000100
,
00010000
01000000
10000000
10000000
,
00110000
10000000
01000000
00010000
,
01000000
10000000
01000000
01000000
,
00010000
00001000
01000000
00001000
,
01000000
10000000
00100000
01000000
,
10100000
00010000
00001000
00000100
,
00000101
00001000
00010000
00100000
,
10000000
00100000
00010000
00100000
,
10000000
01000000
00010000
00100000
,
11000000
00010000
00001000
00000010
,
00000011
00001000
00010000
01000000
,
00001000
00000100
00010000
00000100
,
00010000
00000100
00000001
00000010
,
00000100
00000000
00000000
00000000
;

//---------------dance-double - ----------------
#NOTES:
     dance-double:
     :
     Hard:
     7:
     0.368472,0.440631,0.090502,0.000000,0.000000,228.000000,220.000000,8.000000,0.000000,0.000000,0.000000,0.368472,0.440631,0.090502,0.000000,0.000000,228.000000,220.000000,8.000000,0.000000,0.000000,0.000000:
00000000
00000000
00000000
00000000
,
00000000
00000000
00000000
00000000
,
00000000
00000000
00000000
00000000
,
00000000
00000000
00000000
00000000
,
00000000
00000000
00000000
00000000
,
10000000
01000000
00100000
00010000
,
00001000
00000100
00010000
00000010
,
00010000
01000000
00001000
00100000
,
00001000
00000100
00000010
00000001
,
00001000
00000001
00000100
00000000
00000001
00001000
00000100
00000000
,
00001000
00000001
00000100
00000000
00000001
00001000
00000100
00000000
,
00000010
00000001
00000100
00000001
00000010
00000001
00000100
00001000
,
00010000
01000000
10000000
00100000
10000000
01000000
10000000
00000000
,
00010000
10000000
01000000
00000000
10000000
00010000
01000000
00000000
,
00010000
10000000
01000000
00000000
10000000
00010000
01000000
00000000
,
00100000
10000000
01000000
10000000
00100000
10000000
01000000
00010000
,
00001000
00000100
00000001
00000010
00000001
00000100
00000001
00000000
,
00001000
00010000
10000000
00010000
,
00001000
00000001
00001000
00010000
,
01000000
00001000
00000100
00010000
,
01000000
00001000
00000100
00010000
,
10000000
00001000
00000001
00010000
,
10000000
00001000
00000001
00010000
,
00100000
00001000
00000010
00010000
,
01000000
10000000
00010000
01000000
,
00100000
10000000
01010000
00000000
10000000
00010000
01000000
00000000
,
00100000
00010000
01000000
00000000
01100000
10010000
01100000
00000000
,
00010000
00001000
00010000
00001000
00000100
00001000
00000100
00000001
,
00000100
00000001
00000010
00000001
00000010
00000100
00000010
00000000
,
00000010
00000001
00001100
00000000
00000001
00001000
00000100
00000000
,
00000010
00001000
00000100
00000000
00000110
00001001
00000110
00000000
,
00001000
00010000
00001000
00010000
01000000
00010000
01000000
10000000
,
01000000
10000000
00100000
10000000
00100000
01000000
00100000
00000000
,
00100000
10000000
00010000
01000000
00010000
10000000
00100000
01000000
,
00100000
00100000
10000000
10000000
00010000
00010000
01000000
01000000
,
00100000
00010000
00001000
00010000
01000000
00010000
00001000
00000010
,
00001000
00010000
00001000
00000100
00000001
00000010
00001000
00000000
,
00000010
00000001
00001000
00000100
00001000
00000001
00000010
00000100
,
00000010
00000010
00000001
00000001
00001000
00001000
00000100
00000100
,
00000010
00001000
00010000
00001000
00000100
00001000
00010000
00100000
,
00010000
00001000
00010000
01000000
10000000
00100000
00010000
00100000
,
01000000
00000000
00000000
00000000
;

//---------------dance-single - ----------------
#NOTES:
     dance-single:
     :
     Challenge:
     12:
     0.470286,0.488498,0.192316,0.158378,0.254536,291.000000,274.000000,17.000000,14.000000,0.000000,0.000000,0.470286,0.488498,0.192316,0.158378,0.254536,291.000000,274.000000,17.000000,14.000000,0.000000,0.000000:
// measure 0
0000
0000
0000
0000
,  // measure 1
0000
0000
0000
0000
,  // measure 2
0000
0000
0000
0000
,  // measure 3
0000
0000
0000
0000
,  // measure 4
0000
0010
0100
0010
0001
0010
1000
0001
,  // measure 5
0010
0000
0001
0000
0100
0000
0001
0100
0000
0000
0100
0000
0010
0000
1000
0010
,  // measure 6
0000
0000
0100
0000
0001
0000
1000
0100
0000
0000
0010
0000
1000
0000
0001
0010
,  // measure 7
0000
0000
0100
0000
0010
0000
1000
0001
0000
0000
0010
0000
0100
0000
0001
1000
,  // measure 8
0000
0100
0010
0100
0001
0100
1000
0100
,  // measure 9
0020
0000
0000
0130
0001
1000
0001
0100
,  // measure 10
0000
0100
1000
0010
0000
0110
0110
0100
,  // measure 11
0001
1000
0001
0010
0100
1000
0000
2000
,  // measure 12
0000
0000
0000
0000
0000
0000
3001
0000
0000
0000
0000
0000
0010
0000
0001
0010
0000
0000
0100
0000
0000
0010
0000
0000
,  // measure 13
1000
0001
0100
0001
0000
0011
0000
1010
,  // measure 14
0000
0101
0000
1100
0000
0000
1000
0001
,  // measure 15
0000
0000
1002
0000
0000
0000
0010
0000
0000
0100
0000
0000
1003
0000
0000
0000
,  // measure 16
0001
0000
0000
0010
0000
0000
0100
0000
0000
1000
0000
0000
0010
0000
0100
0010
0000
0000
0100
0000
0000
0010
0000
0000
,  // measure 17
1000
0000
0001
0100
0000
1000
0010
0100
,  // measure 18
0002
0000
0013
0200
0000
1000
1300
0100
,  // measure 19
1000
0010
0100
0001
1000
0100
0001
0100
,  // measure 20
0000
0000
0000
0000
0000
0000
1100
0000
0000
0000
0000
0000
0001
0000
0100
0001
0000
0000
0200
0000
0000
0300
0000
0000
,  // measure 21
0010
1000
0010
0000
0100
0000
0002
0000
0000
0000
1003
0000
0100
0000
0010
0000
,  // measure 22
0001
0100
0001
0000
0100
0000
0020
0000
0000
0000
1030
0000
0001
0000
0010
0000
,  // measure 23
0100
0000
0100
0000
1000
0000
1000
0000
0010
0000
0010
0000
0100
0010
0100
0000
,  // measure 24
0001
0000
0000
0001
0010
0000
0000
0010
0100
0000
0000
0100
1000
0000
0000
1000
,  // measure 25
0001
0000
0011
0000
0100
1000
0100
0001
,  // measure 26
0010
0000
0100
0000
1000
0000
0010
0000
1000
0010
1000
0010
1000
0010
1000
0010
,  // measure 27
1000
0000
1100
0000
0100
1000
0010
0100
,  // measure 28
0001
0000
0000
0001
0100
0000
0000
0100
1000
0000
0000
1000
0010
0000
0000
0010
,  // measure 29
0001
0000
1001
0000
0001
0010
1000
0010
,  // measure 30
0001
0000
0100
0000
1000
0000
0010
0000
1000
0100
1000
0100
1000
0100
1000
0100
,  // measure 31
1000
0000
0101
0000
0100
1000
0001
0100
,  // measure 32
0010
0000
0000
0010
0100
0000
0000
0100
0001
0000
0000
0001
1000
0000
0000
1000
,  // measure 33
0010
0000
0110
0000
0100
0001
0100
1000
,  // measure 34
0010
0000
0100
0000
0001
0000
0010
0000
0100
0001
0100
0001
0100
0001
0100
0001
,  // measure 35
0100
0000
1010
0000
1000
0010
0001
0100
,  // measure 36
1000
0000
0000
1000
0100
0000
0000
0100
0010
0000
0000
0010
0001
0000
0000
0001
,  // measure 37
0010
0000
1010
0000
0010
0001
0100
1000
,  // measure 38
0001
0000
0100
0000
0010
0000
1000
0000
0010
0001
0010
0001
0010
0001
0010
0001
,  // measure 39
0010
0000
0101
0000
0100
1000
0001
0010
,  // measure 40
0200
1300
0020
0130
0002
0013
2000
3001
,  // measure 41
2002
3003
0000
0000
0000
0000
0000
0000
;
