#TITLE:SKY HIGH;
#SUBTITLE:;
#ARTIST:LUCYFER;
#TITLETRANSLIT:;
#SUBTITLETRANSLIT:;
#ARTISTTRANSLIT:;
#GENRE:;
#CREDIT:;
#BANNER:SKY HIGH.png;
#BACKGROUND:SKY HIGH-bg.png;
#LYRICSPATH:;
#CDTITLE:;
#MUSIC:SKY HIGH.ogg;
#OFFSET:0.000000;
#SAMPLESTART:40.472000;
#SAMPLELENGTH:15.000000;
#SELECTABLE:YES;
#DISPLAYBPM:160.000000;
#BPMS:0.000000=160.000000
;
#STOPS:
;
#BGCHANGES:;
#KEYSOUNDS:;
#ATTACKS:;

//---------------dance-single - ----------------
#NOTES:
     dance-single:
     :
     Easy:
     6:
     0.349157,0.352144,0.128637,0.011694,0.000000,209.000000,198.000000,11.000000,1.000000,0.000000,0.000000,0.349157,0.352144,0.128637,0.011694,0.000000,209.000000,198.000000,11.000000,1.000000,0.000000,0.000000:
0000
0000
0000
0000
,
0000
0000
0000
0000
,
0000
0000
0000
0000
,
0000
0000
0000
0000
,
0000
0000
0000
0000
,
0010
0010
0010
0010
,
0001
0001
1000
1000
,
0100
0100
0100
0100
,
1000
1000
0001
0001
,
0010
0010
0001
1000
,
0100
0100
0100
0000
,
0010
0001
0001
0100
,
0010
1001
0100
0100
,
0010
0010
0100
0010
,
0001
0100
1000
1000
,
0010
1000
1000
0100
,
0010
1001
0100
0100
,
0010
0010
0100
0010
,
1000
0100
0001
0001
,
1001
0010
0001
0010
,
1000
0100
0010
0010
,
1001
0010
0100
1000
,
0100
0001
0100
0100
,
1001
0100
1000
0100
,
1001
0100
0001
0100
,
1000
0010
0001
0100
,
0010
0100
1001
0100
,
0010
1001
0100
0100
,
0001
0100
0010
0100
,
1000
0100
0010
0100
,
0001
0001
1000
0100
,
0010
1001
0100
0100
,
1000
0100
0010
0100
,
0001
0100
0010
0100
,
1000
1000
0001
0100
,
0010
0010
0010
0010
,
0100
0100
0100
0100
,
1000
0110
0001
0001
,
0010
1000
0010
0100
,
0010
0001
0010
0001
,
0010
0100
1000
0100
,
0001
0110
1000
1000
,
0010
0001
0010
0100
,
0010
1000
0010
1000
,
0010
0100
0001
0100
,
0010
0010
0010
0010
,
0100
0010
0100
0100
,
1000
0100
0010
0001
,
0100
0100
0100
0100
,
0001
0010
0100
1000
,
0010
0010
0010
0010
,
1000
0100
0010
0001
,
0010
0100
1000
0100
,
1000
1000
0001
0100
,
0010
0010
0020
0030
;

//---------------dance-single - ----------------
#NOTES:
     dance-single:
     :
     Medium:
     9:
     0.437700,0.480196,0.362522,0.023389,0.000000,262.000000,231.000000,31.000000,2.000000,0.000000,0.000000,0.437700,0.480196,0.362522,0.023389,0.000000,262.000000,231.000000,31.000000,2.000000,0.000000,0.000000:
0000
0000
0000
0000
,
0000
0000
0000
0000
,
0000
0000
0000
0000
,
0000
0000
0000
0000
,
0000
0000
0000
0000
,
0010
0010
0001
1000
,
0100
0000
0100
0000
0001
0100
0100
0000
,
0010
1000
0001
0010
,
0100
0000
1000
0000
1001
0000
0001
1000
,
0100
0010
0001
0100
,
1000
1000
1000
0000
,
0010
0000
0100
0000
0010
0100
0001
0000
,
0010
0000
0100
0000
0010
0100
1000
0000
,
0101
1100
0001
0100
,
0101
1100
0001
0100
,
0001
0000
0100
0000
0001
1000
0100
0000
,
0001
0100
1000
0000
0100
0000
0001
0000
,
0010
0001
0010
0000
0100
0000
0100
0000
,
1000
0001
0010
1001
,
0010
0000
0100
0000
0010
1000
0100
0000
,
0100
1000
0010
0000
0100
0000
0010
0000
,
0001
0000
0010
0000
0001
1000
0100
0000
,
0100
1000
0001
0000
0010
0000
0001
0000
,
0100
0000
0010
0100
0001
0000
0010
0100
,
1000
0000
0010
0100
0001
0000
1001
0000
,
0011
1100
0010
0001
,
0101
1010
0001
0100
,
1000
0000
1001
0000
0010
0001
0100
0000
,
1001
0100
0001
0100
,
1010
0100
0010
0001
,
1000
0100
0001
0000
0001
0100
1000
0000
,
0001
0000
1001
0000
0010
1000
0100
0000
,
1001
0100
1000
0100
,
0011
0100
0010
1000
,
0001
0100
1000
0000
1000
0100
0001
0000
,
1010
0001
0001
0001
,
0101
1000
0101
1000
,
0010
0000
1001
0000
0010
1000
0100
0000
,
0011
1000
0101
1000
,
0010
1000
0100
0000
0010
0000
0100
0000
,
0010
0001
0010
0000
0010
0100
1000
0000
,
0010
0000
1001
0000
0010
0001
0100
0000
,
1010
0001
1100
0001
,
0010
0001
0100
0000
0010
0000
0100
0000
,
0010
1000
0010
0000
0010
0100
0001
0000
,
0010
0000
0010
0000
1000
0100
0100
0000
,
0010
0000
0010
0000
0001
0100
0100
0000
,
1000
0100
0001
0001
,
1000
0000
0100
0000
0001
0100
1000
0000
,
0001
0100
1000
1000
,
0001
0000
0100
0000
1000
0100
0001
0000
,
0010
0100
1100
0101
,
0010
0000
1001
0000
0100
0000
0010
1000
,
0001
0100
1000
0010
,
0101
1000
2200
3300
;

//---------------dance-single - ----------------
#NOTES:
     dance-single:
     :
     Hard:
     12:
     0.568007,0.545464,0.257274,0.011694,0.000000,340.000000,318.000000,22.000000,1.000000,0.000000,0.000000,0.568007,0.545464,0.257274,0.011694,0.000000,340.000000,318.000000,22.000000,1.000000,0.000000,0.000000:
0000
0000
0000
0000
,
0000
0000
0000
0000
,
0000
0000
0000
0000
,
0000
0000
0000
0000
,
0000
0000
0000
0000
,
0010
1000
0010
0001
0010
0100
1000
0000
,
0101
0000
1010
0000
0001
1000
0100
0000
,
0010
0001
0010
1000
0010
0100
0001
0000
,
1100
0000
0011
0000
1000
0100
0010
0001
,
1000
1100
0001
0101
,
0010
1000
0100
0010
1000
0000
0000
0000
,
0001
0100
1000
0001
0010
1000
0001
0000
,
1000
0010
0001
0000
1000
0100
0001
0000
,
0110
1000
0001
0000
0100
0000
0101
1000
,
0010
0000
0100
0000
1010
0001
0100
0000
,
0010
1000
0100
0010
0100
1000
0001
0000
,
1000
0100
0100
0000
0001
0100
0100
0000
,
0110
1000
0001
0000
1100
0000
1010
0100
,
0001
0000
0101
0000
1010
0100
1000
0000
,
0010
1000
0001
0010
0100
1000
0001
0010
,
1000
0001
0100
1000
0010
0100
0001
0000
,
0010
0100
0001
0010
1000
0001
0100
1000
,
0010
0100
0001
0010
0100
1000
0001
0000
,
1100
0001
0101
1000
,
1000
0010
0100
0001
0010
0100
1000
0000
,
1100
0000
0011
0000
0001
0100
1000
0000
,
0101
0000
1000
0000
0010
1000
0001
0000
,
0010
1000
0100
0000
0010
0001
0100
0000
,
0010
1000
0100
0010
0001
0100
0010
0000
,
0010
0100
0001
1000
0100
0010
0001
0100
,
0010
1000
0001
0010
0100
1000
0001
0000
,
0001
0100
1000
0000
1000
0100
0001
0000
,
0001
0100
1000
0100
0001
0100
1000
0000
,
0010
1000
0100
0010
0100
1000
0001
0100
,
0010
1000
0100
0010
0100
1000
0001
0000
,
0010
0100
0001
0000
0010
0100
1000
0000
,
0010
0100
0001
0010
0100
1000
0010
0000
,
1000
0010
0001
0000
0001
0010
1000
0000
,
1000
0010
0001
0010
1000
0010
0001
0000
,
0100
0001
1000
0100
0001
0100
0010
0001
,
1000
0010
0100
0001
0010
0100
1000
0000
,
0010
1000
0001
0000
0010
0001
1000
0000
,
0010
1000
0001
0010
0001
1000
0010
0000
,
1000
0010
0100
0001
0010
1000
0010
0100
,
0001
0100
0010
0100
1000
0001
0100
0000
,
1100
0000
0101
0000
0001
0100
1000
0100
,
0000
0001
0100
0000
0010
1000
0100
0000
,
0010
1000
0100
0001
0100
0010
1000
0000
,
1000
0010
0100
0000
0001
0010
0100
0000
,
0001
0010
1000
0001
0100
1000
0010
0000
,
0010
0100
0001
0000
0010
0100
1000
0000
,
0001
0010
0100
1000
0001
0010
0100
0000
,
0010
0001
0100
0000
0010
0100
0001
1000
,
0100
0001
0101
1000
,
0010
1000
0001
0100
0020
0000
0000
0030
;

//---------------dance-double - ----------------
#NOTES:
     dance-double:
     :
     Easy:
     4:
     0.357510,0.382402,0.222191,0.000000,0.000000,214.000000,195.000000,19.000000,0.000000,0.000000,0.000000,0.357510,0.382402,0.222191,0.000000,0.000000,214.000000,195.000000,19.000000,0.000000,0.000000,0.000000:
00000000
00000000
00000000
00000000
,
00000000
00000000
00000000
00000000
,
00000000
00000000
00000000
00000000
,
00000000
00000000
00000000
00000000
,
00000000
00000000
00000000
00000000
,
00100000
10000000
00100000
01000000
,
00010000
00010000
01000000
01000000
,
00010000
00010000
00001000
00001000
,
00000100
00000100
00000001
00000001
,
00000010
00000001
00000010
00000100
,
00001000
00001000
00001000
00000000
,
00000010
00001001
00000100
00000001
,
00000110
00001000
00000100
00000001
,
00000010
00001000
00000100
00000100
,
00001000
00000010
00000001
00000001
,
00000100
00001000
00010000
00010000
,
00001000
00000100
00000100
00000100
,
00001000
00010000
00010000
00010000
,
01000000
01000000
10000000
00000000
,
10010000
01000000
00010000
01000000
,
00100000
10000000
00100000
00010000
,
01000000
01000000
10000000
01000000
,
10000000
10000000
01000000
00010000
,
01100000
10000000
01100000
10000000
,
01000000
01000000
00010000
01000000
,
10000000
01000000
00010000
00001000
,
00000100
00000100
00000000
00000000
,
00010000
01001000
00011000
00001000
,
00000100
00000100
00000001
00000100
,
00001000
00001000
00010000
01000000
,
10000000
10000000
01000000
00010000
,
00001000
00010100
00011000
00010000
,
01000000
01000000
10000000
01000000
,
00010000
00010000
00001000
00000100
,
00000001
00000001
00000100
00000100
,
00000010
00000010
00000010
00000010
,
00000100
00000100
00000100
00000100
,
00000010
00001001
00000100
00000001
,
00000100
00001000
00000100
00001000
,
00000100
00001000
00010000
00010000
,
01000000
01000000
10000000
10000000
,
00100000
10010000
01000000
10000000
,
01000000
00010000
01000000
00010000
,
01000000
00010000
00001000
00001000
,
00000100
00000100
00000001
00000001
,
00000010
00001001
00000100
00000100
,
00000010
00001001
00000100
00000100
,
00000110
00000001
00000110
00000001
,
00000100
00001000
00010000
01000000
,
01100000
10000000
01100000
10000000
,
00100000
00100000
00100000
00100000
,
01100000
10000000
01100000
10000000
,
01000000
00010000
00001000
00000100
,
00000001
00000001
00000100
00001000
,
00010000
00010000
00010000
00000000
;

//---------------dance-double - ----------------
#NOTES:
     dance-double:
     :
     Medium:
     6:
     0.464429,0.509870,0.584713,0.000000,0.000000,278.000000,228.000000,50.000000,0.000000,0.000000,0.000000,0.464429,0.509870,0.584713,0.000000,0.000000,278.000000,228.000000,50.000000,0.000000,0.000000,0.000000:
00000000
00000000
00000000
00000000
,
00000000
00000000
00000000
00000000
,
00000000
00000000
00000000
00000000
,
00000000
00000000
00000000
00000000
,
00000000
00000000
00000000
00000000
,
10000000
01000000
00010000
00001000
,
00000100
00000000
00000010
00000000
00001000
00000001
00000100
00000000
,
00000001
00000100
00001000
00010000
,
01000000
00000000
00100000
00000000
00010000
10000000
01000000
00000000
,
00010000
00001000
00010000
01000000
,
00010000
00001000
00000100
00000000
,
00001000
00010000
01100000
10000000
,
00110000
10000000
01000000
00100000
,
00010000
00001000
00000100
00000000
00000001
00000000
00000001
00000000
,
00000010
00001000
00010000
00000000
01000000
00000000
01000000
00000000
,
00001000
00101000
00010000
01000000
,
00010000
00001000
00010000
01000000
,
00010000
00001000
00000100
00000000
00000110
00000000
00000001
00000000
,
00000010
00001000
00000100
00000000
,
00000010
00001000
00000001
00000000
00000101
00000000
00001010
00000000
,
00010010
00011000
01000000
00100000
,
00001000
00010000
01000000
00000000
10000000
00000000
00110000
00000000
,
00101000
00010000
11000000
00010000
,
00100000
00010000
00001000
00000000
00010000
01000000
00100000
00000000
,
00110000
01010000
10000000
01000000
,
00010000
00001000
00000100
00000000
00000101
00000000
00001010
00000000
,
00000100
00000100
00000000
00000000
,
00001001
00000000
00000100
00000000
00000010
00000001
00000100
00000000
,
00001010
00000000
00010010
00000000
00001000
00000100
00000001
00000000
,
00001000
00000000
00010000
00000000
01000000
00100000
00010000
00000000
,
00101000
00000000
00110000
00000000
10000000
01000000
00010000
00000000
,
01100000
00000000
10000000
00000000
01000000
00010000
00001000
00000000
,
00010010
00000000
00001010
00000000
00001000
00000001
00000100
00000000
,
00000011
00000000
00000101
00000000
00000010
00001000
00010000
00000000
,
00010100
00000000
00011000
00000000
00001000
00000100
00000001
00000000
,
00000010
00000000
00001001
00000000
00000001
00000100
00001000
00000000
,
00010000
01000000
10000000
00000000
10010000
00000000
00100000
00000000
,
01010000
00000000
10000000
00000000
01000000
00010000
00001000
00000000
,
00010100
00000000
00011000
00000000
00001000
00000100
00000001
00000000
,
00001100
00000000
00000001
00000000
00000100
00001000
00010000
00000000
,
01001000
00000000
00011000
00000000
00010000
01000000
10000000
00000000
,
00100000
00000000
10010000
00000000
00100000
00010000
01000000
00000000
,
10100000
00000000
00010000
00000000
00100000
00010000
00001000
00000000
,
00010010
00000000
00011000
00000000
00010000
00001000
00000010
00000000
,
00000110
00000000
00001000
00000000
00000001
00000100
00001000
00000000
,
00000010
00000000
00001001
00000000
00000001
00000100
00001000
00000000
,
00010000
01000000
10000000
00000000
10010000
00000000
00100000
00000000
,
10000000
01000000
00010000
00001000
,
00101000
00000000
00011000
00000000
00001000
00000100
00000001
00000000
,
00000001
00000100
00001000
00010000
,
00010010
00000000
00011000
00000000
00010000
01000000
10000000
00000000
,
10000000
00100000
00010000
00001000
,
00010100
00000000
00011000
00000000
00001000
00000100
00000001
00000000
,
00000001
00000010
00001000
00010000
,
00010100
00001100
00000001
00000000
;

//---------------dance-double - ----------------
#NOTES:
     dance-double:
     :
     Hard:
     8:
     0.531254,0.541737,0.409299,0.000000,0.000000,318.000000,283.000000,35.000000,0.000000,0.000000,0.000000,0.531254,0.541737,0.409299,0.000000,0.000000,318.000000,283.000000,35.000000,0.000000,0.000000,0.000000:
00000000
00000000
00000000
00000000
,
00000000
00000000
00000000
00000000
,
00000000
00000000
00000000
00000000
,
00000000
00000000
00000000
00000000
,
00000000
00000000
00000000
00000000
,
00100000
00010000
10000000
01000000
00010000
00001000
00000100
00000000
,
00000110
00000001
00000100
00001000
,
00000010
00001000
00000001
00000100
00001000
00010000
01000000
00000000
,
01100000
10000000
01000000
00010000
,
00100000
10000000
01000000
00100000
00010000
10000000
01000000
00010000
,
00001000
00000100
00000010
00001000
00000001
00000000
00000000
00000000
,
00000011
00000000
00001000
00000000
00000010
00010000
00001000
00000000
,
00000110
00000000
00000001
00000000
00000100
00001000
00010000
00000000
,
00100000
00001000
00010000
01000000
00100000
00010000
01000000
00000000
,
00001000
00010000
01000000
10000000
00100000
00010000
00001000
00000000
,
00101000
00000000
00110000
00000000
01000000
00010000
00100000
00000000
,
00101000
00000000
00011000
00000000
00001000
00000100
00000001
00000000
,
00001000
00000010
00000100
00000001
00000010
00001000
00010000
00000000
,
01000000
10000000
10000000
00000000
,
00100000
10000000
01000000
00000000
00100000
00000000
00010000
00000000
,
00101000
00011000
00010010
00011000
,
00001000
00000100
00000001
00000000
00001010
00000000
00000001
00000000
,
00001100
00000001
00000101
00001000
,
00000001
00000100
00001000
00000000
00001000
00000100
00000001
00000000
,
00000001
00000100
00001000
00010000
01000000
00100000
10000000
00000000
,
01100000
10000000
01100000
00010000
,
00001000
00000110
00000000
00000000
,
00000101
00000000
00001000
00000000
00000010
00001000
00000001
00000000
,
00000010
00000001
00001000
00000000
00000010
00001000
00000001
00000000
,
00000001
00001000
00000010
00000100
00000001
00000010
00000100
00010000
,
00000010
00001000
00000100
00000010
00001000
00010000
01000000
00000000
,
11000000
00000000
00010000
00000000
00100000
00010000
01000000
00000000
,
00100000
10000000
01000000
00000000
00100000
00010000
01000000
00000000
,
10000000
01000000
00010000
00001000
00100000
00010000
01000000
00100000
,
00010000
00001000
00000010
00000100
00001000
00000010
00000001
00000000
,
00001000
00000000
00000101
00000000
00000010
00001000
00010000
00000000
,
00000010
00001000
00010000
00000000
00000010
00001000
00010000
00000000
,
01100000
00000000
10000000
00000000
00100000
01000000
00010000
00000000
,
00100000
01000000
10000000
00000000
00100000
01000000
00010000
00000000
,
10000000
00100000
00010000
00001000
01000000
00010000
00100000
01000000
,
00010000
00001000
00000100
00000001
00001000
00000100
00000010
00000000
,
00001001
00000000
00000010
00000000
00000100
00000010
00001000
00000000
,
00000100
00000010
00000001
00000000
00000100
00000010
00001000
00000000
,
00000001
00000100
00001000
00010000
01000000
10000000
00100000
00010000
,
00001000
00100000
00010000
01000000
00100000
00010000
00001000
00000000
,
01001000
00000000
00011000
00000000
00001000
00000100
00000001
00000000
,
00001010
00000001
00000101
00001000
,
00000010
00001000
00010000
00001000
00000100
00000001
00000010
00000000
,
00000101
00000000
00001000
00000000
00010000
01000000
10000000
00000000
,
00100000
00010000
00001000
00010000
01000000
10000000
00100000
00000000
,
11000000
00000000
00010000
00000000
00001000
00000100
00000001
00000000
,
00000010
00000100
00001000
00010000
00100000
01000000
10000000
00000000
,
01100000
00000000
10010000
00000000
01000000
00010000
00001000
00000000
,
00010100
00011000
01001000
00011000
,
00001000
00000100
00000001
00000000
;

//---------------dance-couple - ----------------
#NOTES:
     dance-couple:
     :
     Challenge:
     8:
     0.384240,0.541737,0.280662,0.000000,0.000000,230.000000,206.000000,24.000000,0.000000,0.000000,0.000000,0.384240,0.541737,0.280662,0.000000,0.000000,230.000000,206.000000,24.000000,0.000000,0.000000,0.000000:
00000000
00000000
00000000
00000000
,
00000000
00000000
00000000
00000000
,
00000000
00000000
00000000
00000000
,
00000000
00000000
00000000
00000000
,
00000000
00000000
00000000
00000000
,
00100010
10000000
00100010
00010000
00100010
01000000
10000010
00000000
,
01010010
00000000
10100010
00000000
00010010
10000000
01000010
00000000
,
00100010
00001000
00100010
00000001
00100010
00000100
00101000
00000000
,
00100101
00000000
00101010
00000000
00100001
00001000
00100100
00000000
,
11001100
00010001
01010101
10001000
,
00100010
10011001
01000100
00000000
,
00100010
00000100
00001000
00000001
00100100
00000010
00001000
00000000
,
00100001
00000010
00001000
00000000
00100001
00000100
00001000
00000000
,
00100010
00001000
00000100
00000000
00100100
00000000
00000100
00001000
,
00100010
00000000
00000010
00000000
00100010
00001000
00000001
00000000
,
00100010
01000000
10000000
00010000
01000010
00100000
10000000
00000000
,
00010010
00100000
10000000
00000000
00010010
01000000
10000000
00000000
,
00100010
10000000
01000000
00000000
01000010
00000000
01000000
10000000
,
00100010
00000000
00100000
00000000
00100010
10000000
00010000
00000000
,
01000010
00000000
00000100
00000000
01000010
00001000
00000100
00000000
,
01000100
00001000
00000010
00000000
01000100
00000000
00000010
00000000
,
00100100
00000000
01000000
00000000
00100100
10000000
01000000
00000000
,
01000100
10000000
00100000
00000000
01000100
00000000
00100000
00000000
,
01010101
10001000
11001100
00010001
,
01000100
10001000
00100010
00010001
,
00100010
00100010
10011001
01000100
,
01000100
01000100
10011001
00100010
,
01000100
00000000
10010000
00000000
00100100
10000000
00010000
00000000
,
01100100
10000000
00010100
01000000
,
10100100
01000000
00110100
01000000
,
10000100
01000000
00010000
00000000
00010100
01000000
10000000
00000000
,
01000100
00000000
00001001
00000000
01000010
00001000
00000001
00000000
,
01000110
00001000
01000001
00000100
,
01001010
00000100
01000011
00000100
,
01001000
00000100
00000001
00000000
01000001
00000100
00001000
00000000
,
00100010
01000100
01010101
10001000
,
11001100
00010001
11001100
00010001
,
00100100
00000000
10010000
00000000
01000100
00100000
00010000
00000000
,
01100100
00000000
10010000
00000000
00100100
01000000
10000000
00000000
,
00100100
10000000
01000000
00010000
01000100
00100000
00010000
10000000
,
00100100
00010000
00100000
01000000
00010100
00100000
01000000
00000000
,
01000010
00000000
00001001
00000000
01000100
00000010
00000001
00000000
,
01000110
00000000
00001001
00000000
01000010
00000100
00001000
00000000
,
01000010
00001000
00000100
00000001
01000100
00000010
00000001
00001000
,
01000010
00000001
00000010
00000100
01000001
00000010
00000100
00000000
,
10011001
01000100
10011001
01000100
,
00100010
10001000
01000100
00010001
,
01000010
00000100
00000001
00001000
01000100
00000010
00000001
00001000
,
01000100
00000010
00000001
00000100
01000010
00001000
00000100
00000000
,
00100100
01000000
00010000
10000000
01000100
00100000
00010000
10000000
,
01000100
00100000
00010000
01000000
00100100
10000000
01000000
00000000
,
00100010
01000100
00010001
00100010
01000100
10001000
00100010
01000100
,
00010001
10001000
01000100
00100010
00010001
10001000
01000100
00000000
,
01010101
10001000
11001100
00010001
,
00100010
01000100
10011001
00000000
;

//---------------dance-solo - ----------------
#NOTES:
     dance-solo:
     :
     Easy:
     4:
     0.375887,0.414269,0.315745,0.000000,0.000000,225.000000,198.000000,27.000000,0.000000,0.000000,0.000000,0.375887,0.414269,0.315745,0.000000,0.000000,225.000000,198.000000,27.000000,0.000000,0.000000,0.000000:
000000
000000
000000
000000
,
000000
000000
000000
000000
,
000000
000000
000000
000000
,
000000
000000
000000
000000
,
000000
000000
000000
000000
,
000100
000100
001000
001000
,
000100
000010
000001
001000
,
000100
000100
001000
001000
,
000100
010000
000100
000010
,
010000
000010
000001
100000
,
000100
000100
001000
000000
,
000100
000010
000001
001000
,
000001
000100
000010
000001
,
001000
001000
000100
001000
,
100000
001000
000001
001000
,
000100
010000
100000
001000
,
100000
000100
010000
100000
,
001000
001000
000100
001000
,
000001
001000
100000
001000
,
000100
010000
000010
000100
,
100001
000100
001000
000001
,
000010
100000
000100
010010
,
000001
100000
010000
000001
,
000100
100001
001000
100001
,
010010
100001
000100
001000
,
000001
000001
001000
100000
,
100000
000100
010010
100001
,
000100
010010
000001
100000
,
000100
000001
000100
001000
,
100000
000001
001000
000100
,
100001
000100
001000
100001
,
000100
010010
000100
000001
,
000100
100000
000100
010000
,
100000
000100
000010
000001
,
000100
010000
000010
000100
,
100001
001000
001000
001000
,
100001
000100
000100
000100
,
001000
100001
000100
010010
,
100001
000100
001000
000100
,
000001
000100
100000
010010
,
000001
100000
000100
000001
,
001000
100001
000100
000001
,
000010
010000
000100
100000
,
001000
000100
000001
100000
,
000100
001000
000001
100001
,
001000
000001
001000
000001
,
100000
100000
100000
100000
,
000010
010000
100001
001000
,
000100
000100
000100
000100
,
001000
001000
100001
000100
,
000010
010000
100001
000100
,
001000
000001
100000
001000
,
100001
001000
100001
001000
,
000010
010000
100001
010010
,
000100
100000
000001
000000
;

//---------------dance-solo - ----------------
#NOTES:
     dance-solo:
     :
     Medium:
     6:
     0.395934,0.446136,0.116943,0.000000,0.000000,237.000000,227.000000,10.000000,0.000000,0.000000,0.000000,0.395934,0.446136,0.116943,0.000000,0.000000,237.000000,227.000000,10.000000,0.000000,0.000000,0.000000:
000000
000000
000000
000000
,
000000
000000
000000
000000
,
000000
000000
000000
000000
,
000000
000000
000000
000000
,
000000
000000
000000
000000
,
000100
010000
000100
000010
,
000001
000000
001000
000000
000100
001000
000001
000000
,
100000
010000
000001
001000
,
000100
000000
010000
000000
000010
000000
000100
000001
,
001000
100000
010000
000001
,
000100
100000
100000
000000
,
000010
000100
000001
001000
,
100000
010000
000001
001000
,
000100
010000
100000
000000
000100
000000
000001
000000
,
000100
000010
000001
000000
000100
000000
100000
000000
,
010010
100001
000100
000001
,
010000
000001
000100
001000
,
000010
100000
000001
000000
000100
000000
100000
000000
,
000001
001000
100000
000000
,
010000
000100
100000
000000
001000
100000
000001
000000
,
000100
000010
000001
001000
,
000010
000100
000001
000000
001000
000001
100000
000000
,
000100
010000
100000
001000
,
100001
000000
000100
000010
010000
000000
000100
010000
,
000010
000000
000100
000010
010000
000000
100001
000000
,
000100
100000
001000
000001
,
000100
000100
000000
000000
,
000001
000000
100000
000000
000010
001000
000001
000000
,
000100
100000
010000
000001
,
000100
010000
000001
000000
001000
000000
100000
000000
,
000100
000010
100000
000000
001000
000000
000001
000000
,
000100
000000
100000
000000
000010
000100
001000
000000
,
100000
000001
001000
100000
,
000100
010000
000001
000000
001000
000000
100000
000000
,
000100
000010
100000
000000
001000
000000
000001
000000
,
000100
010000
000010
000000
001000
000000
001000
000000
,
001000
000001
100000
000000
000100
000000
000100
000000
,
001000
000000
000100
000000
000001
100000
001000
000000
,
000101
100000
000010
100000
,
000010
010000
001000
000000
100000
000000
000100
000000
,
010000
000010
001000
000000
000001
000000
000100
000000
,
101000
000000
000101
000000
010000
000010
000001
000000
,
000100
100000
010000
000001
,
000010
001000
000001
000000
000100
000000
001000
000000
,
010000
001000
100000
000000
000100
000000
000001
000000
,
000100
000001
010000
000000
101000
000000
000101
000000
,
000010
000100
001000
000000
000001
010000
100000
000000
,
010000
000010
001000
000001
,
100000
000000
001000
000000
000100
000001
100000
000000
,
000100
010000
000010
000100
,
100000
000000
010000
000000
000001
000100
100000
000000
,
010000
001100
100000
000001
,
000010
000000
100000
000000
010000
000000
000001
000100
,
001000
100000
000100
000001
,
000100
100000
000010
000000
;

//---------------dance-solo - ----------------
#NOTES:
     dance-solo:
     :
     Hard:
     8:
     0.527913,0.509870,0.152025,0.000000,0.000000,316.000000,303.000000,13.000000,0.000000,0.000000,0.000000,0.527913,0.509870,0.152025,0.000000,0.000000,316.000000,303.000000,13.000000,0.000000,0.000000,0.000000:
000000
000000
000000
000000
,
000000
000000
000000
000000
,
000000
000000
000000
000000
,
000000
000000
000000
000000
,
000000
000000
000000
000000
,
100000
001000
000100
001000
010000
001000
100000
001000
,
000100
000000
000001
000000
001000
000001
000100
000000
,
000001
001000
000100
001000
000010
001000
000001
001000
,
000100
000000
100000
000000
001000
100000
000100
010000
,
001000
101000
000101
001000
,
010000
000001
100000
000100
001000
000000
000000
000000
,
000100
000010
000001
000000
000100
010000
100000
000000
,
000010
010000
000100
000000
100001
000000
001000
000000
,
010000
000100
100000
001000
000100
100000
010000
000000
,
000010
010000
000100
001000
000001
100000
001000
000000
,
000010
100000
000100
000000
010000
000001
000100
000000
,
000001
001000
100000
000000
000001
000000
100000
000000
,
010000
000001
001000
000100
100000
000001
001000
000000
,
000100
010000
000010
000000
,
100001
000000
001000
000000
000100
000010
001000
000000
,
001000
000001
000100
000000
000100
000010
001000
000000
,
100001
000000
001000
000000
000100
010000
001000
000000
,
001000
100000
000100
000000
000100
010000
001000
000000
,
100001
000000
000100
010000
000010
000000
000100
000001
,
100000
000000
001000
100000
000001
000000
010010
000000
,
000010
100000
000100
000000
100000
001000
000001
000000
,
100000
100000
000000
000000
,
010000
000100
010000
000001
100000
000001
001000
000000
,
000100
010000
001000
100000
000001
001000
000100
000000
,
100000
000100
000001
000000
010000
000010
000100
000000
,
000001
100000
000100
000000
001001
000000
100000
000000
,
000010
100000
000010
010000
000001
010000
001000
000000
,
000001
001000
100000
001000
000010
100000
000001
000000
,
000010
000100
000001
000000
010000
000100
100000
000000
,
000100
010000
000010
000000
100001
000000
000100
000000
,
010000
000010
000100
000001
001000
100000
001000
000000
,
000001
010000
001000
100000
000100
001000
000001
000000
,
000100
010000
100000
000000
010000
000100
100000
000000
,
000100
100000
001000
000000
100000
001000
100000
000000
,
010000
000001
001000
000100
100000
001000
000001
001000
,
010000
000001
001000
000100
100000
001000
000001
000000
,
000100
000010
000001
000000
000010
000100
000001
000000
,
000100
000001
001000
000000
000001
001000
000001
000000
,
000010
100000
001000
000100
000001
001000
100000
001000
,
000010
100000
001000
000100
000001
001000
100000
000000
,
000100
000000
000100
000000
100000
000001
001000
000000
,
100000
000100
000001
000100
100000
000010
010000
000000
,
000100
100000
000100
010000
000010
000100
000001
000100
,
001000
000000
100001
000000
000100
010000
000010
000000
,
001000
000001
001000
000010
010000
001000
100000
001000
,
000100
000000
100001
000000
000010
100000
001000
000000
,
000100
100000
001000
000100
000001
001000
000100
010000
,
000010
000000
100001
000000
000100
001000
000001
100000
,
001000
000000
100001
000000
000100
100000
001000
000000
,
010000
000001
000100
001000
100000
000000
000000
000000
;

//---------------dance-single - ----------------
#NOTES:
     dance-single:
     :
     Beginner:
     3:
     0.113601,0.224091,0.000000,0.046777,0.000000,68.000000,68.000000,0.000000,4.000000,0.000000,0.000000,0.113601,0.224091,0.000000,0.046777,0.000000,68.000000,68.000000,0.000000,4.000000,0.000000,0.000000:
0000
0000
0000
0000
,
0000
0000
0000
0000
,
0000
0000
0000
0000
,
0000
0000
0000
0000
,
0000
0000
0000
0000
,
0100
0000
0000
0000
,
0000
0000
0000
0000
,
1000
0000
0000
0000
,
0000
0000
0000
0000
,
0020
0000
0000
0000
,
0000
0000
0030
0000
,
0001
0000
0000
0000
,
0000
0000
0000
0000
,
1000
0000
0000
0000
,
0000
0000
0000
0000
,
0010
0000
0000
0000
,
0000
0000
0000
0000
,
0100
0000
0000
0000
,
0000
0000
0000
0000
,
0001
0000
0000
0000
,
1000
0000
0000
0000
,
0010
0000
0000
0000
,
0100
0000
0000
0000
,
0001
0001
0001
0000
,
1000
1000
1000
0000
,
0010
0010
0010
0000
,
0100
0100
0100
0000
,
0010
0100
0000
0000
,
0001
0000
1000
0000
,
0010
0100
0000
0000
,
1000
0000
0001
0000
,
0010
0010
0000
0000
,
0100
0000
0001
0000
,
1000
0000
0000
0000
,
0100
0000
0000
0000
,
0020
0000
0000
0030
,
0000
0000
0000
0000
,
0010
0010
0000
0000
,
0100
0000
0001
0000
,
1000
0001
1000
0000
,
0010
0000
0000
0000
,
0100
0010
0000
0000
,
0001
1000
0001
0000
,
0100
0000
0000
0000
,
0000
0000
0000
0000
,
0020
0030
0000
0000
,
0010
0010
0000
0000
,
1000
0000
0001
0000
,
1000
0000
0001
0000
,
0100
0000
0010
0000
,
0100
0000
0010
0000
,
1000
0000
0001
0000
,
0100
0000
0010
0000
,
0020
0000
0000
0000
,
0000
0000
0000
0030
;

//---------------dance-single - ----------------
#NOTES:
     dance-single:
     :
     Challenge:
     16:
     0.863705,0.928378,0.268968,0.385911,0.912153,517.000000,494.000000,23.000000,33.000000,0.000000,0.000000,0.863705,0.928378,0.268968,0.385911,0.912153,517.000000,494.000000,23.000000,33.000000,0.000000,0.000000:
// measure 0
0000
0000
0000
0000
,  // measure 1
0000
0000
0000
0000
,  // measure 2
0000
0000
0000
0000
,  // measure 3
0000
0000
0000
0000
,  // measure 4
0000
0000
0000
0000
,  // measure 5
0010
1000
0010
0000
0001
0100
0001
0000
0010
1000
0010
0000
0001
0100
0001
0000
,  // measure 6
0010
1000
0000
1000
0000
1000
0000
1000
0100
0000
0010
0000
0001
0000
0000
0000
,  // measure 7
1000
0100
1000
0000
0010
0001
0010
0000
1000
0100
1000
0000
0010
0001
0010
0000
,  // measure 8
1000
0010
0000
0010
0000
0010
0000
0010
0100
0000
0001
0000
1000
0000
0000
0000
,  // measure 9
1000
0001
0200
0000
0301
1000
0200
0000
1300
0001
0200
0000
0301
1000
0200
0000
,  // measure 10
1300
0001
0100
1000
0010
0100
0001
0010
0200
0000
0000
0000
0300
0000
0000
0000
,  // measure 11
1000
0100
0010
0000
1000
0100
0010
0000
1000
0100
0010
0000
1000
0010
0100
0000
,  // measure 12
0010
0000
0100
0001
0010
0000
0001
0000
0010
0000
0100
0000
1000
0010
0100
0000
,  // measure 13
0001
0000
0010
0001
0100
0000
0010
0000
0100
0000
0010
0000
0100
0010
1000
0000
,  // measure 14
0010
0000
1000
0000
0001
0000
1000
0000
0100
1000
0010
0000
1000
0000
0000
0000
,  // measure 15
0001
0010
0100
0000
0001
0010
0100
0000
0001
0010
0100
0000
0001
0100
0010
0000
,  // measure 16
1000
0000
0010
0100
0001
0000
0100
0000
0010
0000
1000
0000
0010
0100
0001
0000
,  // measure 17
0100
0000
0010
0100
1000
0000
0100
0000
0010
0000
0001
0100
0010
0000
1000
0000
,  // measure 18
0000
1010
0000
2002
0000
3003
0000
0000
,  // measure 19
1001
0000
0001
0100
0010
0000
0100
0010
1000
0000
0010
0100
0001
0000
1000
0010
,  // measure 20
0100
0000
1000
0001
0100
0000
0001
0010
0100
0000
1000
0100
0010
0000
0000
0000
,  // measure 21
0011
0000
0001
0010
0100
0000
0010
0100
1000
0000
1000
0100
0010
0000
0100
0010
,  // measure 22
0001
0000
1000
0010
0100
0000
0010
0100
0001
0000
0001
0100
0010
0000
1000
0001
,  // measure 23
1000
0100
1000
0001
1000
0000
0010
0000
0001
0010
0001
1000
0001
0100
0001
0000
,  // measure 24
0100
0010
0100
1000
0100
0010
0100
0000
0010
0000
0100
0001
1000
0001
0100
0000
,  // measure 25
0010
0100
0001
1000
0000
1010
0000
0011
,  // measure 26
0000
0000
0202
0000
0000
0000
0303
0000
0000
0000
0001
0010
0100
1000
0001
0010
,  // measure 27
0100
1000
0010
0000
0001
0010
0100
0000
1000
0000
0010
1000
0001
0000
0011
0000
,  // measure 28
0000
0000
0001
1000
0100
0000
0110
0000
0000
0000
1000
0001
0100
0000
0010
0000
,  // measure 29
0000
0000
0220
0000
0030
0000
0301
0000
1000
0000
0100
0010
0001
0000
0020
0000
,  // measure 30
0000
0000
0031
1000
0100
0000
0020
0000
0000
0000
1030
0001
0100
0000
0010
0000
,  // measure 31
0001
1000
0100
0000
0010
0100
0001
0000
1000
0000
0010
1000
0001
0000
1001
0000
,  // measure 32
0000
0000
1000
0100
0010
0000
0110
0000
0000
0000
0100
0010
0001
0000
0010
0000
,  // measure 33
0000
0000
2002
0000
3000
0000
0103
0000
0001
0000
0010
0100
1000
0000
0020
0000
,  // measure 34
0000
0000
0130
0001
1000
0000
0020
0000
0000
0000
0130
1000
0001
0000
0010
0000
,  // measure 35
1000
0010
0000
0010
0000
0100
0000
0100
0010
1000
0000
1000
0001
0000
0100
0000
,  // measure 36
0001
0010
0000
0010
0000
1000
0000
1000
0010
0000
0100
0000
0001
0000
0000
0000
,  // measure 37
1000
0100
0010
0000
1000
0100
0010
0000
0020
0000
0031
0010
0100
0000
1000
0000
,  // measure 38
1001
0000
1000
0100
0010
0000
0001
0000
0011
0000
0010
0100
1000
0000
0001
0000
,  // measure 39
0000
0000
1001
0000
0001
0000
1000
0000
0100
0000
1000
0010
0100
0000
0002
0000
,  // measure 40
0000
0000
1003
0010
0100
0000
0020
0000
0000
0000
0031
0100
0010
0000
1000
0000
,  // measure 41
0010
1000
0001
0000
0010
1000
0001
0000
0200
0000
0301
0010
0100
0000
1000
0000
,  // measure 42
1001
0000
1000
0010
0100
0000
0001
0000
0101
0000
0001
0100
0010
0000
1000
0000
,  // measure 43
0000
0000
1001
0000
1000
0000
0001
0000
1000
0000
0001
0010
0100
0000
2000
0000
,  // measure 44
0000
0000
3001
0010
0100
0000
0200
0000
0000
0000
1300
0100
0010
0000
0001
0000
,  // measure 45
1000
0010
0000
1000
0000
0001
0000
1000
0100
0000
0010
0000
0001
0000
0000
0000
,  // measure 46
0001
0010
0000
0001
0000
1000
0000
0001
0100
0000
0001
0000
1000
0000
0000
0000
,  // measure 47
1000
0010
0100
0000
0010
0100
0001
0000
1000
0100
0010
0000
0100
0010
0001
0000
,  // measure 48
1000
0100
0010
0001
1000
0100
0010
0001
0010
0001
1000
0100
0010
0001
0100
0000
,  // measure 49
0001
0010
0100
0000
0010
0100
1000
0000
0001
0100
0010
0000
0100
0010
1000
0000
,  // measure 50
0010
1000
0001
1000
0100
0010
0001
1000
0010
0100
0001
1000
0100
0010
0001
0000
,  // measure 51
1000
0010
0100
0000
0010
0100
0001
0000
1000
0100
0010
0000
0100
0010
0001
0000
,  // measure 52
1000
0001
0010
0100
1000
0001
0100
0010
1000
0010
0100
0001
1000
0001
0100
0000
,  // measure 53
0220
0330
0001
0000
0220
0330
1000
0000
0220
0330
0001
0000
0220
0330
1000
0000
,  // measure 54
0001
0010
0100
1000
0001
0010
0001
0020
0002
0000
0000
0000
0033
0000
0000
0000
;
