#VERSION:0.83;
#TITLE:SINCE U BEEN GONE;
#SUBTITLE:;
#ARTIST:KELLY CLARKSON;
#TITLETRANSLIT:;
#SUBTITLETRANSLIT:;
#ARTISTTRANSLIT:;
#GENRE:;
#ORIGIN:;
#CREDIT:;
#BANNER:SINCE U BEEN GONE.png;
#BACKGROUND:SINCE U BEEN GONE-bg.png;
#PREVIEWVID:;
#JACKET:;
#CDIMAGE:;
#DISCIMAGE:;
#LYRICSPATH:;
#CDTITLE:;
#MUSIC:SINCE U BEEN GONE.ogg;
#OFFSET:0.000000;
#SAMPLESTART:44.848999;
#SAMPLELENGTH:15.000000;
#SELECTABLE:YES;
#BPMS:0.000=131.000;
#STOPS:;
#DELAYS:;
#WARPS:;
#TIMESIGNATURES:0.000=4=4;
#TICKCOUNTS:0.000=4;
#COMBOS:0.000=1;
#SPEEDS:0.000=1.000=0.000=0;
#SCROLLS:0.000=1.000;
#FAKES:;
#LABELS:0.000=Song Start;
#BGCHANGES:;
#KEYSOUNDS:;
#ATTACKS:
;

//---------------dance-single - ----------------
#NOTEDATA:;
#CHARTNAME:;
#STEPSTYPE:dance-single;
#DESCRIPTION:;
#CHARTSTYLE:;
#DIFFICULTY:Easy;
#METER:5;
#RADARVALUES:0.192289,0.213562,0.074190,0.190775,0.000000,127.000000,120.000000,7.000000,18.000000,0.000000,0.000000,0.000000,0.000000,0.000000,0.192289,0.213562,0.074190,0.190775,0.000000,127.000000,120.000000,7.000000,18.000000,0.000000,0.000000,0.000000,0.000000,0.000000;
#CREDIT:;
#NOTES:
0000
0000
0000
0000
,
0000
0000
0000
0000
,
0000
0000
0000
0000
,
1000
0000
0001
0000
,
0100
0100
0001
0000
,
0001
0000
0100
0000
,
0010
0010
1000
0000
,
0000
0110
0010
0000
,
0000
0000
1000
0001
,
1000
0000
1000
0000
,
0100
0000
1001
0000
,
0001
0000
1000
0000
,
0100
0100
1000
0000
,
1000
0000
0001
0000
,
0100
0100
0010
0000
,
0000
1001
1000
0000
,
0000
0000
0001
1000
,
0001
0000
0001
0000
,
0100
0000
0110
0000
,
1000
0100
0010
0001
,
0000
1000
0100
0010
,
0002
0003
0200
0300
,
0000
0000
1000
0001
,
1000
0100
0010
0001
,
0000
0000
0001
0001
,
1000
0100
2000
3000
,
0002
0003
0100
0100
,
0010
1000
0020
0030
,
0200
0300
0001
0001
,
1000
0100
2000
3000
,
0020
0030
0100
0100
,
0002
0003
1000
0010
,
0020
0030
0100
0100
,
2002
0000
3003
0000
,
0110
0000
1000
0010
,
0100
0000
0001
0000
,
1000
0000
0001
0100
,
0010
0000
1000
0000
,
0001
0000
0010
0100
,
0200
0300
1000
0001
,
0002
0003
0100
0010
,
0020
0030
1000
0001
,
0002
0003
1000
0010
,
0100
0000
0100
0000
,
1001
0000
0000
0000
,
1000
0000
1000
0001
,
1000
0000
1000
0000
,
0010
0000
0100
0010
,
0100
0000
0100
0000
,
0001
0000
0001
2000
,
0002
0000
0000
3003
0000
0000
0000
0000
;

//---------------dance-single - ----------------
#NOTEDATA:;
#CHARTNAME:;
#STEPSTYPE:dance-single;
#DESCRIPTION:;
#CHARTSTYLE:;
#DIFFICULTY:Medium;
#METER:7;
#RADARVALUES:0.283134,0.373733,0.275564,0.169578,0.000000,187.000000,161.000000,26.000000,16.000000,0.000000,0.000000,0.000000,0.000000,0.000000,0.283134,0.373733,0.275564,0.169578,0.000000,187.000000,161.000000,26.000000,16.000000,0.000000,0.000000,0.000000,0.000000,0.000000;
#CREDIT:;
#NOTES:
0000
0000
0000
0000
,
0000
0000
0000
0000
,
0000
0000
0000
0000
,
1010
0100
0001
0001
,
0100
0010
1000
0100
,
0110
0001
1000
1000
,
0100
0010
0100
0001
,
0100
0110
1100
0000
,
0000
0000
0000
0000
1000
0001
0100
0020
,
0000
0000
0030
0000
,
1100
0000
0000
0101
0000
0000
0000
0000
,
0011
0100
1000
1000
,
0100
0010
0001
0100
,
0110
1000
0001
0001
,
0100
0010
0100
1000
,
0100
0110
0101
0000
,
0000
0000
0000
0000
0001
1000
0010
0200
,
0000
0000
0300
0000
,
1001
0000
0100
0010
,
1100
0000
0000
0101
0000
0000
0110
0000
,
0000
1000
0010
0100
,
0100
0001
0010
0000
,
1001
0000
0010
0100
,
0101
0000
0000
1100
0000
0000
0110
0000
,
0000
0000
0001
0100
,
0010
1000
0010
0000
0010
0000
1001
0000
,
1100
0000
0101
0000
0001
0100
0001
0000
,
0010
0000
0100
1000
0200
0000
0000
0320
,
0000
0030
0001
0100
,
0010
0100
0010
0000
0110
0000
0000
1001
,
0000
0000
0010
0100
,
0002
0000
0000
0003
0000
1000
0100
2000
,
0000
3000
0010
0100
,
0001
0000
0010
0000
0100
0010
0001
0000
,
2000
0000
0000
3002
0000
0000
0013
0000
,
0010
0000
0100
1000
0200
0000
0000
0320
,
0000
0030
0001
0100
,
0010
0100
0010
0000
0110
0000
0000
1001
,
0000
0000
0010
0100
,
0002
0000
0000
0003
0000
1000
0100
2000
,
0000
3000
0010
0100
,
0002
0000
0000
0003
0000
1000
0010
2000
,
0000
0000
3010
0000
0100
0001
0100
0020
,
0000
1000
1000
1030
,
1001
0000
0100
0000
,
0010
0000
0000
0000
1000
0100
1000
0000
,
0100
0100
0010
0010
,
0001
0000
0000
0000
0001
0100
0001
0000
,
0100
0100
0010
0010
,
1000
0000
0000
0000
0100
0010
0100
0020
,
0000
0000
0000
0030
0000
0000
0000
0000
;

//---------------dance-single - ----------------
#NOTEDATA:;
#CHARTNAME:;
#STEPSTYPE:dance-single;
#DESCRIPTION:;
#CHARTSTYLE:;
#DIFFICULTY:Hard;
#METER:11;
#RADARVALUES:0.402747,0.427124,0.158979,0.190775,0.000000,266.000000,251.000000,15.000000,18.000000,0.000000,0.000000,0.000000,0.000000,0.000000,0.402747,0.427124,0.158979,0.190775,0.000000,266.000000,251.000000,15.000000,18.000000,0.000000,0.000000,0.000000,0.000000,0.000000;
#CREDIT:;
#NOTES:
0000
0000
0000
0000
,
0000
0000
0000
0000
,
0000
0000
0000
0000
,
1000
0000
0001
0000
0100
0010
1000
0000
,
1000
0100
0010
0001
0000
0100
0101
0000
,
0001
0000
1000
0000
0010
0100
0001
0010
,
0100
1000
0100
1100
0000
0101
0000
0000
,
1000
0000
0001
0000
0100
0010
1000
0000
,
0001
0000
1000
0000
0010
0100
0001
0020
,
0000
0000
0100
0000
0001
0001
0031
0000
,
1000
0010
0100
0001
0000
0100
0110
0000
,
0001
0000
0100
0000
0010
1000
0100
0000
,
1000
0010
0001
0010
0000
1000
1001
0000
,
1000
0000
0010
0000
0100
0001
0010
1000
,
0010
0001
1000
0110
0000
1010
0000
0000
,
0001
0000
0100
0000
0010
1000
0100
0000
,
1000
0000
0010
0000
0100
0001
0010
0200
,
0000
1000
0001
1300
,
0100
0010
0100
0010
0001
1000
0010
0100
,
0002
0000
0000
2003
0000
0000
3020
0000
,
0000
0000
0130
0000
0100
0010
1000
0100
,
0001
0000
0100
0220
0000
0000
0330
0000
,
1000
0000
0001
0000
0100
0010
1000
0001
,
2000
0000
0010
3020
0000
0130
0200
0000
,
0000
0000
0301
0000
0100
0001
0010
0100
,
1000
0010
1000
0100
0001
0100
1000
0010
,
0000
0000
0100
0000
0010
0100
0001
1000
,
0000
0010
0100
0001
1000
0001
0010
0000
,
0100
0000
1001
0000
0001
0100
0010
1000
,
0100
0000
0100
0000
0102
0000
0000
1003
,
0000
0000
0100
0000
0001
0100
0010
1000
,
0000
1000
0100
0001
0000
0001
0100
1000
,
0000
0010
0100
0001
1000
0010
0100
0001
,
0020
0001
1000
0031
,
2000
0010
3010
2000
0001
3001
2000
0100
,
3100
1000
0010
0100
0010
0000
1100
0000
,
0100
1000
0001
0000
1000
0010
0100
0001
,
0010
0000
0010
0000
2010
0000
0000
3001
,
0000
0000
0100
0000
0001
0100
0010
1000
,
0000
1000
0100
0001
0000
0001
0100
1000
,
0000
0010
0100
0001
0000
0001
0100
1000
,
0000
1000
0100
0001
0000
0100
0010
1000
,
0000
0100
0010
0001
0010
0001
1000
0100
,
2100
0010
0100
0010
,
3100
0000
0000
0000
,
0001
0000
0100
0000
0010
1000
0100
0010
,
0000
0000
0110
0000
0001
1000
0010
0000
,
0100
0000
0001
0000
1000
0010
0100
0010
,
0000
0000
1001
0000
0100
0001
1000
0000
,
0001
0000
0100
0000
0010
1000
0100
0020
,
0000
0000
0000
0030
0000
0000
0000
0000
;

//---------------dance-single - ----------------
#NOTEDATA:;
#CHARTNAME:;
#STEPSTYPE:dance-single;
#DESCRIPTION:;
#CHARTSTYLE:;
#DIFFICULTY:Beginner;
#METER:1;
#RADARVALUES:0.115071,0.160171,0.021197,0.052993,0.000000,76.000000,74.000000,2.000000,5.000000,0.000000,0.000000,0.000000,0.000000,0.000000,0.115071,0.160171,0.021197,0.052993,0.000000,76.000000,74.000000,2.000000,5.000000,0.000000,0.000000,0.000000,0.000000,0.000000;
#CREDIT:;
#NOTES:
0000
0000
0000
0000
,
0000
0000
0000
0000
,
0000
0000
0000
0000
,
1000
0000
0001
0000
,
1000
0000
0000
0000
,
0001
0000
1000
0000
,
0100
0100
0100
0000
,
0000
0010
0010
0000
,
0000
0000
0001
0000
,
0001
0000
0000
0000
,
0000
0000
0000
0000
,
0001
0000
1000
0000
,
0001
0000
0000
0000
,
0001
0000
0001
0000
,
0100
0100
0100
0000
,
0000
0010
0010
0000
,
0000
0000
1000
0000
,
0001
0000
0000
0000
,
0000
0000
0000
0000
,
0010
0000
0010
0000
,
0010
0000
0000
0000
,
1000
1000
1000
0000
,
0000
0000
0000
0000
,
0100
0000
0100
0000
,
0100
0000
0001
0001
,
0001
0000
0000
0000
,
1000
0000
0001
0000
,
1000
0000
0000
0000
,
0100
0000
0100
0000
,
0100
0000
0010
0000
,
0010
0000
0000
0000
,
0000
1000
1000
0000
,
0000
0001
0001
0000
,
1000
0000
0001
0000
,
1001
0000
0000
0000
,
0010
0000
0010
0000
,
0010
0000
0000
0000
,
1000
0000
0001
0000
,
1000
0000
0000
0001
,
0001
0000
0000
1000
,
1000
0000
0000
0001
,
0001
0000
0000
1000
,
1000
0000
0000
0100
,
0100
0000
0000
0000
,
0200
0000
0000
0300
,
0000
0000
0010
0000
,
0020
0000
0000
0030
,
0000
0000
0100
0000
,
0200
0000
0000
0300
,
0000
0000
1000
0000
,
2002
0000
0000
3003
0000
0000
0000
0000
;

//---------------dance-double - ----------------
#NOTEDATA:;
#CHARTNAME:;
#STEPSTYPE:dance-double;
#DESCRIPTION:;
#CHARTSTYLE:;
#DIFFICULTY:Easy;
#METER:3;
#RADARVALUES:0.207430,0.238469,0.084789,0.084789,0.000000,137.000000,129.000000,8.000000,8.000000,0.000000,0.000000,0.000000,0.000000,0.000000,0.207430,0.238469,0.084789,0.084789,0.000000,137.000000,129.000000,8.000000,8.000000,0.000000,0.000000,0.000000,0.000000,0.000000;
#CREDIT:;
#NOTES:
00000000
00000000
00000000
00000000
,
00000000
00000000
00000000
00000000
,
00000000
00000000
00000000
00000000
,
00000001
00000000
00001000
00000000
,
00000010
00000001
00000100
00000000
,
00001000
00010000
00001000
00010000
,
01000000
10000000
01000000
00000000
,
00000000
10000000
00020000
00000000
,
00030000
00000000
00010000
10000000
,
01000000
00000000
00010000
00000000
,
00001000
00000000
00000100
00000000
,
00000001
00000000
00001000
00000000
,
00000010
00000100
00000001
00000000
,
00000100
00001000
00000100
00001000
,
00010000
00001000
00010000
00000000
,
00000000
01000000
00200000
00000000
,
00300000
00000000
01000000
10000000
,
00010000
00000000
00100000
00000000
,
00001000
00000000
00001000
00000100
,
00000002
00000003
00002000
00003000
,
00000002
00000003
00000100
00001000
,
00010000
00000000
00011000
00000000
,
00000000
00000000
00010000
01000000
,
20000000
30000000
00020000
00030000
,
20000000
30000000
01000000
01000000
,
00010000
00010000
00001000
00001000
,
00011000
00000000
00001000
00000100
,
00001000
00010000
00001000
00000000
,
00000100
00000000
00000001
00000001
,
00000010
00000000
00001001
00000000
,
00000110
00000000
00000001
00000100
,
00001000
00000000
00001000
00010000
,
01000000
00000000
01000000
01000000
,
00010000
00010000
00001000
00001000
,
00011000
00000000
00001000
00010000
,
00001000
00000100
00001000
00000000
,
00000100
00000000
00000001
00000001
,
00000010
00000000
00001001
00000000
,
00000110
00000000
00000001
00000100
,
00001000
00000000
00001000
00010000
,
01000000
00000000
10000000
01000000
,
00010000
00000000
00010000
00001000
,
00000100
00000000
00000001
00000001
,
00000100
00000100
00001000
00001000
,
00011000
00000000
01000000
00000000
,
00010000
00000000
10000000
00100000
,
01000000
00000000
01000000
00000000
,
00010000
00000000
00010000
00100000
,
00001000
00000000
00001000
00000000
,
00000100
00000000
00000100
00000001
,
00001000
00000000
00000000
00000000
;

//---------------dance-double - ----------------
#NOTEDATA:;
#CHARTNAME:;
#STEPSTYPE:dance-double;
#DESCRIPTION:;
#CHARTSTYLE:;
#DIFFICULTY:Medium;
#METER:5;
#RADARVALUES:0.293733,0.343594,0.222571,0.105986,0.000000,194.000000,173.000000,21.000000,10.000000,0.000000,0.000000,0.000000,0.000000,0.000000,0.293733,0.343594,0.222571,0.105986,0.000000,194.000000,173.000000,21.000000,10.000000,0.000000,0.000000,0.000000,0.000000,0.000000;
#CREDIT:;
#NOTES:
00000000
00000000
00000000
00000000
,
00000000
00000000
00000000
00000000
,
00000000
00000000
00000000
00000000
,
00000100
00000001
00000100
00001000
,
00010000
00000000
01000000
10000000
01000000
00000000
00000000
00000000
,
10000000
00010000
01000000
00100000
,
01000000
00000000
00010000
00100000
00000000
00100000
00000000
00000000
,
00000000
00010000
00010100
00000000
,
00000000
00000000
00000000
00000000
00000001
00000100
00001000
00010000
,
00000000
00000000
00000000
00000000
,
00002000
00003000
02000000
03000000
,
00100000
10000000
01000000
00010000
,
00001000
00000000
00000100
00000001
00000000
00000000
00000000
00000000
,
00000001
00001000
00000100
00000010
,
00000100
00000000
00001000
00000010
00000000
00000010
00000000
00000000
,
00000000
00001000
01001000
00000000
,
00000000
00000000
00000000
00000000
10000000
01000000
00010000
00001000
,
00000000
00000000
00000000
00000000
,
00000000
00000000
00000000
00000010
00000001
00000100
00000010
00001000
,
00000100
00000000
00000000
00011000
00000000
00000000
00110000
00000000
,
00000000
00000000
00000000
10000000
01000000
00100000
00010000
00100000
,
00010000
00000000
00001000
00010000
00000000
00000000
00000000
00000000
,
00000000
00000000
00000000
00000010
00000001
00000100
00000010
00001000
,
00000100
00000000
00000000
00011000
00000000
00000000
00110000
00000000
,
00000000
00000000
01000000
00000000
10000000
01000000
00100000
00000000
,
01000000
10010000
01000000
10010000
,
10000000
00000000
01000000
00000000
00010000
00001000
00000100
00000000
,
00000100
00001001
00000100
00001001
,
00000001
00000000
00000100
00000000
00001000
00010000
01000000
00000000
,
01100000
00000000
00000000
00000000
00011000
00000000
00000000
00001010
,
00000000
00000000
00000000
00000000
00000001
00000100
00001000
00000000
,
00020000
00000000
00000000
00000000
01030000
10000000
00100000
00000000
,
20000000
00000000
00000000
00000000
31000000
00010000
01000000
00000000
,
00020000
00001000
00001000
00031000
,
00010000
00000100
00010000
00001000
00000000
00000000
00001000
00000000
,
00010000
00011000
00010000
00011000
,
00000010
00000000
00000100
00000000
00001000
00010000
01000000
00000000
,
01100000
00000000
00000000
00000000
00011000
00000000
00000000
00001010
,
00000000
00000000
00000000
00000000
00000001
00000100
00001000
00000000
,
00020000
00000000
00000000
00000000
01030000
10000000
00100000
00000000
,
20000000
00000000
30100000
01000000
,
00020000
00000000
00000000
00000000
10030000
01000000
00010000
00000000
,
00002000
00000000
00000000
00000000
00003100
00000001
00000010
00000000
,
00002000
00010000
00010000
00013000
,
00011000
00000000
01000000
00100000
,
10000000
00000000
01000000
00000000
00010000
00001000
00000100
00000000
,
00001001
00000000
00000100
00000010
,
00000001
00000000
00000100
00000000
00001000
00010000
01000000
00000000
,
10010000
00000000
01000000
00100000
,
10000000
00000000
01000000
00000000
00010000
00001000
00000100
00001000
;

//---------------dance-double - ----------------
#NOTEDATA:;
#CHARTNAME:;
#STEPSTYPE:dance-double;
#DESCRIPTION:;
#CHARTSTYLE:;
#DIFFICULTY:Hard;
#METER:7;
#RADARVALUES:0.426973,0.528606,0.222571,0.148381,0.000000,282.000000,261.000000,21.000000,14.000000,0.000000,0.000000,0.000000,0.000000,0.000000,0.426973,0.528606,0.222571,0.148381,0.000000,282.000000,261.000000,21.000000,14.000000,0.000000,0.000000,0.000000,0.000000,0.000000;
#CREDIT:;
#NOTES:
00000000
00000000
00000000
00000000
,
00000000
00000000
00000000
00000000
,
00000000
00000000
00000000
00000000
,
00011000
00000000
00001010
00000000
00001000
00000001
00000100
00000000
,
00001000
00000001
00000100
00000000
00001000
00000000
00010000
00000000
,
01000000
00000000
01000000
10000000
00100000
01000000
00100000
01000000
,
00100000
00000000
00010000
00001000
00000000
00010100
00000000
00000000
,
00001000
00000000
00000001
00000000
00001000
00000010
00000100
00000000
,
00000110
00000000
00001010
00000000
00001000
00000001
00001000
00000100
,
00000000
00000001
00000100
00001000
,
00010000
00000000
00001000
00010000
00000000
01000000
00010000
00000000
,
00011000
00000000
00110000
00000000
00010000
10000000
01000000
00000000
,
00010000
10000000
01000000
00000000
00010000
00000000
00001000
00000000
,
00000100
00000000
00000100
00000001
00000010
00000100
00000010
00000100
,
00000010
00000000
00001000
00010000
00000000
01001000
00000000
00000000
,
00010000
00000000
10000000
00000000
00010000
00100000
01000000
00000000
,
01100000
00000000
00110000
00000000
00010000
10000000
00010000
01000000
,
00000000
00000000
10000000
00000000
01000000
00100000
00001000
00000000
,
00001000
00000000
00010000
00000000
00001000
00000100
00000001
00000010
,
00000100
00000000
00001000
00000100
00000000
00010000
00001000
00000000
,
00011000
00000000
01001000
00000000
00010000
10000000
00010000
01000000
,
00100000
00000000
00010000
00001000
00000000
00000000
00000010
00000000
,
00000001
00000000
00000100
00000000
00001000
00000100
00001000
00010000
,
00001000
00000000
01000000
00100000
00000000
01000000
00010000
00000000
,
00000000
00000000
01010000
00000000
10000000
01000000
00100000
01000000
,
00010000
00001000
00000100
00000010
00000100
00000001
00000010
00000001
,
00001000
00000000
00010000
00000000
00010000
01000000
10000000
00000000
,
10000000
00100000
00010000
00100000
00010000
00001000
00010000
00001000
,
00000100
00000000
00000010
00000000
00001000
00000100
00000010
00000000
,
00000001
00000010
00001000
00000010
00001000
00010000
00001000
00010000
,
01000000
00000000
00100000
00000000
00010000
00010000
01000000
10000000
,
02000000
00000000
03002000
00000000
00013000
00010000
00001000
00000100
,
00002000
00000000
00023000
00000000
00031000
00000100
00000001
00000010
,
00000110
00000011
00000101
00001001
,
00001100
00000100
00010000
00011000
00010000
01000000
01100000
01000000
,
10000000
00100000
10000000
00100000
01000000
00000000
00010000
00000000
,
10000000
00000000
01000000
00000000
00100000
00010000
10000000
00000000
,
10000000
00100000
00010000
00100000
00010000
00001000
00010000
00001000
,
00000100
00000000
00000010
00000000
00001000
00001000
00000100
00000001
,
00000200
00000000
00020300
00000000
00031000
00001000
00010000
01000000
,
00020000
00000000
00032000
00000000
01003000
01000000
00100000
10000000
,
00200000
00000000
20300000
00000000
30010000
00010000
01000000
10000000
,
02000000
00000000
03002000
00000000
00013000
01000000
10000000
01000000
,
00010000
00010000
00001000
00001000
00000100
00000100
00000001
00000001
,
00002002
00000000
00000000
00003003
,
00000001
00000000
00000100
00000000
00001000
00000100
00001000
00010000
,
00000000
00000000
00001000
00000000
00000100
00000001
00000100
00000000
,
00001000
00000000
00010000
00000000
00001000
00010000
01000000
00010000
,
00000000
00000000
00001000
00000000
00010000
01000000
00010000
00000000
,
01000000
00000000
10000000
00000000
01000000
00010000
00001000
00010000
;

//---------------dance-single - ----------------
#NOTEDATA:;
#CHARTNAME:;
#STEPSTYPE:dance-single;
#DESCRIPTION:;
#CHARTSTYLE:;
#DIFFICULTY:Challenge;
#METER:16;
#RADARVALUES:0.941762,0.887501,0.328557,0.190775,1.144650,622.000000,591.000000,31.000000,18.000000,0.000000,0.000000,0.000000,0.000000,0.000000,0.941762,0.887501,0.328557,0.190775,1.144650,622.000000,591.000000,31.000000,18.000000,0.000000,0.000000,0.000000,0.000000,0.000000;
#CREDIT:;
#NOTES:
// measure 0
0000
0000
0000
0000
,  // measure 1
0000
0000
0000
0000
,  // measure 2
0000
0000
0000
0000
,  // measure 3
1000
0100
0010
0000
1000
0100
0010
0001
0010
0100
1000
0010
0100
0000
0010
1000
,  // measure 4
0100
0000
0010
0001
1000
0000
0010
0001
0100
0010
1000
0000
0100
0000
0010
0000
,  // measure 5
0001
0000
1000
0001
1000
0000
0001
0100
0001
0000
1000
0010
0100
0001
1000
0100
,  // measure 6
0020
0000
0001
0000
0031
0000
0020
0000
0000
0000
1000
0000
1030
0100
0010
0001
,  // measure 7
0100
0010
0100
0000
0010
1000
0100
0010
0001
0000
0010
0001
0100
0000
0010
1000
,  // measure 8
0100
0000
0010
1000
0100
0000
0010
0001
0100
0010
1000
0100
0010
0001
0100
0010
,  // measure 9
0100
0000
0010
1000
0010
0000
0001
0100
0001
0000
1000
0100
1000
0000
0010
1000
,  // measure 10
0010
0100
0001
1000
0100
0000
0010
0001
0010
0000
0001
1000
0100
0010
0001
1000
,  // measure 11
0020
0000
0100
0000
0001
0000
1030
0000
1010
0000
0101
0000
0011
0000
0001
0010
,  // measure 12
2000
0000
0100
0000
3010
0001
0100
1000
0020
0000
1000
0000
0130
0001
0010
1000
,  // measure 13
0200
0000
0001
0000
1300
0010
0100
0001
0020
0000
0100
0000
0031
0010
0100
1000
,  // measure 14
0010
0100
0010
0000
0001
0100
0001
0100
0010
0000
1000
0000
1010
0000
0000
0000
,  // measure 15
0010
1000
0010
0000
0001
0010
0001
0000
0010
1000
0010
0000
0001
0010
0001
0000
,  // measure 16
0100
1000
0100
0000
0001
0100
0001
0000
0100
1000
0100
1000
0001
0100
0001
0100
,  // measure 17
0010
1000
0010
0000
0001
0100
0001
0000
0010
1000
0010
0000
0001
0100
0001
0000
,  // measure 18
0010
1000
0010
1000
0200
0000
0010
0000
0010
0000
0310
0000
0110
0000
0110
0000
,  // measure 19
1000
0100
0010
0001
0100
0000
0001
0010
0100
1000
0010
0000
1000
0010
0100
0000
,  // measure 20
0001
1000
0001
0000
0010
0100
0010
0100
1000
0000
0010
0000
0100
0000
0001
0000
,  // measure 21
1000
0100
1000
0100
0010
0000
0001
0010
0001
0010
0100
0000
1000
0010
1000
0010
,  // measure 22
0001
0100
0001
0000
1000
0010
1000
0001
0010
0000
0100
0000
0001
0010
0001
0000
,  // measure 23
1000
0010
1000
0100
1000
0000
0010
0001
0010
0100
0010
0000
0001
1000
0100
0000
,  // measure 24
0010
0001
0100
0010
1000
0100
0010
0001
0200
0000
0001
0000
0001
0000
0301
0100
,  // measure 25
0001
0100
0001
0100
0001
0100
0001
0100
0001
0100
0001
0100
0001
0100
0001
0100
,  // measure 26
0001
0000
0010
1000
0100
0000
0010
0001
2000
0000
0001
0000
3100
0010
1000
0010
,  // measure 27
0200
0000
0010
0000
0301
0010
0100
1000
0020
0000
1000
0000
0130
0001
1000
0100
,  // measure 28
0002
0000
0010
0000
0103
0000
0010
0000
0001
0010
0001
0010
0100
1000
0100
1000
,  // measure 29
0010
0100
0010
0000
1000
0010
1000
0010
0200
0000
0001
0000
1000
0000
0301
0000
,  // measure 30
1000
0000
0100
0000
0010
0000
0001
0000
0100
0000
0010
1000
0001
0000
1001
0000
,  // measure 31
0011
0000
0010
1000
0001
0000
1001
0000
1010
0000
0010
1000
0001
0000
0011
0000
,  // measure 32
1001
0000
0100
0000
0010
1000
0100
1000
0020
0000
1000
0000
0001
0000
1000
0000
,  // measure 33
0031
0010
0001
0010
0100
1000
0100
1000
0001
0010
0001
0010
0100
1000
0100
1000
,  // measure 34
0010
0000
1000
0010
1000
0000
0010
0001
0100
0001
0010
0000
0001
0100
0010
1000
,  // measure 35
0100
1000
0100
0000
0001
0010
0100
0010
1000
0100
1000
0100
1000
0100
1000
0010
,  // measure 36
1000
0010
1000
0010
1000
0010
1000
0100
0010
0001
0100
0010
1000
0001
0010
0100
,  // measure 37
1000
0010
1000
0010
1000
0010
1000
0010
0200
0000
0001
0000
1300
0010
0100
0001
,  // measure 38
0020
0000
0001
0000
0130
0010
1000
0001
0010
0000
0100
0001
1000
0000
1001
0000
,  // measure 39
1100
0000
0100
1000
0001
0000
1001
0000
0101
0000
0100
0010
0001
0000
1001
0000
,  // measure 40
0101
0000
0100
0010
1000
0000
1001
0000
1100
0000
0100
1000
0001
0000
1001
0000
,  // measure 41
0110
0000
0100
0001
1000
0000
1001
0000
0110
0000
0100
0010
1000
0000
0110
0000
,  // measure 42
1001
0000
0100
0010
0001
0000
0110
0000
1001
0000
1001
0000
1001
0000
1001
0000
,  // measure 43
1000
0100
0010
0001
1000
0010
0100
0001
1000
0100
0010
0001
0010
0100
1000
0010
,  // measure 44
0100
0001
1000
0100
0010
0001
0100
0010
1000
0010
0100
0001
1000
0100
0010
0001
,  // measure 45
0010
0001
0100
0001
1000
0100
0010
0000
0100
1000
0100
0000
0010
1000
0010
1000
,  // measure 46
0100
0010
0100
0010
0001
0010
0001
0010
0100
1000
0100
1000
0010
1000
0010
1000
,  // measure 47
0100
1000
0100
1000
0010
0100
0010
0000
0001
0010
0001
0000
0100
1000
0100
1000
,  // measure 48
0010
0001
0010
0001
1000
0100
1000
0100
0001
0010
0001
0010
1000
0001
1000
0001
,  // measure 49
0010
0100
0010
0100
0001
0010
0001
0000
0100
1000
0100
1000
0010
0001
1000
0010
,  // measure 50
0200
0000
0000
0300
;
