#VERSION:0.83;
#TITLE:SHOOTING STAR;
#SUBTITLE:;
#ARTIST:BANG;
#TITLETRANSLIT:;
#SUBTITLETRANSLIT:;
#ARTISTTRANSLIT:;
#GENRE:;
#ORIGIN:;
#CREDIT:;
#BANNER:SHOOTING STAR.png;
#BACKGROUND:SHOOTING STAR-bg.png;
#PREVIEWVID:;
#JACKET:SHOOTING STAR-jacket.png;
#CDIMAGE:;
#DISCIMAGE:;
#LYRICSPATH:;
#CDTITLE:;
#MUSIC:SHOOTING STAR.ogg;
#OFFSET:0.000000;
#SAMPLESTART:58.844002;
#SAMPLELENGTH:15.000000;
#SELECTABLE:YES;
#DISPLAYBPM:170.000000;
#BPMS:0.000=170.132,
67.000=175.972,
68.000=170.118,
167.000=173.442,
168.000=170.145;
#STOPS:;
#DELAYS:;
#WARPS:;
#TIMESIGNATURES:0.000=4=4;
#TICKCOUNTS:0.000=4;
#COMBOS:0.000=1;
#SPEEDS:0.000=1.000=0.000=0;
#SCROLLS:0.000=1.000;
#FAKES:;
#LABELS:0.000=Song Start;
#BGCHANGES:;
#KEYSOUNDS:;
#ATTACKS:
;

//---------------dance-single - ----------------
#NOTEDATA:;
#CHARTNAME:;
#STEPSTYPE:dance-single;
#DESCRIPTION:;
#CHARTSTYLE:;
#DIFFICULTY:Easy;
#METER:7;
#RADARVALUES:0.277002,0.412823,0.125098,0.000000,0.000000,186.000000,174.000000,12.000000,0.000000,0.000000,0.000000,0.000000,0.000000,0.000000,0.277002,0.412823,0.125098,0.000000,0.000000,186.000000,174.000000,12.000000,0.000000,0.000000,0.000000,0.000000,0.000000,0.000000;
#CREDIT:;
#DISPLAYBPM:170.000000;
#NOTES:
0000
0000
0000
0000
,
0000
0000
0000
0000
,
0000
0000
0000
0000
,
0000
0000
0000
0000
,
0000
0000
0000
0000
,
0001
0000
0000
0000
,
1000
0000
0000
0000
,
0010
0000
0000
0000
,
0100
0000
0000
0000
,
0001
0000
0001
0000
,
1000
0000
1000
0000
,
0010
0000
0010
0000
,
0100
0000
0100
0000
,
0001
0001
0001
0000
,
1000
1000
1000
0000
,
0010
0010
0010
0000
,
0100
0100
0100
0000
,
1001
0000
1001
1001
,
0100
0000
0100
0001
,
1000
0000
1000
0010
,
0100
0001
0100
1000
,
0100
0010
1000
0001
,
0100
0000
0001
0001
,
1000
0010
0100
0001
,
1000
1000
0010
0100
,
0001
0000
1000
1000
,
0010
0100
0001
0001
,
1000
0010
0100
0100
,
0001
0000
0001
1000
,
1000
0000
0001
0100
,
0010
0000
1000
0001
,
0100
0010
1000
0001
,
0100
0001
1000
0010
,
1000
0010
0100
0001
,
1000
0000
0000
0010
,
0100
0001
1000
0010
,
1001
0000
0000
0100
,
0100
0001
1000
0010
,
0100
0000
0100
0001
,
1000
0000
1000
0010
,
0100
1001
1001
0110
,
1001
0000
0000
0100
,
0001
0000
1000
0010
,
0100
0001
0001
1000
,
0010
0000
0010
0000
,
0100
0000
0100
1001
,
0010
0000
0000
0000
,
0100
0000
0000
1001
,
0001
0100
0010
1000
,
0010
1000
0001
0100
,
0010
1000
0001
0010
,
0100
1000
0001
1000
,
0010
0100
0010
1000
,
0001
0000
0001
0110
,
0010
0000
0010
0000
,
0100
0000
0100
1001
,
0001
0100
0010
1000
,
0001
1000
0001
0001
,
0100
0000
0000
0000
,
0010
0000
0000
0000
,
1000
0000
0000
0000
,
0001
0000
0000
0000
,
1000
1000
0000
0000
,
0010
0010
0000
0000
,
0100
0100
0000
0000
,
0001
0001
1000
0010
,
0100
0000
0000
0000
;

//---------------dance-single - ----------------
#NOTEDATA:;
#CHARTNAME:;
#STEPSTYPE:dance-single;
#DESCRIPTION:;
#CHARTSTYLE:;
#DIFFICULTY:Medium;
#METER:8;
#RADARVALUES:0.355933,0.481626,0.187647,0.000000,0.000000,239.000000,221.000000,18.000000,0.000000,0.000000,0.000000,0.000000,0.000000,0.000000,0.355933,0.481626,0.187647,0.000000,0.000000,239.000000,221.000000,18.000000,0.000000,0.000000,0.000000,0.000000,0.000000,0.000000;
#CREDIT:;
#DISPLAYBPM:170.000000;
#NOTES:
0000
0000
0000
0000
,
0000
0000
0000
0000
,
0000
0000
0000
0000
,
0000
0000
0000
0000
,
0000
0000
0000
0000
,
0100
0000
0100
0000
0100
0010
1000
0000
,
0001
0000
0001
0000
0001
0100
0010
0000
,
1000
0000
1000
0001
,
0100
0000
0010
0000
,
1000
0000
0000
1001
,
0001
0000
0100
0001
,
1000
0000
0100
1000
,
0010
0000
0010
0100
,
0001
0001
0001
0001
,
1000
1000
0010
0010
,
0100
0100
0100
0001
,
1000
1000
0010
1000
,
0001
0000
1001
1001
,
0100
0010
0100
0010
,
1000
0010
1000
0010
,
0100
0001
0100
0001
,
0010
0001
0010
0001
,
1000
1000
1000
0001
,
0100
0100
0001
0100
,
0010
0010
1000
0001
,
0100
0010
1000
0001
,
0100
0100
0101
0101
,
0010
0010
1010
1010
,
0100
0101
0100
1100
,
0010
0011
0010
1010
,
0100
0000
0100
0011
,
1000
0010
0100
0001
,
1000
0000
1000
1000
,
0010
0100
0001
1000
,
0010
0000
0000
0000
0010
0100
0010
0000
,
1000
0000
1000
0000
1000
0000
0001
0100
,
0010
0000
0000
0000
,
1000
0001
0000
0000
,
0100
0000
0100
0001
,
1000
0010
0100
0001
,
1000
0000
0001
0100
0010
0000
1000
0000
,
1001
1001
0000
0100
,
0010
1000
0001
0100
,
0010
0010
0100
0001
,
1000
0000
1000
0010
0100
0000
0001
0000
,
1000
0000
0010
0000
1000
0010
1000
0010
,
0100
0000
1001
0000
,
0010
0000
0000
0000
1001
0000
0100
0010
,
1000
0000
1000
0001
,
0100
0010
1000
0001
,
0100
0001
1000
0010
,
0100
0000
0001
0000
0100
0000
1000
0010
,
0100
0010
1000
0001
,
0100
0000
0001
0000
0100
0001
0100
0001
,
1000
0000
0110
0000
,
0001
0000
0000
0000
0110
0000
1000
0001
,
0100
0000
0000
0000
0100
0010
0100
0010
,
1000
0000
1000
1000
,
0001
0000
0000
0000
,
0001
0000
1000
0001
,
0100
0000
0000
0000
,
0100
0000
0010
0100
,
0001
0000
0100
0010
,
1000
0000
0001
0100
,
0010
0000
0010
1000
,
0001
1000
0001
0100
,
0010
0000
0000
0000
;

//---------------dance-single - ----------------
#NOTEDATA:;
#CHARTNAME:;
#STEPSTYPE:dance-single;
#DESCRIPTION:;
#CHARTSTYLE:;
#DIFFICULTY:Hard;
#METER:12;
#RADARVALUES:0.458692,0.584832,0.218921,0.000000,0.000000,308.000000,287.000000,21.000000,0.000000,0.000000,0.000000,0.000000,0.000000,0.000000,0.458692,0.584832,0.218921,0.000000,0.000000,308.000000,287.000000,21.000000,0.000000,0.000000,0.000000,0.000000,0.000000,0.000000;
#CREDIT:;
#DISPLAYBPM:170.000000;
#NOTES:
0000
0000
0000
0000
,
0000
0000
0000
0000
,
0000
0000
0000
0000
,
0000
0000
0000
0000
,
0000
0000
0000
0000
,
0100
0000
0001
0000
1000
0010
0100
0001
,
1000
0000
0000
0000
1000
0000
0001
0100
,
0010
0000
0010
0000
,
1000
0000
1000
0000
,
0001
0100
0010
1000
,
0001
1000
0010
0100
,
0010
1000
0001
0100
,
0010
0100
0001
1000
,
0001
0000
0100
0010
1000
0000
0001
0000
,
0100
0000
0010
1000
0001
0100
0010
0000
,
1000
0000
0001
0100
0010
1000
0001
0100
,
0010
0000
1000
0000
,
0001
0000
0101
1100
,
1000
0010
1000
0010
0100
0001
0100
0001
,
1000
0100
1000
0100
0010
0001
0010
0001
,
1000
1001
0000
0100
,
0010
0000
1000
0000
0001
0000
0100
0010
,
1000
0000
0000
0000
0001
0000
0100
0010
,
1000
0001
1000
0010
1000
0010
1000
0001
,
0100
0000
0100
0010
,
1000
0000
0001
0000
0100
0010
1000
0000
,
1000
0000
0000
0000
0010
0000
0100
0001
,
1000
0010
0100
0001
1000
0010
0100
0000
,
0001
0000
1000
0001
,
0100
0000
0000
0000
0100
0000
0010
1000
,
0001
0000
0000
0000
1000
0100
1000
0010
,
0100
0000
0010
0000
0100
0000
0001
1000
,
0010
0000
0100
0001
,
1000
0000
0010
0000
0100
0001
1000
0010
,
0100
0000
0010
1000
,
0001
0000
0100
0000
0010
0100
0010
0100
,
0001
0000
0000
0001
,
1000
0000
1000
1001
,
0100
0010
1000
0001
,
0100
0000
0100
0000
0100
0010
1000
0001
,
0100
0000
1001
1000
0010
0100
0001
0000
,
1000
0000
0000
1001
,
0100
1001
0010
1001
,
0100
0010
0100
0010
1000
0010
1000
0010
,
0100
0000
0101
0000
0100
0000
1100
1000
,
0001
0000
0100
0010
,
1001
0100
0010
0100
,
1001
0000
0010
0000
0100
0000
0010
0100
,
0001
1000
0010
0100
,
0001
0000
0100
0000
0010
1000
0010
1000
,
0001
0110
1000
0110
,
1000
0100
1000
0100
0010
0001
0010
0001
,
0100
0000
0101
0000
0010
0000
1010
1000
,
0001
0000
0100
0010
,
1001
0100
0010
0100
,
1001
0000
0010
0000
0100
0000
0010
0100
,
0001
1000
0010
0100
,
0001
0000
0100
0000
0010
1000
0010
1000
,
0001
0000
0000
0000
0001
0100
0001
0100
,
0010
0000
0000
0000
1000
0010
1000
0010
,
0100
0000
0000
0000
0001
1000
0001
1000
,
0010
0000
0000
0000
0100
0001
0100
0001
,
1000
0000
0010
0000
0100
0001
1000
0010
,
0100
0000
0100
0000
0001
1000
0010
0100
,
0001
0000
1000
0000
0010
1000
0001
0100
,
0010
0010
1001
1001
,
0110
0000
0000
0000
;

//---------------dance-double - ----------------
#NOTEDATA:;
#CHARTNAME:;
#STEPSTYPE:dance-double;
#DESCRIPTION:;
#CHARTSTYLE:;
#DIFFICULTY:Easy;
#METER:4;
#RADARVALUES:0.262110,0.344019,0.052124,0.000000,0.000000,176.000000,171.000000,5.000000,0.000000,0.000000,0.000000,0.000000,0.000000,0.000000,0.262110,0.344019,0.052124,0.000000,0.000000,176.000000,171.000000,5.000000,0.000000,0.000000,0.000000,0.000000,0.000000,0.000000;
#CREDIT:;
#DISPLAYBPM:170.000000;
#NOTES:
00000000
00000000
00000000
00000000
,
00000000
00000000
00000000
00000000
,
00000000
00000000
00000000
00000000
,
00000000
00000000
00000000
00000000
,
00000000
00000000
00000000
00000000
,
00010000
00000000
00000000
00000000
,
00000001
00000000
00000000
00000000
,
00001000
00000000
00000000
00000000
,
10000000
00000000
00100000
00000000
,
01000000
00000000
00000000
00000000
,
00001000
00000000
00010000
00000010
,
00000100
00000000
00000100
00000001
,
00001000
00000000
00000100
00010000
,
00001000
00000000
01000000
00100000
,
10000000
00010000
01000000
00100000
,
10000000
00100000
01000000
00001000
,
00010000
00000000
00010000
00000010
,
00001000
00000000
00001000
00001001
,
00000100
00000000
00010000
00000000
,
00001000
00000000
01000000
00100000
,
10000000
00000000
00000000
00010000
,
01000000
00000000
01000000
00001000
,
00010000
00000000
01000000
00001000
,
00010000
00000010
00000100
00000001
,
00001000
00000000
00001000
00000110
,
00010000
00001000
01000000
00100000
,
10000000
00010000
01000000
01000000
,
00001000
00000000
00001000
00010000
,
00000010
00000000
00000000
00001000
,
00000001
00000000
00001000
00000010
,
00010000
00000000
00001000
01000000
,
00100000
10000000
00010000
01000000
,
00100000
00000000
00000000
00000000
,
00000100
00000000
00000000
00000100
,
00001001
00000100
00000000
00000100
,
00000001
00001000
00000010
00010000
,
00001000
00000000
00000000
00000000
,
01000000
00000000
00000000
00001000
,
00100000
00010000
10000000
01000000
,
10000000
00010000
00010000
01000000
,
00001000
00001000
00010000
00001000
,
00010000
00000000
00000000
00001000
,
00000010
00001000
00000001
00000100
,
00000010
00010000
00000100
00010000
,
00001000
01000000
00001000
00100000
,
00010000
10000000
00100000
01000000
,
00010000
00000000
00000000
00000000
,
00011000
00000000
00000000
00000010
,
00000100
00000001
00001000
00000010
,
00000100
00000000
00000000
00010000
,
00001000
01000000
00001000
00100000
,
00010000
10000000
00100000
01000000
,
00001000
00010000
00000010
00010000
,
00000100
00001000
00000001
00000010
,
00000001
00000000
00000000
00000000
,
00010000
00000000
00000000
10000000
,
00100000
01000000
00001000
00010000
,
00000010
00000000
00000000
00001001
,
00000100
00000000
00010000
00001000
,
01000000
00000000
00010000
10000000
,
00100000
00000000
00000000
00000000
,
00000010
00000000
00000000
00000000
,
01000000
00000000
00000000
00001000
,
00100000
00000000
00000000
00001000
,
00010000
00000000
00000100
00000000
,
00001000
00000010
00000100
00000001
,
00001000
00000000
00000000
00000000
;

//---------------dance-double - ----------------
#NOTEDATA:;
#CHARTNAME:;
#STEPSTYPE:dance-double;
#DESCRIPTION:;
#CHARTSTYLE:;
#DIFFICULTY:Medium;
#METER:6;
#RADARVALUES:0.394654,0.481626,0.271045,0.000000,0.000000,265.000000,239.000000,26.000000,0.000000,0.000000,0.000000,0.000000,0.000000,0.000000,0.394654,0.481626,0.271045,0.000000,0.000000,265.000000,239.000000,26.000000,0.000000,0.000000,0.000000,0.000000,0.000000,0.000000;
#CREDIT:;
#DISPLAYBPM:170.000000;
#NOTES:
00000000
00000000
00000000
00000000
,
00000000
00000000
00000000
00000000
,
00000000
00000000
00000000
00000000
,
00000000
00000000
00000000
00000000
,
00000000
00000000
00000000
00000000
,
00010000
01000000
00001000
01000000
,
00001000
00010000
00000010
00000100
,
00000001
00001000
00000010
00010000
,
00001000
00011000
01000000
01001000
,
00100000
00000000
10010000
01000000
,
00001000
00000000
00010000
00010000
,
00000100
00000000
00000100
00001000
,
00000001
00000000
00000100
00000010
,
00010000
00001000
01000000
00100000
,
10000000
00010000
01000000
00001000
,
00010000
00000100
00001000
00000001
,
00000100
00000010
00001000
00000010
,
00000001
00000000
00001010
00011000
,
01000000
00100000
10000000
10000000
,
00010000
00100000
00001000
00010000
,
00000100
00000000
00001000
00000001
,
00000100
00000000
00000010
00000000
00010000
00000000
00001000
00010000
,
00001000
00010000
00000000
00000000
01000000
00000000
00001000
00000000
,
00010000
00000000
00000010
00000000
00000100
00000000
00000001
00001000
,
00000100
00000000
00010000
00001000
,
00100000
00000000
00001000
00000000
01000000
00010000
10000000
00000000
,
10010000
01000000
00001000
00100000
,
00001000
00010000
00000010
00001000
,
00000001
00000000
00000100
00010100
,
00001000
00000000
01000000
00000000
00100000
00000000
10000000
00010000
,
01000000
00001000
00100000
00001000
,
00010000
00000100
00010000
00000010
,
00000100
00000000
00010000
00001000
,
00100000
00000000
00010000
00000000
10000000
00000000
01000000
00100000
,
00001000
00000000
00010000
00000010
,
00001000
00000001
00000100
00000010
,
00010000
00000000
00001000
00100000
,
00010000
00000000
10000000
00100000
,
01000000
00001000
00100000
00001000
,
00010000
00000000
00000100
00000000
00010000
00000000
00000010
00010000
,
00001000
00000000
00010000
00001000
01000000
00000000
10010000
00000000
,
01100000
00000000
00000000
00010000
,
00100000
00011000
00000100
00011000
,
01000000
00011000
00000010
00011000
,
00010000
00000000
00010000
00000000
00010000
00000010
00001000
00000000
,
00000100
00000000
00001000
00000000
00000001
00000000
00000010
00000001
,
00001000
00000000
00001001
00000000
,
00010000
00000000
00010100
00001000
,
01000000
00000000
00000000
00000000
00010000
00000000
10000000
00100000
,
01000000
00010000
00010000
00011000
,
00000010
00011000
01000000
00011000
,
00000100
00011000
00100000
00011000
,
00000010
00000000
00010000
00000000
00001000
00100000
00010000
10000000
,
01000000
00000000
10000000
00000000
00010000
00000000
10000000
00010000
,
01000000
00000000
10010000
00000000
,
00001000
00000000
00000000
00000000
00101000
00000000
00010000
00000100
,
00000010
00000000
00000000
00000000
00000100
00000000
00001000
00000010
,
00000100
00000001
00001000
00011000
,
00000100
00000000
00000000
00000000
00010000
00001000
00010000
00001000
,
01000000
00000000
00000000
00000000
00010000
10000000
00010000
10000000
,
00100000
01000000
00001000
01000000
,
00001000
00000000
00010000
00000000
00000010
00001000
00000010
00001000
,
00000001
00000000
00001000
00001001
,
00010000
00000000
00000000
10010000
,
01000000
00000000
00001000
01001000
,
00010000
00000000
00000010
00000000
00000100
00000000
00001000
00000001
,
00000100
00000000
00000000
00000000
;

//---------------dance-double - ----------------
#NOTEDATA:;
#CHARTNAME:;
#STEPSTYPE:dance-double;
#DESCRIPTION:;
#CHARTSTYLE:;
#DIFFICULTY:Hard;
#METER:7;
#RADARVALUES:0.473584,0.619234,0.260620,0.000000,0.010425,318.000000,293.000000,25.000000,0.000000,0.000000,0.000000,0.000000,0.000000,0.000000,0.473584,0.619234,0.260620,0.000000,0.010425,318.000000,293.000000,25.000000,0.000000,0.000000,0.000000,0.000000,0.000000,0.000000;
#CREDIT:;
#DISPLAYBPM:170.000000;
#NOTES:
00000000
00000000
00000000
00000000
,
00000000
00000000
00000000
00000000
,
00000000
00000000
00000000
00000000
,
00000000
00000000
00000000
00000000
,
00000000
00000000
00000000
00000000
,
10000000
00010000
00001000
00000001
,
00000010
00001000
00010000
01000000
,
10000000
00000000
10000000
00010000
,
01000000
00001000
00100000
00001000
,
00010000
00000010
00000010
00000010
,
00001000
00000000
00000100
00000000
00010000
00001000
00100000
00001000
,
01000000
00000000
00010000
10000000
,
00100000
10010000
01000000
10010000
,
01000000
00001000
00010000
00000010
,
00000100
00010000
01000000
00100000
,
10000000
00000000
00010000
00000000
01000000
00100000
01000000
00001000
,
00010000
00010100
00001000
00001001
,
00000100
00000000
00000100
00001001
,
00000010
00001000
00000010
00001000
00000010
00010000
00000010
00010000
,
00001000
00010000
00001000
00010000
00001000
01000000
00001000
01000000
,
00010000
01000000
00010000
01000000
00010000
10000000
00010000
10000000
,
00100000
01000000
00100000
01000000
00001000
01000000
00001000
01000000
,
00011000
00010000
00010010
00011000
,
01001000
00000000
00011000
00000000
00000010
00000000
00000100
00000010
,
00001000
00000001
00000000
00000100
,
00000001
00000000
00000100
00000010
00001000
00000000
00000001
00000000
,
00000000
00000100
00000100
00000100
00000010
00000000
00010000
00000000
,
00001000
00000000
01000000
00000000
00100000
00000000
10000000
00010000
,
01000000
01010000
00100000
00001000
,
00010000
00000000
00000010
00000000
00000100
00000001
00001000
00000010
,
00000100
00010100
00000000
00001000
,
00100000
00000000
00010000
00000000
01000000
00100000
00000000
10000000
,
00000000
00000000
01000000
01001000
,
00010000
00000000
00000010
00000000
00000100
00000001
00001000
00000010
,
00010000
00000000
00001000
01000000
,
00010000
00000000
10000000
00000000
00100000
01000000
00100000
10000000
,
00010000
00000000
00000000
00001000
,
00010000
00000000
00000000
00000010
,
00001000
00000000
00000001
00000100
00000010
00000000
00010000
00000000
,
00001000
00000000
01000000
00000000
00100000
10000000
00010000
01000000
,
00001000
00000000
00000000
00000000
00010000
00000000
00001000
00000000
00010000
00000000
00000010
00000000
00000000
00000000
00000000
00001000
,
00000000
00000000
00000000
00000001
00000000
00000000
00000000
00000000
00000000
00000000
00000000
00000000
00000100
00000000
00010000
00000000
,
00001000
01000000
00010000
00000010
,
00011000
00100000
00011000
00000100
,
00010000
00000000
00000010
00000000
00000100
00000001
00001000
00000010
,
00000100
00000000
00000010
00000000
00010000
00000100
00100000
00001000
,
01000000
00000000
10010000
00000000
,
00100000
00000000
00000000
00000000
00101000
00000000
00010000
00000100
,
00000010
00000000
00000001
00001000
00000010
00000000
00010010
00000000
,
00011000
00000000
00000000
00000000
01000000
00000000
01000000
00100000
,
10000000
00100000
01000000
00001000
,
00011000
00000010
00011000
01000000
,
00001000
00000000
00010000
00000000
00000100
00001000
00000010
00000100
,
00000001
00000000
00000010
00000000
00000100
00010000
00001000
00100000
,
01000000
00000000
10010000
01000000
,
00001000
00000000
00000000
00000000
00101000
00000000
00010000
00000010
,
00000100
00000000
00000001
00001000
00000010
00000000
00010010
00000000
,
00011000
00000000
00001000
00000000
00010000
00001000
00010000
00001000
,
01000000
00000000
00010000
00000000
00100000
00001000
00010000
00000100
,
00001000
00000000
00001000
00000000
00001000
00000001
00001000
00000010
,
00010000
00000000
00010000
00000000
00001000
00100000
00010000
01000000
,
00100000
00000000
00100000
00000000
10000000
00010000
01000000
00010000
,
00100000
00000000
00001000
00000000
00100000
00001000
00010000
00000100
,
00001000
00000000
00000001
00000000
00000100
00000010
00010000
00001000
,
01000000
00000000
01000000
00000000
01000000
00100000
10000000
00010000
,
00100000
00000000
00100000
00000000
00100000
00001000
00010000
00000100
,
00000010
00000000
00000000
00000000
;

//---------------dance-couple - ----------------
#NOTEDATA:;
#CHARTNAME:;
#STEPSTYPE:dance-couple;
#DESCRIPTION:;
#CHARTSTYLE:;
#DIFFICULTY:Challenge;
#METER:7;
#RADARVALUES:0.314234,0.584832,0.145947,0.000000,0.000000,211.000000,197.000000,14.000000,0.000000,0.000000,0.000000,0.000000,0.000000,0.000000,0.314234,0.584832,0.145947,0.000000,0.000000,211.000000,197.000000,14.000000,0.000000,0.000000,0.000000,0.000000,0.000000,0.000000;
#CREDIT:;
#DISPLAYBPM:170.000000;
#NOTES:
00000000
00000000
00000000
00000000
,
00000000
00000000
00000000
00000000
,
00000000
00000000
00000000
00000000
,
00000000
00000000
00000000
00000000
,
00000000
00000000
00000000
00000000
,
01000000
00000000
01000000
00000000
01000000
00100000
10000000
00000000
,
00000010
00000000
00000010
00000000
00000010
00000100
00000001
00000000
,
10000000
00000000
00000001
00000000
,
01000000
00000000
00000010
00000000
,
00010001
01000100
00100010
10001000
,
00010001
10001000
00100010
01000100
,
00010000
00010000
00010000
00010000
,
00001000
00001000
00001000
00001000
,
00010000
00000000
01000000
00100000
10000000
00000000
00010000
00000000
,
00000001
00000000
00000100
00000010
00001000
00000000
00000001
00000000
,
10000000
00000000
00010000
01000000
00100000
10000000
00010000
01000000
,
00001000
00000000
00000001
00000100
00000010
00001000
00000001
00000100
,
00000000
00000000
10011001
10011001
,
10000000
00100000
10000001
00100000
01000000
00010000
01000001
00010000
,
10000000
01000000
10000001
01000000
00100000
00010000
00100001
00010000
,
10000000
10010001
00000000
01000001
,
00100000
00000000
10000001
00000000
00010000
00000000
01000001
00100000
,
10001000
10001000
10001000
00010001
,
01000100
01000100
00010001
01000100
,
00100010
00100010
10001000
00010001
,
01000100
00100010
10001000
00010001
,
00001000
00000010
10001000
00000010
00000100
00000001
10000100
00000001
,
00001000
00000100
10001000
00000100
00000010
00000001
10000010
00000001
,
00001000
10001001
00000000
10000100
,
00000010
00000000
10001000
00000000
00000001
00000000
10000100
00000010
,
00011000
00011000
00011000
10000001
,
01000100
01000100
10000001
01000100
,
00100010
00100010
00011000
10000001
,
01000100
00100010
00011000
10000001
,
00011000
00000000
00000010
00000100
,
00100000
01000000
00010001
10001000
,
00100010
00000000
00000000
00001000
,
10000000
00000000
00000000
00000000
01000100
01000100
01000100
00000000
,
10000000
00100000
01000000
00010000
,
00001000
00000010
00000100
00000001
,
10001000
00000000
00010001
01000100
00100010
00000000
10001000
00000000
,
10011001
10011001
00000000
01000100
,
01000000
10010000
00100000
10010000
,
01000000
00100000
01000000
00100000
10000000
00100000
10000000
00100000
,
00000100
00001001
00000010
00001001
,
00000100
00000010
00000100
00000010
00001000
00000010
00001000
00000010
,
01000000
00000000
00000100
00000000
,
00100000
00000000
00000010
10011001
,
10000000
00010000
00000001
00001000
,
10000001
00000000
00100100
00000000
01000010
00011000
01000010
00011000
,
00000001
00000110
00001000
00000110
,
00001000
00000100
00001000
00000100
00000010
00000001
00000010
00000001
,
00010000
01100000
10000000
01100000
,
10000000
01000000
10000000
01000000
00100000
00010000
00100000
00010000
,
00000001
00000000
00010000
00000000
,
00001000
00000000
10000000
10011001
,
00010001
10001000
00100010
01000100
,
00010001
00000000
01000100
00000000
00100010
10001000
00100010
10001000
,
00010001
00000000
00000000
00000000
00001000
00000100
00001000
00000100
,
00100010
00000000
00000000
00000000
10000000
00100000
10000000
00100000
,
01000100
00000000
00000000
00000000
00000001
00001000
00000001
00001000
,
00100010
00000000
00000000
00000000
01000000
00010000
01000000
00010000
,
10001000
00000000
00000010
00000000
00000100
00000001
00001000
00000010
,
01000100
00000000
01000000
00000000
00010000
10000000
00100000
01000000
,
00010001
00000000
10001000
00000000
00100010
10001000
00010001
01000100
,
00100010
00100010
10011001
10011001
,
01100110
00000000
00000000
00000000
;

//---------------dance-solo - ----------------
#NOTEDATA:;
#CHARTNAME:;
#STEPSTYPE:dance-solo;
#DESCRIPTION:;
#CHARTSTYLE:;
#DIFFICULTY:Easy;
#METER:4;
#RADARVALUES:0.262110,0.344019,0.052124,0.000000,0.000000,176.000000,171.000000,5.000000,0.000000,0.000000,0.000000,0.000000,0.000000,0.000000,0.262110,0.344019,0.052124,0.000000,0.000000,176.000000,171.000000,5.000000,0.000000,0.000000,0.000000,0.000000,0.000000,0.000000;
#CREDIT:;
#DISPLAYBPM:170.000000;
#NOTES:
000000
000000
000000
000000
,
000000
000000
000000
000000
,
000000
000000
000000
000000
,
000000
000000
000000
000000
,
000000
000000
000000
000000
,
000010
000000
000000
000000
,
001000
000000
000000
000000
,
000001
000000
000000
000000
,
010000
000000
001000
000000
,
100000
000000
000000
000000
,
000001
000000
001000
000010
,
100000
000000
100000
000001
,
001000
000000
000100
100000
,
000010
000000
001000
000001
,
010000
000100
100000
001000
,
100000
000100
001000
000001
,
100000
000000
100000
000100
,
001000
000000
000100
001100
,
100000
000000
000010
000000
,
001000
000000
000001
010000
,
001000
000000
000000
100000
,
000100
000000
000100
001000
,
000010
000000
100000
000001
,
001000
000010
100000
000001
,
010000
000000
010000
100001
,
000100
001000
000001
100000
,
000010
001000
000001
000001
,
010000
000000
010000
001000
,
100000
000000
000000
000001
,
001000
000000
000010
100000
,
000001
000000
010000
001000
,
100000
000100
001000
000001
,
100000
000000
000000
000000
,
000010
000000
000000
000010
,
001000
100001
000000
001000
,
000100
100000
000001
001000
,
000100
000000
000000
000000
,
001000
000000
000000
000010
,
100000
000001
010000
000010
,
001000
000001
000001
100000
,
000010
000010
001000
000100
,
100000
000000
000000
000001
,
001000
000100
001000
000010
,
100000
000001
010000
000001
,
100000
000100
001000
000001
,
100000
000100
001000
000001
,
100000
000000
000000
000000
,
100001
000000
000000
001000
,
000100
100000
000001
001000
,
000100
000000
000000
010000
,
000001
001000
000010
100000
,
000100
100000
000001
001000
,
000010
001000
000001
010000
,
000100
100000
000001
001000
,
000010
000000
000000
000000
,
100000
000000
000000
000001
,
001000
000100
100000
000010
,
001000
000000
000000
100001
,
001000
000000
000010
010000
,
000001
000000
100000
000100
,
001000
000000
000000
000000
,
000010
000000
000000
000000
,
001000
000000
000000
000001
,
010000
000000
000000
000100
,
100000
000000
000001
000000
,
001000
000001
100000
000010
,
010000
000000
000000
000000
;

//---------------dance-solo - ----------------
#NOTEDATA:;
#CHARTNAME:;
#STEPSTYPE:dance-solo;
#DESCRIPTION:;
#CHARTSTYLE:;
#DIFFICULTY:Medium;
#METER:5;
#RADARVALUES:0.394654,0.481626,0.271045,0.000000,0.000000,265.000000,239.000000,26.000000,0.000000,0.000000,0.000000,0.000000,0.000000,0.000000,0.394654,0.481626,0.271045,0.000000,0.000000,265.000000,239.000000,26.000000,0.000000,0.000000,0.000000,0.000000,0.000000,0.000000;
#CREDIT:;
#DISPLAYBPM:170.000000;
#NOTES:
000000
000000
000000
000000
,
000000
000000
000000
000000
,
000000
000000
000000
000000
,
000000
000000
000000
000000
,
000000
000000
000000
000000
,
000010
001000
000001
001000
,
000100
100000
000001
010000
,
000100
100000
000001
001000
,
000100
100100
001000
001001
,
000010
000000
100010
000001
,
001000
000000
000100
000100
,
100000
000000
000001
001000
,
000100
000000
100000
000010
,
001000
000001
010000
000100
,
100000
000001
001000
000010
,
100000
000100
001000
000001
,
010000
001000
100000
000100
,
001000
000000
001010
001001
,
100000
000100
001000
001000
,
000001
000100
000001
100000
,
001000
000000
100000
000010
,
001000
000000
000001
000000
010000
000000
001000
010000
,
001000
010000
000000
000000
000001
000000
100000
000000
,
000010
000000
001000
000000
000001
000000
100000
000100
,
001000
000000
000010
100000
,
000001
000000
010000
000000
000100
001000
000001
000000
,
010001
001000
100000
000100
,
001000
000010
100000
000001
,
001000
000000
000010
100010
,
000001
000000
001000
000000
000100
000000
100000
000010
,
001000
000001
100000
000100
,
001000
000010
100000
000010
,
001000
000000
000001
100000
,
000100
000000
010000
000000
000001
000000
100000
000010
,
001000
000000
000001
100000
,
000100
001000
000010
100000
,
000001
000000
010000
001000
,
100000
000000
000001
001000
,
000010
100000
000001
001000
,
000100
000000
100000
000000
000001
000000
010000
000100
,
001000
000000
000001
100000
001000
000000
100001
000000
,
001100
000000
000000
000010
,
001000
001010
010000
011000
,
100000
100010
000001
010001
,
001000
000000
001000
000000
001000
000100
100000
000000
,
000001
000000
001000
000000
000100
000000
100000
000010
,
001000
000000
001100
000000
,
010000
000000
011000
100000
,
000001
000000
000000
000000
001000
000000
000001
100000
,
000100
001000
001000
001001
,
000010
100010
010000
010001
,
000010
001010
010000
011000
,
000010
000000
100000
000000
000001
001000
000100
100000
,
000001
000000
001000
000000
000100
000000
100000
000010
,
001000
000000
100001
000000
,
001000
000000
000000
000000
001010
000000
000001
010000
,
001000
000000
000000
000000
000010
000000
100000
000001
,
001000
000100
100000
100001
,
001000
000000
000000
000000
000010
001000
000010
001000
,
000001
000000
000000
000000
010000
000001
010000
000001
,
100000
000100
001000
000001
,
100000
000000
000100
000000
001000
000001
001000
000001
,
010000
000000
000100
001100
,
100000
000000
000000
100001
,
001000
000000
000010
001010
,
000001
000000
001000
000000
000100
000000
100000
000010
,
001000
000000
000000
000000
;

//---------------dance-solo - ----------------
#NOTEDATA:;
#CHARTNAME:;
#STEPSTYPE:dance-solo;
#DESCRIPTION:;
#CHARTSTYLE:;
#DIFFICULTY:Hard;
#METER:8;
#RADARVALUES:0.473584,0.619234,0.260620,0.000000,0.005212,318.000000,293.000000,25.000000,0.000000,0.000000,0.000000,0.000000,0.000000,0.000000,0.473584,0.619234,0.260620,0.000000,0.005212,318.000000,293.000000,25.000000,0.000000,0.000000,0.000000,0.000000,0.000000,0.000000;
#CREDIT:;
#DISPLAYBPM:170.000000;
#NOTES:
000000
000000
000000
000000
,
000000
000000
000000
000000
,
000000
000000
000000
000000
,
000000
000000
000000
000000
,
000000
000000
000000
000000
,
100000
000010
010000
000001
,
001000
000001
100000
000100
,
001000
000000
001000
000010
,
100000
000001
010000
001000
,
100000
000100
000100
000100
,
001000
000000
000010
000000
100000
000001
010000
000001
,
001000
000000
000010
100000
,
000001
001100
100000
001100
,
100000
000010
001000
000010
,
001000
000001
100000
000010
,
001000
000000
000100
000000
100000
000010
100000
000001
,
010000
010001
001000
001010
,
100000
000000
100000
100100
,
001000
000001
001000
000001
001000
000010
001000
000010
,
100000
000010
100000
000010
100000
000100
100000
000100
,
010000
000100
010000
000100
010000
001000
010000
001000
,
000100
001000
000100
001000
000100
000001
000100
000001
,
001100
001000
001010
001100
,
011000
000000
001100
000000
000001
000000
100000
000100
,
001000
000001
000000
100000
,
000010
000000
001000
000100
100000
000000
000001
000000
,
000000
010000
010000
010000
000100
000000
100000
000000
,
000010
000000
001000
000000
000100
000000
100000
000001
,
001000
001010
000100
100000
,
000001
000000
001000
000000
000100
100000
000001
001000
,
000010
100010
000000
010000
,
000100
000000
100000
000000
000001
001000
000000
000100
,
000000
000000
001000
001010
,
010000
000000
000001
000000
100000
000100
001000
000010
,
100000
000000
000001
001000
,
000010
000000
100000
000000
000100
001000
000100
100000
,
000001
000000
000000
010000
,
001000
000000
000000
100000
,
000100
000000
001000
000001
100000
000000
000100
000000
,
001000
000000
000000
000000
000001
000000
000000
000000
100000
000010
000000
000000
010000
000000
000001
000000
,
001000
000000
000100
100000
000100
001000
000000
000000
,
000001
000000
100000
000000
000000
000000
000100
001000
,
000010
100000
000001
001000
,
100010
000001
010001
100000
,
001000
000000
000100
000000
001000
010000
001000
000010
,
001000
000000
000001
000000
100000
001000
010000
001000
,
100000
000000
100001
000000
,
001000
000000
000000
000000
001010
000000
000001
100000
,
000100
000000
001000
000010
010000
000000
010001
000000
,
100010
000000
000000
000000
001000
000000
001000
000100
,
100000
000010
001000
000001
,
100001
010000
100001
000010
,
000100
000000
001000
000000
100000
000010
001000
000001
,
100000
000000
000100
000000
001000
000010
100000
000001
,
001000
000000
100001
001000
,
000100
000000
000000
000000
100100
000000
000001
010000
,
001000
000000
100000
000010
001000
000000
001100
000000
,
100001
000000
100000
000000
000001
010000
000001
010000
,
001000
000000
100000
000000
000100
001000
000001
001000
,
000010
000000
000010
000000
000010
100000
000010
001000
,
000001
000000
000001
000000
010000
000100
001000
000010
,
100000
000000
100000
000000
000100
001000
000001
001000
,
000010
000000
100000
000000
000010
001000
000001
100000
,
000010
000000
001000
000000
000100
100000
001000
000010
,
100000
000000
100000
000000
100000
000100
001000
000001
,
010000
000000
010000
000000
010000
001000
100000
000001
,
000100
000000
000000
000000
;

//---------------dance-single - ----------------
#NOTEDATA:;
#CHARTNAME:;
#STEPSTYPE:dance-single;
#DESCRIPTION:;
#CHARTSTYLE:;
#DIFFICULTY:Beginner;
#METER:4;
#RADARVALUES:0.116162,0.206411,0.020850,0.218921,0.000000,78.000000,76.000000,2.000000,21.000000,0.000000,0.000000,0.000000,0.000000,0.000000,0.116162,0.206411,0.020850,0.218921,0.000000,78.000000,76.000000,2.000000,21.000000,0.000000,0.000000,0.000000,0.000000,0.000000;
#CREDIT:;
#DISPLAYBPM:170.000000;
#NOTES:
0000
0000
0000
0000
,
0000
0000
0000
0000
,
0000
0000
0000
0000
,
0000
0000
0000
0000
,
0000
0000
0000
0000
,
0020
0000
0000
0000
,
0030
0000
0000
0000
,
0000
0000
0000
0000
,
0000
0000
0000
0000
,
2000
0000
0000
0000
,
0000
0000
0000
0000
,
3000
0000
0000
0000
,
0000
0000
0000
0000
,
0200
0000
0000
0000
,
0000
0000
0000
0000
,
0000
0000
0000
0000
,
0300
0000
0000
0000
,
0010
0000
0010
0010
,
0100
0000
0100
0000
,
0001
0000
0001
0000
,
1000
0000
1000
0000
,
0100
0000
0100
0000
,
0010
0000
0010
0000
,
0001
0000
0001
0000
,
1000
0000
1000
0000
,
0010
0000
0010
0000
,
0100
0000
0100
0000
,
0001
0000
0001
0000
,
1000
0000
1000
0000
,
0100
0000
0100
0000
,
0010
0000
0010
0000
,
0001
0000
0001
0000
,
0100
0000
0010
0000
,
1000
0000
0100
0000
,
0010
0000
0001
0000
,
1000
0000
0010
0000
,
0100
0000
0001
0000
,
1000
0000
0100
0000
,
0010
0000
0001
0000
,
0010
0000
0100
0000
,
1000
0000
0001
0000
,
2002
3003
0000
0000
,
0020
0000
0030
0000
,
0100
0000
0000
0000
,
0200
0000
0300
0000
,
0010
0000
0000
0000
,
2000
0000
3000
0000
,
0001
0000
0000
0000
,
0002
0000
0003
0000
,
1000
0000
0000
0000
,
0020
0000
0000
0000
,
0030
0000
0000
0000
,
0200
0000
0000
0000
,
0300
0000
0000
0000
,
2000
0000
0000
0000
,
3000
0000
0000
0000
,
0002
0000
0000
0000
,
0000
0000
0000
0000
,
0003
0000
0000
0000
,
0200
0000
0300
0010
,
0020
0000
0030
0000
,
2000
0000
3000
0100
,
0200
0000
0300
0000
,
0020
0000
0030
0001
,
0002
0000
0003
1000
,
2002
0000
0000
0000
,
3003
0000
0000
0000
;

//---------------dance-single - ----------------
#NOTEDATA:;
#CHARTNAME:;
#STEPSTYPE:dance-single;
#DESCRIPTION:;
#CHARTSTYLE:;
#DIFFICULTY:Challenge;
#METER:17;
#RADARVALUES:0.994825,1.139562,0.187647,0.125098,1.058118,668.000000,650.000000,18.000000,12.000000,0.000000,0.000000,0.000000,0.000000,0.000000,0.994825,1.139562,0.187647,0.125098,1.058118,668.000000,650.000000,18.000000,12.000000,0.000000,0.000000,0.000000,0.000000,0.000000;
#CREDIT:;
#DISPLAYBPM:170.000000;
#NOTES:
// measure 0
0000
0000
0000
0000
,  // measure 1
0000
0000
0000
0000
,  // measure 2
0000
0000
0000
0000
,  // measure 3
0000
0000
0000
0000
,  // measure 4
0000
0000
0000
0000
,  // measure 5
0100
0001
1000
0001
0100
0000
0001
1000
,  // measure 6
0100
0010
0001
0010
0100
0000
1100
0000
,  // measure 7
0001
0100
0010
1000
0001
1000
0010
0100
,  // measure 8
0001
0010
0001
1000
0001
0100
0010
1000
,  // measure 9
0100
1000
0100
1000
0100
1000
0100
1000
0100
1000
0100
1000
0100
0000
0000
0000
,  // measure 10
0001
1000
0001
1000
0001
1000
0001
1000
0001
1000
0001
1000
0001
0000
0000
0000
,  // measure 11
0001
0010
0001
0010
0001
0010
0001
0010
0001
0010
0001
0010
0001
0000
0000
0000
,  // measure 12
0100
0010
0100
0010
0100
0010
0100
0010
0200
0000
0320
0000
0230
0000
0320
0000
,  // measure 13
1030
0100
1000
0100
1000
0100
1000
0100
1000
0100
1000
0100
1000
0000
0000
0000
,  // measure 14
0001
0100
0001
0100
0001
0100
0001
0100
0001
0100
0001
0100
0001
0100
0001
0100
,  // measure 15
0001
0010
0001
0010
0001
0010
0001
0010
0001
0010
0001
0010
0001
0010
0001
0010
,  // measure 16
0001
1000
0001
1000
0001
1000
0001
1000
0001
1000
0001
1000
0001
1000
0001
1000
,  // measure 17
0002
0000
1000
1003
,  // measure 18
1000
0100
1000
0000
0010
0000
0100
0000
0001
1000
0001
0000
1000
0000
0001
1000
,  // measure 19
0001
0000
1000
0001
1000
0000
0001
1000
0001
0000
1000
0001
1000
0000
0001
1000
,  // measure 20
0001
1000
0001
0000
0100
0000
0010
0000
1000
0010
1000
0000
0010
0000
0100
0000
,  // measure 21
0001
0000
1000
0100
1000
0000
0010
0100
0010
0000
1000
0100
1000
0000
0010
0100
,  // measure 22
0010
0100
0001
0000
0010
0000
0001
0000
1000
0100
1000
0000
1000
0000
0010
0000
,  // measure 23
0100
0000
0010
0100
0010
0000
0001
0100
0001
0000
0010
0100
0010
0000
0001
0100
,  // measure 24
0001
0100
0010
0000
1000
0000
0010
0000
0010
0100
0001
0000
1000
0000
0001
0000
,  // measure 25
1000
0000
0100
1000
0100
0000
0010
0100
0010
0000
0100
1000
0100
0000
0010
0100
,  // measure 26
0010
0100
0010
0000
0100
0000
0001
0000
1000
0100
1000
0000
0010
0000
0100
0000
,  // measure 27
0001
0000
0010
0001
0010
0000
0100
0010
0100
0000
0010
0001
0010
0000
0100
0010
,  // measure 28
0100
0010
0001
0000
1000
0000
0010
0000
0100
0010
0100
0000
0001
0000
0100
0000
,  // measure 29
0010
0000
1000
0010
1000
0000
0001
0100
0001
0000
1000
0010
1000
0000
0001
0100
,  // measure 30
0001
0100
0010
0000
1000
0000
0010
0000
0100
0001
0100
0000
1000
0000
0100
0000
,  // measure 31
0010
0000
0001
0010
0001
0000
1000
0100
1000
0000
0001
0010
0001
0000
1000
0100
,  // measure 32
1000
0100
0010
0000
1000
0000
0001
0000
0100
0001
0100
0000
0001
0000
0010
0000
,  // measure 33
0001
0000
1000
0001
1000
0000
0001
0100
0001
0000
1000
0001
1000
0000
0001
0100
,  // measure 34
0001
0100
0010
1000
0001
0100
0010
1000
0001
0010
0100
1000
0100
0010
0001
0000
,  // measure 35
0010
0000
0100
1000
0100
0000
0010
0100
0010
0000
0001
0010
0001
0000
1000
0000
,  // measure 36
1000
0100
0010
0001
0010
0100
1000
0001
0100
0000
0010
0000
0001
1000
0010
0100
,  // measure 37
0001
1000
0100
0010
0001
1000
0010
0100
0001
0000
0100
0000
0010
0000
1000
0000
,  // measure 38
0010
0100
0001
1000
0010
0100
0001
1000
0100
0010
0001
0010
0100
1000
0010
0100
,  // measure 39
0001
0000
0100
1000
0010
0000
1000
0010
0100
0000
0001
1000
0100
0010
0001
0000
,  // measure 40
1001
1001
0001
0010
0110
0110
0100
1000
,  // measure 41
0000
2002
0000
0000
0000
3003
1000
0100
,  // measure 42
1000
0100
0010
0001
0100
0010
1000
0100
0010
0001
0100
0010
1000
0100
0010
0001
,  // measure 43
0100
0000
0010
0000
0001
0000
1000
0000
0010
0100
0001
0100
0010
0000
0001
1000
,  // measure 44
0100
0000
0010
0000
1000
0000
0001
0100
0010
0000
1000
0010
0100
0000
0001
1000
,  // measure 45
0100
0000
0010
0000
1000
0000
0001
0000
0100
0010
0100
0010
1000
0000
0001
0000
,  // measure 46
0100
0010
1000
0000
0001
0000
1000
0000
0100
0010
0001
0000
1000
0000
0010
0100
,  // measure 47
0001
0000
0010
0000
0100
0000
1000
0010
0100
0000
0001
0000
1000
0001
0100
0001
,  // measure 48
1000
0000
0011
0001
0000
0101
0000
0110
,  // measure 49
0000
0000
1000
0100
0010
0100
1000
0100
0010
0100
1000
0100
0010
0100
1000
0000
,  // measure 50
0001
0010
0100
1000
0010
0100
0001
0010
0100
1000
0010
0100
0001
0010
0100
1000
,  // measure 51
0010
0000
1000
0000
0001
0000
0100
0000
0001
0010
0100
1000
0001
0000
1000
0000
,  // measure 52
0001
0000
1000
0100
0010
0000
1000
0100
0010
0000
0100
0010
0001
0000
1000
0010
,  // measure 53
0100
0000
0001
0000
1000
0000
0001
0000
1000
0010
0100
0001
1000
0001
1000
0001
,  // measure 54
0200
0000
0000
0000
1300
0010
0100
0000
0002
0000
0000
0000
0013
0100
0001
0000
,  // measure 55
2000
0000
0000
0000
3100
0010
0001
0000
0020
0000
0000
0000
0031
0010
0100
0000
,  // measure 56
1000
0100
0001
0010
0100
1000
0010
0110
,  // measure 57
0000
0000
0100
0001
0100
0001
1000
0100
1000
0100
0010
0001
1000
0100
0010
0001
,  // measure 58
1000
0000
0000
0000
1001
0000
0000
0000
1000
0001
0100
0000
0001
1000
0100
0000
,  // measure 59
0010
0000
0000
0000
0011
0000
0000
0000
0001
0010
0100
0000
0010
0100
1000
0000
,  // measure 60
0100
0000
0000
0000
1100
0000
0000
0000
1000
0010
0100
0000
0010
0100
0001
0000
,  // measure 61
0100
0000
0000
0000
0101
0000
0000
0000
0100
0000
0001
1000
0010
0000
0100
0010
,  // measure 62
1000
0000
0000
0000
1001
0000
0000
0000
1000
0100
0010
0000
0001
0000
0010
0000
,  // measure 63
0001
0000
0000
0000
0101
0000
0000
0000
0001
1000
0100
0000
0010
0000
0100
0000
,  // measure 64
0001
0000
0000
0000
0011
0000
0000
0000
0010
0100
1000
0000
0010
0000
0100
0000
,  // measure 65
0001
0000
0000
0000
1001
0000
0000
0000
1000
0000
0010
0100
0001
0000
1000
0001
,  // measure 66
0200
0300
0000
0000
;
