#VERSION:0.83;
#TITLE:SHOCK;
#SUBTITLE:;
#ARTIST:GOOFY;
#TITLETRANSLIT:;
#SUBTITLETRANSLIT:;
#ARTISTTRANSLIT:;
#GENRE:;
#ORIGIN:;
#CREDIT:;
#BANNER:SHOCK.png;
#BACKGROUND:SHOCK-bg.png;
#PREVIEWVID:;
#JACKET:SHOCK-jacket.png;
#CDIMAGE:;
#DISCIMAGE:;
#LYRICSPATH:;
#CDTITLE:;
#MUSIC:SHOCK.mp3;
#OFFSET:1.053000;
#SAMPLESTART:15.607000;
#SAMPLELENGTH:15.000000;
#SELECTABLE:YES;
#BPMS:0.000=137.990;
#STOPS:;
#DELAYS:;
#WARPS:;
#TIMESIGNATURES:0.000=4=4;
#TICKCOUNTS:0.000=4;
#COMBOS:0.000=1;
#SPEEDS:0.000=1.000=0.000=0;
#SCROLLS:0.000=1.000;
#FAKES:;
#LABELS:0.000=Song Start;
#BGCHANGES:;
#KEYSOUNDS:;
#ATTACKS:
;

//---------------dance-single - ----------------
#NOTEDATA:;
#CHARTNAME:;
#STEPSTYPE:dance-single;
#DESCRIPTION:;
#CHARTSTYLE:;
#DIFFICULTY:Easy;
#METER:4;
#RADARVALUES:0.297065,0.396331,0.329418,0.020589,0.000000,202.000000,170.000000,32.000000,2.000000,0.000000,0.000000,0.000000,0.000000,0.000000,0.297065,0.396331,0.329418,0.020589,0.000000,202.000000,170.000000,32.000000,2.000000,0.000000,0.000000,0.000000,0.000000,0.000000;
#CREDIT:;
#NOTES:
0000
0000
0000
0000
,
0000
0000
0000
0000
,
0000
0000
0000
0000
,
0000
0000
0000
0000
,
0000
0000
0000
0000
,
0010
0000
1001
1001
,
0100
0000
1001
1001
,
0010
0100
1001
1001
,
0010
1001
0100
1001
,
0010
0100
0100
0000
,
0110
0000
1001
0000
,
0110
0000
1001
0001
,
0001
0001
0001
1000
,
0001
0001
0001
0100
,
0001
0001
0001
0010
,
0001
0001
0001
0110
,
0100
0100
0100
1001
,
0010
0010
0010
1001
,
0000
1000
0100
1000
,
0000
0001
0100
0001
,
0000
0010
0100
0010
,
0000
1000
0001
1000
,
0000
0001
1000
0001
,
0000
1000
0100
0001
,
0001
0010
0001
0010
,
0100
1000
0100
1000
,
0001
0001
1000
0100
,
1000
1000
0001
0100
,
0001
0100
0010
1000
,
0010
1000
0001
0100
,
0010
0100
0100
0010
,
1000
0001
0001
1000
,
0010
0100
0010
0100
,
1001
0110
1001
0000
,
0110
0000
1001
0000
,
1001
0100
0010
1000
,
1000
1000
1000
1000
,
0001
0000
0000
0000
,
1001
0001
1000
0000
,
1001
0100
0010
0001
,
1000
0100
0010
0001
,
1000
0100
0000
0000
,
1001
0000
0110
0000
,
0110
0000
0001
1000
,
0001
1000
0001
0100
,
0010
1000
0010
1000
,
0010
0100
0010
0100
,
0001
1000
0010
0010
,
1001
0100
0100
0010
,
0110
1001
0000
0000
,
1001
0001
0001
0001
,
1000
1000
1000
0000
,
1001
0100
0010
0001
,
1000
0100
0010
0001
,
2002
0000
0000
0000
,
3003
0000
0000
0000
;

//---------------dance-single - ----------------
#NOTEDATA:;
#CHARTNAME:;
#STEPSTYPE:dance-single;
#DESCRIPTION:;
#CHARTSTYLE:;
#DIFFICULTY:Medium;
#METER:7;
#RADARVALUES:0.354419,0.452950,0.535304,0.020589,0.000000,241.000000,189.000000,52.000000,2.000000,0.000000,0.000000,0.000000,0.000000,0.000000,0.354419,0.452950,0.535304,0.020589,0.000000,241.000000,189.000000,52.000000,2.000000,0.000000,0.000000,0.000000,0.000000,0.000000;
#CREDIT:;
#NOTES:
0000
0000
0000
0000
,
0000
0000
0000
0000
,
0000
0000
0000
0000
,
0000
0000
0000
0000
,
0000
0000
0000
0000
,
0010
0001
1100
1100
,
0010
1000
0101
0101
,
1000
0001
1100
0101
,
0110
0011
1001
1100
,
0010
0100
0100
0000
,
1100
1000
1100
0100
,
0011
0001
0011
0010
,
1000
0100
1000
0100
,
0010
0001
0010
0001
,
1000
0010
1000
0010
,
0100
0001
0001
0100
,
0100
0100
0100
1010
,
0010
0010
0010
0101
,
1000
0000
1000
0000
0100
0000
1000
0100
,
0010
0001
0101
0000
,
0001
0000
0001
0000
0100
0000
0001
0100
,
0010
1000
1001
0000
,
1000
0000
1000
0000
0001
0000
0100
0010
,
0100
1001
0110
0000
,
0001
1001
1000
1001
,
0100
0110
0010
0110
,
0001
0101
0100
0101
,
0010
1010
1000
1010
,
0100
1001
0010
1001
,
0010
0010
0100
0100
,
1000
1000
0001
0001
,
1000
1000
0100
0100
,
0010
0010
0001
0001
,
0011
0110
1100
0000
,
0101
0010
1100
0001
,
1010
0001
1000
0001
,
0010
0010
0010
0010
,
1000
0000
0000
0000
,
0001
0011
1000
1100
,
0001
0001
0100
0100
,
0010
0010
1000
1000
,
0101
1010
0101
0000
,
1001
0010
1100
0010
,
0101
1000
1000
1000
,
0001
0001
0001
0100
,
0010
1000
0010
1000
,
0010
0100
0010
0100
,
0001
1000
0010
0010
,
1001
0100
0100
0010
,
1100
1001
0000
0000
,
0010
0100
0010
0100
,
1000
0100
0010
0001
,
1001
1001
0110
0110
,
0010
0010
0001
0001
,
2200
0000
0000
0000
,
3300
0000
0000
0000
;

//---------------dance-single - ----------------
#NOTEDATA:;
#CHARTNAME:;
#STEPSTYPE:dance-single;
#DESCRIPTION:;
#CHARTSTYLE:;
#DIFFICULTY:Hard;
#METER:10;
#RADARVALUES:0.416184,0.452950,0.494127,0.010294,0.000000,283.000000,235.000000,48.000000,1.000000,0.000000,0.000000,0.000000,0.000000,0.000000,0.416184,0.452950,0.494127,0.010294,0.000000,283.000000,235.000000,48.000000,1.000000,0.000000,0.000000,0.000000,0.000000,0.000000;
#CREDIT:;
#NOTES:
0000
0000
0000
0000
,
0000
0000
0000
0000
,
0000
0000
0000
0000
,
0000
0000
0000
0000
,
0000
0000
0000
0000
,
0001
1000
0100
0000
1001
0000
1100
0000
,
0010
0100
0001
0000
0110
0000
0101
0000
,
1000
0001
0010
0000
0101
0000
0110
0000
,
1000
0100
0010
0000
0011
0000
1100
0000
,
0001
0100
0100
0000
,
1001
1100
1001
0011
,
1001
0001
1000
1000
,
1000
0100
1000
0100
1000
0000
0001
0000
,
0001
0010
0001
0010
0001
0000
1000
0000
,
1000
0001
1000
0001
1000
0000
0100
0000
,
0010
0100
0010
0100
0010
0000
1001
0000
,
0100
0100
0010
0010
,
1000
0000
1000
0000
0001
1000
0100
0000
,
0000
0000
1000
0100
0010
0000
1000
0100
,
0010
0000
1000
0100
0010
0000
0000
0000
,
0001
0000
0001
0100
0010
0000
0001
0100
,
0010
0000
0001
0100
0010
0000
0001
0100
,
0010
1001
1001
0001
,
1000
0100
0001
0000
1000
0100
0001
0000
,
1000
0100
0001
0000
1000
0000
1001
0000
,
0000
1100
1100
1100
,
0100
0100
0100
0001
,
0000
0011
0011
0011
,
1000
0010
0100
0000
1000
0010
0100
0000
,
1000
0010
0100
0000
1000
0010
0100
0000
,
1000
1000
0001
0001
,
1000
0100
1000
0000
0100
0010
0100
0000
,
0010
0001
0010
0000
0001
0010
0001
0000
,
1100
1001
0011
0000
,
1100
1010
0101
0011
,
1001
0100
0001
0100
,
0010
0010
0010
0001
,
1000
0000
0000
0000
,
0010
1001
0100
1001
,
0001
1000
0001
0000
0100
0000
1001
0000
,
0110
0100
1000
1000
,
1100
0011
1001
0000
,
0110
1010
1001
0101
,
1001
0000
0100
0000
0001
1000
0001
0000
,
0010
0100
0010
0100
,
0010
0000
0010
0000
1000
0001
0100
0000
,
1000
0001
0100
0000
1000
0001
0100
0000
,
0001
0000
1000
0000
0001
1000
1000
0000
,
1001
0100
0010
1001
,
0100
0100
0100
0000
0000
0001
0001
0001
,
1000
0000
1000
0000
0001
0010
0000
0011
,
0000
0110
0000
1100
0000
1000
1000
1000
,
0001
0000
0001
0000
1000
0100
0000
1000
,
0000
1000
0100
0010
1000
0100
0010
0001
,
2000
0001
0001
0001
,
3000
0000
0000
0000
;

//---------------dance-double - ----------------
#NOTEDATA:;
#CHARTNAME:;
#STEPSTYPE:dance-double;
#DESCRIPTION:;
#CHARTSTYLE:;
#DIFFICULTY:Easy;
#METER:4;
#RADARVALUES:0.300006,0.389125,0.380890,0.000000,0.000000,204.000000,167.000000,37.000000,0.000000,0.000000,0.000000,0.000000,0.000000,0.000000,0.300006,0.389125,0.380890,0.000000,0.000000,204.000000,167.000000,37.000000,0.000000,0.000000,0.000000,0.000000,0.000000,0.000000;
#CREDIT:;
#NOTES:
00000000
00000000
00000000
00000000
,
00000000
00000000
00000000
00000000
,
00000000
00000000
00000000
00000000
,
00000000
00000000
00000000
00000000
,
00000000
00000000
00000000
00000000
,
00000100
00000000
00011000
00011000
,
01000000
00000000
00011000
00011000
,
00100000
01000000
01100000
01100000
,
00001000
00011000
00000100
00000110
,
00000001
00000100
00010000
00000000
,
10010000
00000000
10010000
00000000
,
10010000
00000000
01000000
00010000
,
00001000
00000100
00000001
00001000
,
00000001
00000001
00000001
00001000
,
00000010
00000010
00000010
00010000
,
00001000
00001000
00001000
00100000
,
00010000
00010000
00010000
10010000
,
00100000
00100000
00100000
10010000
,
00000000
00100000
01000000
00100000
,
00000000
00001000
00010000
00001000
,
00000000
00000010
00000100
00000010
,
00000000
00000001
00001000
00000001
,
00000000
00010000
00001000
00010000
,
00000000
10000000
00010000
10000000
,
00010000
00001000
00010000
00011000
,
00000100
00000010
00000100
00000110
,
00001000
00000001
00001000
00001001
,
00010000
00001000
00010000
00011000
,
01000000
00100000
01000000
01100000
,
10000000
00010000
10000000
10010000
,
01000000
00100000
00010000
00001000
,
00000100
00000010
00000001
00001000
,
00000001
00000100
00000010
00001000
,
00011000
00011000
00011000
00000000
,
10010000
00000000
10010000
00000000
,
10010000
00000000
00001000
00001000
,
00001000
00001000
00001000
00001000
,
00010000
00000000
00000000
00000000
,
00011000
00000000
00011000
00000000
,
00011000
00000000
00000100
00000010
,
00010000
00001000
00010000
00000100
,
00000010
00000001
00000000
00000000
,
00001001
00000000
00001001
00000000
,
00001001
00000000
00000001
00001000
,
00000100
00000010
00001000
00010000
,
01000000
00100000
00010000
10000000
,
00100000
01000000
00001000
00010000
,
00001000
00010000
00000100
00000100
,
00000110
00000010
00000010
00000010
,
00001001
00000110
00000000
00000000
,
00001001
00001000
00001000
00001000
,
00010000
00010000
00010000
00000000
,
00011000
00000100
00000010
00000001
,
00000001
00000100
00000010
00001000
,
00011000
00000000
00000000
00000000
;

//---------------dance-double - ----------------
#NOTEDATA:;
#CHARTNAME:;
#STEPSTYPE:dance-double;
#DESCRIPTION:;
#CHARTSTYLE:;
#DIFFICULTY:Medium;
#METER:8;
#RADARVALUES:0.347065,0.416920,0.514716,0.000000,0.000000,236.000000,186.000000,50.000000,0.000000,0.000000,0.000000,0.000000,0.000000,0.000000,0.347065,0.416920,0.514716,0.000000,0.000000,236.000000,186.000000,50.000000,0.000000,0.000000,0.000000,0.000000,0.000000,0.000000;
#CREDIT:;
#NOTES:
00000000
00000000
00000000
00000000
,
00000000
00000000
00000000
00000000
,
00000000
00000000
00000000
00000000
,
00000000
00000000
00000000
00000000
,
00000000
00000000
00000000
00000000
,
00001000
00000100
00001100
00011000
,
00010000
01000000
01010000
00011000
,
00010000
00001000
00110000
00001100
,
00001000
00001001
00011000
10010000
,
00100000
00100000
01000000
00000000
,
11000000
01000000
10010000
01000000
,
00110000
00010000
00101000
00010000
,
00000010
00000100
00000001
00001000
,
00000001
00000100
00000001
00000100
,
00000010
00001000
00000010
00001000
,
00000100
00010000
00001000
00100000
,
00010000
00010000
00010000
01010000
,
10000000
10000000
10000000
10010000
,
00100000
00100000
10000000
01000000
,
00010000
01000000
01010000
00000000
,
00010000
01000000
00001000
00010000
,
00000100
00000100
00001100
00000000
,
00001000
00000100
00001000
00000001
,
00001000
00000110
00001001
00000000
,
00010000
00011000
00001000
00011000
,
00100000
01100000
01000000
01100000
,
00010000
10010000
10000000
10010000
,
00001000
00011000
00010000
00011000
,
00000100
00001100
00000001
00000101
,
00000100
00000001
00000100
00000010
,
00010000
00001000
10000000
01000000
,
10000000
00010000
01000000
00001000
,
00010000
00000010
00001000
00000001
,
00001010
00011000
01010000
00000000
,
10010000
00010000
10010000
00010000
,
10010000
00001000
01000000
00010000
,
01000000
00010000
00100000
00100000
,
00001000
00000000
00000000
00000000
,
00001000
00011000
00010000
00001100
,
00000100
00110000
00010000
00100000
,
00010000
10000000
00010000
00010000
,
01001000
00011000
00010010
00000000
,
00001001
00000100
00001100
00010000
,
00010100
00000100
00001000
00000001
,
00001000
00010000
01000000
00100000
,
10000000
01000000
00100000
00010000
,
00100000
00010000
00001000
00000100
,
00100000
00010000
00001000
00000100
,
00001000
00000100
00000010
00000001
,
00001000
00001001
00000000
00000000
,
00000001
00000010
00000100
00000010
,
00000100
00001000
00000100
00001000
,
00011000
00011000
01100000
01100000
,
10000000
00010000
00001000
00000001
,
00000110
00000000
00000000
00000000
;

//---------------dance-double - ----------------
#NOTEDATA:;
#CHARTNAME:;
#STEPSTYPE:dance-double;
#DESCRIPTION:;
#CHARTSTYLE:;
#DIFFICULTY:Hard;
#METER:11;
#RADARVALUES:0.386772,0.452950,0.452950,0.010294,0.000000,263.000000,219.000000,44.000000,1.000000,0.000000,0.000000,0.000000,0.000000,0.000000,0.386772,0.452950,0.452950,0.010294,0.000000,263.000000,219.000000,44.000000,1.000000,0.000000,0.000000,0.000000,0.000000,0.000000;
#CREDIT:;
#NOTES:
00000000
00000000
00000000
00000000
,
00000000
00000000
00000000
00000000
,
00000000
00000000
00000000
00000000
,
00000000
00000000
00000000
00000000
,
00000000
00000000
00000000
00000000
,
00001000
00000010
00001001
00001100
,
00100000
00001000
00110000
01100000
,
10000000
00100000
10010000
11000000
,
00100000
01000000
00110000
00101000
,
00010000
00010000
00010000
00000000
,
00011000
00001100
00000101
00001001
,
00000110
00000000
00010000
00010000
,
00010000
00001000
00010000
00000000
00001000
00000000
00000010
00000000
,
00000100
00000010
00000100
00000000
,
00010000
00001000
00010000
00000000
00001000
00000000
01000000
00000000
,
00001000
00010000
00001000
00000000
00010000
00000000
00000100
00000000
,
00010000
00010000
00001000
00010000
,
00000100
00000000
00010000
00000000
00001000
01000000
00010000
00000000
,
00000000
00000000
10000000
01000000
00100000
00000000
01000000
00100000
,
00010000
00000000
00100000
00010000
00001000
00000000
00000000
00000000
,
00010000
00000000
00010000
00001000
00100000
00000000
00010000
00001000
,
00100000
00000000
00010000
00001000
01000000
00000000
00000000
00000000
,
01000000
01010000
00001100
00000100
,
00001000
00000100
00010000
00000000
00001000
00000100
00010000
00000000
,
00001000
00000100
00010000
00000000
00001000
00000000
00001001
00000000
,
00001001
00001100
00011000
00110000
,
00100000
00100000
00100000
00010000
,
00000000
00100000
00010000
00000010
,
00000001
00000000
00000001
00000000
00000001
00001000
00000010
00000000
,
00010000
00000010
00010000
00000000
00001000
00010000
00001000
00000000
,
01000000
01000000
00010000
00010000
,
10000000
00010000
10000000
00000000
01000000
00100000
01000000
00000000
,
00010000
00001000
00010000
00000000
00000100
00000010
00000100
00000000
,
00000110
00011000
01100000
00000000
,
10010000
01001000
00011000
00010100
,
00001001
00000000
00000001
00000001
,
00001000
00001000
00001000
00000001
,
00000100
00000000
00000000
00000000
,
01100000
00010000
01100000
10000000
,
01100000
00010000
01000000
00010000
,
01000000
00001000
00010000
00000100
,
00001100
00011000
01010000
00000000
,
01100000
10010000
00011000
00000110
,
00001001
00000100
00010000
10000000
,
10000000
01000000
00100000
00010000
,
00001000
00000000
00000100
00000000
00000010
00000001
00000100
00000000
,
00000001
00000100
00000010
00000000
00000100
00000010
00001000
00000000
,
00000010
00000000
00010000
00000000
00010000
00001000
00001000
00000000
,
00011000
00100000
01000000
11000000
,
00100000
00100000
00100000
00000000
00000000
01000000
01000000
01000000
,
10000000
00000000
00010000
00000000
00010000
10000000
00000000
00110000
,
00000000
00011000
00000000
00001100
00000000
00001000
00001000
00001000
,
00000001
00000000
00001000
00000000
00001000
00000001
00000000
00000001
,
00000000
00001000
00000100
00010000
00001000
00100000
00010000
10000000
,
00020000
00100000
00001000
00100000
,
00030000
00000000
00000000
00000000
;

//---------------dance-single - ----------------
#NOTEDATA:;
#CHARTNAME:;
#STEPSTYPE:dance-single;
#DESCRIPTION:;
#CHARTSTYLE:;
#DIFFICULTY:Beginner;
#METER:2;
#RADARVALUES:0.075001,0.113237,0.020589,0.041177,0.000000,51.000000,49.000000,2.000000,4.000000,0.000000,0.000000,0.000000,0.000000,0.000000,0.075001,0.113237,0.020589,0.041177,0.000000,51.000000,49.000000,2.000000,4.000000,0.000000,0.000000,0.000000,0.000000,0.000000;
#CREDIT:;
#NOTES:
0000
0000
0000
0000
,
0000
0000
0000
0000
,
0000
0000
0000
0000
,
0000
0000
0000
0000
,
0000
0000
0000
0000
,
0001
0000
0000
0000
,
1000
0000
0000
0000
,
0010
0000
0000
0000
,
0100
0000
0000
0000
,
0001
0000
0000
0000
,
0010
0000
0000
0000
,
0100
0000
0000
0000
,
1000
0000
0000
0000
,
0100
0000
0000
0000
,
0010
0000
0000
0000
,
0001
0000
0000
0000
,
0010
0000
0000
0000
,
0100
0000
0000
0000
,
1000
0000
0000
0000
,
0010
0000
0000
0000
,
0100
0000
0000
0000
,
0001
0000
0000
0000
,
1000
0000
0000
0000
,
0100
0000
0000
0000
,
0010
0000
0000
0000
,
0001
0000
0000
0000
,
0010
0000
0000
0000
,
0100
0000
0000
0000
,
1000
0000
0000
0000
,
1000
0000
0000
0000
,
0010
0000
0000
0000
,
0010
0000
0000
0000
,
0100
0000
0000
0000
,
0100
0000
0000
0000
,
0001
0000
0000
0000
,
0001
0000
0000
0000
,
0001
0000
0000
0000
,
1000
0000
0000
0000
,
0100
0000
0000
0000
,
0010
0000
0000
0000
,
0001
0000
0000
0000
,
0010
0000
0000
0000
,
0100
0000
0000
0000
,
1000
0000
0000
0000
,
0010
0000
0000
0000
,
0001
0000
0000
0000
,
0010
0000
0000
0000
,
1000
0000
0000
0000
,
2002
0000
0000
0000
,
3003
0000
0000
0000
,
0001
0000
0000
0000
,
0010
0000
0000
0000
,
1000
0000
0000
0000
,
0100
0000
0000
0000
,
0022
0000
0000
0000
,
0033
0000
0000
0000
;

//---------------dance-single - ----------------
#NOTEDATA:;
#CHARTNAME:;
#STEPSTYPE:dance-single;
#DESCRIPTION:;
#CHARTSTYLE:;
#DIFFICULTY:Challenge;
#METER:17;
#RADARVALUES:0.679425,0.901782,0.442656,0.154415,0.422067,462.000000,419.000000,43.000000,15.000000,88.000000,0.000000,0.000000,0.000000,0.000000,0.679425,0.901782,0.442656,0.154415,0.422067,462.000000,419.000000,43.000000,15.000000,88.000000,0.000000,0.000000,0.000000,0.000000;
#CREDIT:;
#NOTES:
// measure 0
0000
0000
0000
0000
,  // measure 1
0000
0000
0000
0000
,  // measure 2
0000
0000
0000
0000
,  // measure 3
0000
0000
0000
0000
,  // measure 4
0000
0000
0000
0000
,  // measure 5
1000
0000
0001
1000
0100
0000
1000
0001
0100
0000
0010
0000
MMMM
0000
0100
0000
,  // measure 6
0010
0000
1000
0001
0010
0000
0001
1000
0010
0000
0100
0000
MMMM
0000
0010
0000
,  // measure 7
0100
0000
0001
0010
0100
0000
0010
0100
1000
0000
0100
0000
MMMM
0000
1000
0000
,  // measure 8
0100
0000
0010
0001
0010
0000
0001
0010
0001
0000
0100
0000
MMMM
0000
1000
0000
,  // measure 9
0020
0000
1000
0000
0130
0100
0010
0010
,  // measure 10
1000
0100
0010
0001
MMMM
0000
0001
0000
0001
0010
0100
1000
MMMM
0000
1000
0000
,  // measure 11
1000
0100
0010
0001
0000
0000
0010
0000
MMMM
0000
0100
0000
1000
0000
0100
0000
,  // measure 12
0020
0032
2003
3200
,  // measure 13
0310
0001
0100
0010
1000
0001
MMMM
1000
,  // measure 14
0200
0000
1300
1001
0000
1100
0000
1010
,  // measure 15
0000
MMMM
0000
1000
0100
0000
0010
0000
0000
0000
0011
0000
0001
0000
1001
0000
,  // measure 16
1000
0000
0000
0000
0001
0000
1000
0000
0010
0100
0010
0100
0010
0100
0010
0100
,  // measure 17
0010
0100
0010
0100
0010
0100
0010
0100
0010
0100
0010
0100
0010
0100
0010
0100
,  // measure 18
0010
0001
0100
0010
1000
0100
0010
0001
,  // measure 19
0100
0010
1000
0100
0010
0001
0100
0010
,  // measure 20
1000
0100
0010
0001
0100
0010
1000
0100
,  // measure 21
0010
0001
0100
0010
1000
0100
0010
0001
,  // measure 22
1000
0010
0100
0001
0010
0100
1000
0100
,  // measure 23
1000
0010
0100
0001
0010
0100
1000
0100
,  // measure 24
1000
0010
0100
0001
0010
0100
1000
0100
,  // measure 25
1000
0010
0100
0001
0010
0100
1000
0100
,  // measure 26
1000
0010
0001
0010
1000
0001
0010
1000
,  // measure 27
0010
0001
1000
0010
0001
0010
1000
0001
,  // measure 28
0010
1000
0010
0001
1000
0010
0001
0010
,  // measure 29
2000
0000
3020
0000
0230
0001
0302
1000
,  // measure 30
1003
0001
0010
0100
MMMM
1000
0100
1000
,  // measure 31
0010
0000
0100
0000
0001
0000
0010
0000
0000
0100
1000
0000
0100
1000
0100
0000
,  // measure 32
0010
0000
0100
0000
0001
0000
0010
0000
0001
0000
1000
0000
0001
0010
0100
2000
,  // measure 33
0002
0000
0000
3003
MMMM
0001
0010
0100
,  // measure 34
1000
0100
0010
0001
MMMM
0000
0001
0010
0100
1000
0100
1000
MMMM
0000
0010
0100
,  // measure 35
0010
0100
0001
0010
MMMM
0000
0001
0000
0010
0100
1000
0000
0100
0000
0010
0000
,  // measure 36
0001
0010
0001
0010
0001
0010
0001
0010
0100
1000
0100
1000
0100
1000
0100
1000
,  // measure 37
0010
1000
1001
1000
0100
0010
0011
0001
,  // measure 38
0000
0000
0101
0000
0000
0000
1010
0000
1000
0100
0010
0000
0000
0000
0011
0000
,  // measure 39
0001
0010
0100
0000
0000
0000
1100
0000
0100
1000
0010
0000
0110
0000
0110
0000
,  // measure 40
1001
0000
1001
0000
0110
0000
0110
0000
1010
0000
0101
0000
0001
0010
0001
0010
,  // measure 41
0100
1000
0100
1000
0010
0100
0010
0100
MMMM
0000
0100
0010
0100
0000
1000
0000
,  // measure 42
0001
0010
0100
1000
0010
MMMM
1000
0100
0010
0001
0010
0100
1000
MMMM
0100
0010
,  // measure 43
0100
1000
0100
0010
0001
0000
1000
0000
0001
0000
0010
0100
1000
0000
0010
0000
,  // measure 44
1000
1010
1000
1001
0001
0011
0001
0101
,  // measure 45
0100
0000
0010
0100
0010
0000
0001
1000
0001
0000
1000
0100
0010
0000
0001
0000
,  // measure 46
0100
0000
0000
0001
0100
0000
0110
0000
0000
0000
1010
0000
0000
0000
0202
0000
,  // measure 47
0303
MMMM
0000
0001
0010
0000
0110
0000
0000
0000
1100
0000
1000
0000
1010
0000
,  // measure 48
1001
0000
1001
0000
0110
0000
0110
0000
1000
0010
1000
0010
0100
0001
0100
0001
,  // measure 49
1000
1000
1000
0100
MMMM
0100
0010
0001
,  // measure 50
1000
0000
0101
0000
0001
0010
0000
0110
,  // measure 51
0000
1100
0000
1001
MMMM
0101
MMMM
1010
,  // measure 52
1100
0000
0110
0000
0001
0010
0000
0011
,  // measure 53
MMMM
0000
0100
0000
0110
0000
1000
0000
0100
0000
1000
0000
0100
1000
0010
0100
,  // measure 54
0002
0000
0010
0010
0000
0100
0103
0000
;
