#VERSION:0.83;
#TITLE:ロマンスの神様;
#SUBTITLE:;
#ARTIST:JUDY CRYSTAL;
#TITLETRANSLIT:ROMANCE NO KAMISAMA;
#SUBTITLETRANSLIT:;
#ARTISTTRANSLIT:;
#GENRE:;
#ORIGIN:;
#CREDIT:;
#BANNER:ROMANCE NO KAMISAMA.png;
#BACKGROUND:ROMANCE NO KAMISAMA-bg.png;
#PREVIEWVID:;
#JACKET:ROMANCE NO KAMISAMA-jacket.png;
#CDIMAGE:;
#DISCIMAGE:;
#LYRICSPATH:;
#CDTITLE:;
#MUSIC:ROMANCE NO KAMISAMA.ogg;
#OFFSET:0.000000;
#SAMPLESTART:53.485001;
#SAMPLELENGTH:15.000000;
#SELECTABLE:YES;
#DISPLAYBPM:157.000000;
#BPMS:0.000=157.492,
4.000=156.988;
#STOPS:;
#DELAYS:;
#WARPS:;
#TIMESIGNATURES:0.000=4=4;
#TICKCOUNTS:0.000=4;
#COMBOS:0.000=1;
#SPEEDS:0.000=1.000=0.000=0;
#SCROLLS:0.000=1.000;
#FAKES:;
#LABELS:0.000=Song Start;
#BGCHANGES:;
#KEYSOUNDS:;
#ATTACKS:
;

//---------------dance-single - ----------------
#NOTEDATA:;
#CHARTNAME:;
#STEPSTYPE:dance-single;
#DESCRIPTION:;
#CHARTSTYLE:;
#DIFFICULTY:Easy;
#METER:7;
#RADARVALUES:0.261327,0.342077,0.121953,0.012195,0.000000,150.000000,140.000000,10.000000,1.000000,0.000000,0.000000,0.000000,0.000000,0.000000,0.261327,0.342077,0.121953,0.012195,0.000000,150.000000,140.000000,10.000000,1.000000,0.000000,0.000000,0.000000,0.000000,0.000000;
#CREDIT:;
#DISPLAYBPM:157.000000;
#NOTES:
0000
0000
0000
0000
,
0000
0000
0000
0000
,
1000
0000
1000
0000
,
0001
0000
0001
0000
,
1000
0000
0010
0000
,
1000
0000
0001
0000
,
0010
0000
0010
0000
,
0001
0000
0001
0000
,
0010
0000
0001
0000
,
1000
0001
1000
0000
,
0010
0010
0010
0000
,
1000
1000
1000
0000
,
0010
1000
0001
0100
,
0001
1000
0001
0000
,
0010
0010
0010
0000
,
0001
0001
0001
0000
,
1000
0010
1000
0010
,
0100
0000
0000
0000
,
0001
0010
0001
0000
,
1000
0010
1000
0000
,
0001
0001
1000
1000
,
0100
0001
0100
0000
,
1000
0010
0100
0000
,
0001
0010
0100
0000
,
1000
1000
0001
0001
,
1001
0000
0000
0000
,
0010
0000
1000
0000
,
0001
0001
1001
0000
,
0010
0010
0001
1000
,
0010
1000
0100
0001
,
0100
0000
1000
0000
,
0001
0001
1001
0000
,
0110
0000
1001
0000
,
0001
0000
1000
0000
,
0001
1000
0001
1000
,
0001
0001
1001
0000
,
0010
0100
0010
0100
,
0001
0001
0010
0001
,
1000
0010
1000
0001
,
0010
0010
0110
0000
,
1000
0010
1000
0010
,
0100
0100
0001
0100
,
0001
0001
1001
1001
,
0010
0000
0010
0000
,
0100
0000
0100
0000
,
0001
0000
0010
0000
,
0001
0000
1000
0000
,
0010
0000
0010
0000
,
1000
0000
1000
0000
,
0001
0010
0100
0000
,
1000
0010
0200
0300
,
1001
0000
0000
0000
;

//---------------dance-single - ----------------
#NOTEDATA:;
#CHARTNAME:;
#STEPSTYPE:dance-single;
#DESCRIPTION:;
#CHARTSTYLE:;
#DIFFICULTY:Medium;
#METER:10;
#RADARVALUES:0.397217,0.497567,0.256101,0.000000,0.000000,228.000000,207.000000,21.000000,0.000000,0.000000,0.000000,0.000000,0.000000,0.000000,0.397217,0.497567,0.256101,0.000000,0.000000,228.000000,207.000000,21.000000,0.000000,0.000000,0.000000,0.000000,0.000000,0.000000;
#CREDIT:;
#DISPLAYBPM:157.000000;
#NOTES:
0000
0000
0000
0000
,
0000
0000
0000
0000
,
0010
1000
0010
1001
,
0010
0001
0010
1001
,
0010
0010
1000
1000
,
0001
0010
0100
1000
,
0001
0100
0001
1001
,
1000
0100
1000
1001
,
0010
0010
1000
1000
,
0001
0010
0001
0000
,
0010
0001
0010
0100
0000
0000
0000
0000
,
0010
0100
0010
0001
0000
0000
0000
0000
,
1000
1000
0001
0100
,
0010
1000
0010
0100
0000
0000
0000
0000
,
0001
0010
0001
1000
0000
0000
0000
0000
,
0010
1000
0010
0100
0000
0000
0000
0000
,
0001
0001
1000
0100
,
0010
0000
0001
1000
0000
0000
0000
0000
,
0010
1000
0010
0100
0000
0000
0000
0000
,
0001
0010
0001
1000
0000
0000
0000
0000
,
0010
0010
1000
0001
,
0100
1000
0100
0001
0000
0000
0000
0000
,
1000
0010
0100
0001
0000
0000
0000
0000
,
0010
0100
1000
0001
0000
0000
0000
0000
,
1000
0000
1000
0000
0001
0010
0100
0000
,
1000
0000
0010
1000
,
1010
1010
0100
0001
,
0010
0010
0001
1000
,
0010
0000
0010
1000
,
0001
0010
0100
0110
,
1000
0000
1000
0001
,
0010
0000
0010
0001
,
1000
1001
0001
1001
,
0100
0001
0100
0001
0100
0010
0100
0010
,
1000
1000
0001
0001
0001
0000
0100
0000
,
0110
0110
1001
0100
,
0001
0000
0001
0000
0100
1000
0100
0000
,
0010
0000
0010
0000
1000
0100
0001
0000
,
0100
1000
0100
0010
0100
1000
0001
0000
,
0110
0110
1001
0100
,
0010
0000
0010
0000
0100
0001
0010
0000
,
0100
1000
0100
0001
0100
1000
0010
0000
,
1000
1001
0001
0010
,
0001
0100
0001
0101
,
0010
0100
0010
0110
,
0010
0010
1000
1000
,
0001
0010
0100
1000
,
0001
0100
0010
1010
,
0100
0010
1000
1010
,
0001
0001
0010
0010
,
0100
1000
0001
0100
,
1001
0000
0000
0000
;

//---------------dance-single - ----------------
#NOTEDATA:;
#CHARTNAME:;
#STEPSTYPE:dance-single;
#DESCRIPTION:;
#CHARTSTYLE:;
#DIFFICULTY:Hard;
#METER:13;
#RADARVALUES:0.587115,0.653057,0.146343,0.012195,0.243905,337.000000,325.000000,12.000000,1.000000,0.000000,0.000000,0.000000,0.000000,0.000000,0.587115,0.653057,0.146343,0.012195,0.243905,337.000000,325.000000,12.000000,1.000000,0.000000,0.000000,0.000000,0.000000,0.000000;
#CREDIT:;
#DISPLAYBPM:157.000000;
#NOTES:
0000
0000
0000
0000
,
0000
0000
0000
0000
,
0010
0001
0010
0001
1000
0000
0001
0000
0100
0000
0000
0000
0010
0000
0000
0000
,
1000
0010
1000
0010
0100
0000
0001
0000
0010
0000
0000
0000
0001
0000
0000
0000
,
0100
0001
0100
0010
0100
0000
0000
0000
0001
1000
0001
0100
0001
0000
0000
0000
,
1000
0100
0000
0000
1000
0100
0000
0000
0010
0001
0000
0000
0010
0001
0000
0000
,
0100
0001
1000
0001
0100
0000
0010
0000
1000
0000
0000
0000
0100
0000
0000
0000
,
0001
0100
0010
0100
1000
0000
0001
0000
0100
0000
0000
0000
0010
0000
0000
0000
,
0100
0001
0100
1000
0100
0000
0000
0000
0010
1000
0010
0100
0010
0000
0000
0000
,
1000
0000
1000
0000
1000
0010
0000
1000
,
0010
0100
0001
1000
0000
0100
0000
0010
,
0001
1000
0010
0100
0000
0010
1000
0001
,
0010
0100
0010
0001
1000
1000
0001
1000
,
0010
1000
0010
0100
0000
0001
0100
1000
,
0100
0010
1000
0100
0000
0001
0100
1000
,
0010
1000
0001
0010
0000
0100
1000
0100
,
0001
0100
1000
1000
0001
0001
0100
0010
,
0100
0000
0000
0000
0000
0010
0000
1000
,
0010
0100
0001
1000
0000
0100
0000
0010
,
0001
1000
0010
0100
0000
0010
1000
0001
,
0100
1000
0100
0001
0100
0100
0001
1000
,
0100
0001
0100
1000
0000
0010
0000
1000
,
0001
0100
1000
0100
0000
0001
0000
0100
,
0001
1000
0100
0010
0000
0100
0000
1000
,
0100
0001
0100
1000
0001
0001
0100
0010
,
0100
0000
0001
0001
,
1001
1001
0010
1000
,
0001
0010
0001
0000
1000
0000
1001
0000
,
0010
0000
0010
0000
0100
1000
0100
0000
,
0001
0001
1000
0001
,
1000
1000
0010
0010
,
1000
0010
0100
0000
0001
0010
0100
0000
,
0011
0100
1100
0001
,
0100
0100
0100
0100
,
0000
0010
1000
0010
0100
0000
1001
0000
,
0010
0000
0001
0000
0100
0010
1000
0000
,
0010
0100
0001
1000
0100
0010
0001
0000
,
0100
0010
1000
0001
0100
1000
0100
0010
,
1000
0100
0001
0100
0010
0000
0110
0000
,
1000
0000
0100
0000
0010
0001
1000
0000
,
0100
0010
0001
1000
0010
0100
0001
0000
,
0010
0100
1000
0001
0100
0010
1000
0100
,
0001
0100
0010
0001
0100
0010
1000
0100
,
0010
0001
0010
0001
1000
0000
0010
0000
0100
0000
0000
0000
1001
0000
0000
0000
,
1000
0010
1000
0010
0100
0000
0001
0000
0010
0000
0000
0000
1001
0000
0000
0000
,
0100
1000
0100
0010
1000
0000
0000
0000
0100
0001
0100
1000
0010
0000
0000
0000
,
1000
0100
0000
0000
1000
0100
0000
0000
0010
0001
0000
0000
0010
0001
0000
0000
,
0100
0001
1000
0001
0100
0000
0010
0000
1000
0000
0000
0000
0110
0000
0000
0000
,
0100
1000
0100
0010
1000
0000
0001
0000
0100
0000
0000
0000
0110
0000
0000
0000
,
0001
0100
1000
0100
0001
0000
0000
0000
0010
0100
0001
0100
1000
0000
0000
0000
,
0002
0000
0000
0003
,
1001
0000
0000
0000
;

//---------------dance-double - ----------------
#NOTEDATA:;
#CHARTNAME:;
#STEPSTYPE:dance-double;
#DESCRIPTION:;
#CHARTSTYLE:;
#DIFFICULTY:Easy;
#METER:3;
#RADARVALUES:0.266554,0.310979,0.085367,0.000000,0.000000,153.000000,146.000000,7.000000,0.000000,0.000000,0.000000,0.000000,0.000000,0.000000,0.266554,0.310979,0.085367,0.000000,0.000000,153.000000,146.000000,7.000000,0.000000,0.000000,0.000000,0.000000,0.000000,0.000000;
#CREDIT:;
#DISPLAYBPM:157.000000;
#NOTES:
00000000
00000000
00000000
00000000
,
00000000
00000000
00000000
00000000
,
00100000
00000000
00001000
00010000
,
00000010
00000000
00010000
00001000
,
01000000
00000000
00100000
00000000
,
10000000
01000000
00001000
00000100
,
00010000
00000000
00001000
01000000
,
00001000
00000000
00010000
00000100
,
00000010
00000001
00001000
00000100
,
00010000
00001000
00010000
00000000
,
00000010
00000100
00000000
00000000
,
00000001
00001000
00000000
00000000
,
00100000
01000000
00010000
00000000
,
10000000
10000000
10000000
00000000
,
01000000
00001000
00000000
00000000
,
00000100
00001000
00000000
00000000
,
00000010
00000100
00000001
00000000
,
00001001
00000000
00000000
00000000
,
00000010
00010000
00000000
00000000
,
00001000
01000000
00000000
00000000
,
10000000
01000000
00010000
01000000
,
00001000
00010000
00000000
00000000
,
00000100
00000010
00000000
00000000
,
00000001
00001000
00000000
00000000
,
00000100
00000100
00010000
00010000
,
00011000
00000000
00000000
00000000
,
01000000
00000000
00100000
00000000
,
10000000
00000000
00010000
10010000
,
00100000
00000000
00010000
00000000
,
01000000
00001000
00010000
00000100
,
00000001
00000000
00000001
00000000
,
00000100
00001000
00100000
00000000
,
01100000
00000000
10010000
00000000
,
00100000
00100000
00100000
00100000
,
00001000
00001000
00001000
00011000
,
00000010
00001000
00000001
00000000
,
00000100
00001000
00000100
00000001
,
00000010
00000100
00010000
00001000
,
01000000
01000000
00010000
00000000
,
01000000
10000000
01000000
00000000
,
00001000
00010000
00000100
00000010
,
00000001
00000100
00001000
00100000
,
00010000
00010000
01000000
10000000
,
01000000
00000000
00001000
00010000
,
00000010
00000000
00010000
00001000
,
01000000
01000000
00100000
00100000
,
10000000
01000000
00010000
01000000
,
00001000
00000000
00000100
00010000
,
00000100
00000000
00000010
00000100
,
00010000
00001000
01000000
00001000
,
00100000
00010000
01000000
10000000
,
01100000
00000000
00000000
00000000
,
00000000
00000000
00000000
00000000
;

//---------------dance-double - ----------------
#NOTEDATA:;
#CHARTNAME:;
#STEPSTYPE:dance-double;
#DESCRIPTION:;
#CHARTSTYLE:;
#DIFFICULTY:Medium;
#METER:6;
#RADARVALUES:0.426834,0.497567,0.268296,0.000000,0.000000,245.000000,223.000000,22.000000,0.000000,0.000000,0.000000,0.000000,0.000000,0.000000,0.426834,0.497567,0.268296,0.000000,0.000000,245.000000,223.000000,22.000000,0.000000,0.000000,0.000000,0.000000,0.000000,0.000000;
#CREDIT:;
#DISPLAYBPM:157.000000;
#NOTES:
00000000
00000000
00000000
00000000
,
00000000
00000000
00000000
00000000
,
00100000
00010000
10000000
10010000
,
01000000
10000000
01000000
00011000
,
00000100
00000010
00000001
00001000
,
00000010
00010000
00001000
01000000
,
10000000
01000000
00010000
01100000
,
00001000
00010000
00000010
00001010
,
00000001
00000101
00000010
00011000
,
01000000
00100000
10000000
00000000
,
01000000
00010000
00001000
00000100
,
00000001
00000100
00001000
00010000
,
01000000
01000000
10000000
01000000
,
00010000
01000000
10000000
00000000
,
00010000
01000000
00001000
01000000
,
00010000
00100000
00001000
00010000
,
00000100
00000100
00000010
00000010
,
00000001
00000100
00001000
00000000
00000100
00000001
00001000
00000000
,
00000010
00010000
00001000
01000000
,
00010000
10000000
01000000
00001000
,
00010000
00010000
00000010
00000100
,
00001000
00000001
00000100
00000000
,
00000010
00010000
00001000
01000000
,
00100000
10000000
00010000
01000000
,
00001000
00001000
00010000
00010000
,
00011000
00001000
00010000
00000000
00000100
00000000
00000100
00000000
,
00000010
00000100
00010000
00010000
,
00001000
00010000
00001000
00000000
00010000
00000000
00011000
00000000
,
00000010
00001000
00000100
00000100
,
00010000
00001000
01000000
00000000
00100000
10000000
01000000
00000000
,
00010000
01000000
10000000
10000000
,
00010000
01000000
10000000
00000000
01000000
00000000
01010000
00000000
,
00001000
00011000
00000010
00001010
,
00000001
00000100
00001000
00000000
00010000
00001000
00000010
00000000
,
00000100
00001000
00000100
00010000
00000100
00000000
00011000
00000000
,
00100000
00010000
10000000
00000000
00100000
00000000
00100000
00000000
,
01000000
00001000
00010000
00000000
00000100
00000010
00000001
00000000
,
00000010
00000100
00001000
00000010
00001000
00000100
00010000
00001000
,
00010000
00001000
00100000
00010000
01000000
00000000
10010000
00000000
,
00100000
10000000
01000000
00000000
00100000
00000000
00100000
00000000
,
00001000
00000010
00000100
00000000
00001000
00000001
00000100
00000000
,
00000001
00000100
00001000
00010000
00001000
01000000
00010000
10000000
,
00010000
01010000
00001000
00011000
,
00000010
00001000
00000001
00001001
,
00000010
00010000
00001000
00011000
,
01000000
00100000
10000000
00010000
,
00100000
00001000
00010000
00000100
,
00000001
00000100
00001000
00001001
,
00010000
00001000
00100000
00110000
,
10000000
10010000
00100000
00011000
,
00000010
00000100
00001000
00000000
00000100
00000010
00010000
00000000
,
00011000
00000000
00000000
00000000
,
00000000
00000000
00000000
00000000
;

//---------------dance-double - ----------------
#NOTEDATA:;
#CHARTNAME:;
#STEPSTYPE:dance-double;
#DESCRIPTION:;
#CHARTSTYLE:;
#DIFFICULTY:Hard;
#METER:8;
#RADARVALUES:0.571436,0.559763,0.207320,0.000000,0.097562,328.000000,311.000000,17.000000,0.000000,0.000000,0.000000,0.000000,0.000000,0.000000,0.571436,0.559763,0.207320,0.000000,0.097562,328.000000,311.000000,17.000000,0.000000,0.000000,0.000000,0.000000,0.000000,0.000000;
#CREDIT:;
#DISPLAYBPM:157.000000;
#NOTES:
00000000
00000000
00000000
00000000
,
00000000
00000000
00000000
00000000
,
10000000
00010000
01000000
00000000
00100000
01000000
00001000
00000000
,
00010000
00000100
00000010
00000000
00000100
00010000
00001000
00000000
,
00100000
00000000
00000000
00100000
00010000
00000000
00000000
00000000
10000000
00000000
00000000
10000000
00100000
00000000
00000000
00000000
,
10000000
00000000
00000000
10000000
01000000
00000000
00000000
01000000
00001000
00000000
00000000
00001000
00000100
00000000
00000000
00000100
,
00001000
00000010
00000100
00000000
00001000
00000100
00000001
00000000
,
00001000
00000100
00010000
00000000
00100000
01000000
00010000
00000000
,
01000000
00000000
00000000
01000000
10000000
00000000
00000000
00000000
01000000
00000000
00000000
01000000
00010000
00000000
00000000
00000000
,
00100000
01000000
00010000
01000000
10000000
00000000
00000000
00000000
,
00100000
10000000
00100000
10000000
01000000
10000000
01000000
10000000
,
01000000
00010000
01000000
00010000
00001000
00010000
00001000
00010000
,
00001000
00000010
00001000
00000010
00001000
00010000
00000010
00000100
,
00000001
00001000
00000001
00001000
00000010
00001000
00000010
00001000
,
00000100
00000001
00000100
00000001
00000100
00010000
00000100
00010000
,
00100000
00010000
00100000
00010000
00001000
00010000
00001000
00010000
,
00100000
00010000
00001000
01000000
00100000
10000000
10000000
01000000
,
00010000
00000000
00000000
00000000
,
00000010
00000001
00000010
00000001
00000100
00000001
00000100
00000001
,
00000100
00001000
00000100
00001000
01000000
00010000
01000000
00010000
,
00100000
00010000
00100000
00010000
01000000
00100000
10000000
00010000
,
00100000
00001000
00010000
00000100
00000010
00000001
00000010
00000001
,
00001000
00000100
00001000
00000100
00000001
00000100
00000001
00000100
,
00010000
00001000
00010000
00001000
01000000
00001000
01000000
00001000
,
00100000
00010000
10000000
00100000
01000000
00010000
00010000
10000000
,
10010000
00000000
00000000
00000000
,
00011000
00000000
00001001
00000000
,
00000010
00000001
00000100
00001000
00010000
00100000
01100000
00000000
,
10010000
00000000
00011000
00000000
,
00000010
00001000
00000100
00010000
00100000
01000000
00010000
00000000
,
01100000
01100000
10010000
01000000
,
00001000
00010000
00000100
00000010
00000001
00001000
00000010
00010000
,
00001000
00001000
00000000
00000000
01000000
01000000
00000000
00000000
,
00100000
01000000
00010000
01000000
00001000
00010000
00001000
00000010
,
00000100
00000010
00000100
00001000
00000010
00000000
00001001
00000000
,
00000010
00001000
00000001
00000100
00000010
00001000
00000100
00000000
,
00010000
00100000
00010000
00100000
01000000
00010000
10000000
00000000
,
00010000
00100000
00001000
00010000
00000100
00001000
00000010
00001000
,
00001001
00001001
00011000
10010000
,
00100000
00010000
00001000
00010000
00100000
00001000
00010000
00000000
,
00001000
00000010
00001000
00000010
00000100
00001000
00000001
00000000
,
00001001
00000100
00011000
01000000
,
00100000
10000000
00010000
00100000
01000000
00010000
00001000
00000000
,
00000010
00001000
00000010
00000000
00000100
00010000
00001000
00000000
,
01000000
00010000
10000000
00000000
01000000
00001000
00010000
00000000
,
00000010
00000000
00000000
00000010
00000100
00000000
00000000
00000000
00001000
00000000
00000000
00001000
00000100
00000000
00000000
00000000
,
00001000
00000000
00000000
00001000
00000100
00000000
00000000
00000100
00010000
00000000
00000000
00010000
00001000
00000000
00000000
00001000
,
01000000
00100000
10000000
00000000
00010000
00100000
00001000
00000000
,
00010000
00000100
00001000
00000000
00000010
00000100
00001000
00000000
,
00000100
00000000
00000000
00000100
00000001
00000000
00000000
00000000
00000100
00000000
00000000
00000100
00001000
00000000
00000000
00000000
,
00010000
00001000
00100000
00001000
,
00011000
00000000
00000000
00000000
,
00000000
00000000
00000000
00000000
;

//---------------dance-single - ----------------
#NOTEDATA:;
#CHARTNAME:;
#STEPSTYPE:dance-single;
#DESCRIPTION:;
#CHARTSTYLE:;
#DIFFICULTY:Beginner;
#METER:2;
#RADARVALUES:0.149828,0.217686,0.000000,0.012195,0.000000,86.000000,86.000000,0.000000,1.000000,0.000000,0.000000,0.000000,0.000000,0.000000,0.149828,0.217686,0.000000,0.012195,0.000000,86.000000,86.000000,0.000000,1.000000,0.000000,0.000000,0.000000,0.000000,0.000000;
#CREDIT:;
#DISPLAYBPM:157.000000;
#NOTES:
0000
0000
0000
0000
,
0000
0000
0000
0000
,
1000
0000
0000
0100
,
0010
0000
0000
0001
,
0100
0000
0100
0000
,
1000
1000
1000
0000
,
0010
0000
0000
0010
,
0100
0000
0000
0100
,
0001
0001
0001
0000
,
1000
0000
1000
1000
,
0010
0000
0000
0000
,
0010
0000
0000
0000
,
0100
0000
0000
0000
,
0100
0000
0000
0000
,
1000
0000
0000
0000
,
1000
0000
0000
0000
,
0001
0000
0000
0000
,
0001
0000
0000
0000
,
0100
0000
0000
0000
,
0010
0000
0000
0000
,
1000
0000
0000
0000
,
0001
0000
0000
0000
,
0100
0000
0000
0000
,
0010
0000
0000
0000
,
1000
0000
0000
0000
,
0100
0000
0100
0100
,
0010
0000
0010
0000
,
0010
0001
0010
0000
,
0001
0000
0001
0000
,
0001
0100
0001
0000
,
0010
0000
0010
0000
,
0010
1000
0010
0000
,
1000
1000
0000
0100
,
0100
0000
0010
0010
,
0000
0001
0001
0000
,
0100
0000
0000
0000
,
0010
0000
0000
0000
,
1000
0000
0000
0000
,
0100
0100
0100
0000
,
0001
0000
0000
0000
,
1000
0000
0000
0000
,
0010
0000
0000
0000
,
0100
0000
0000
0000
,
1000
0000
0000
1000
,
0100
0000
0000
0100
,
0010
0000
0000
0010
,
0001
0001
0001
0000
,
0010
0000
0000
0010
,
0100
0000
0000
0100
,
1000
0000
0000
0000
,
0002
0000
0003
0000
,
0100
0000
0000
0000
;

//---------------dance-single - ----------------
#NOTEDATA:;
#CHARTNAME:;
#STEPSTYPE:dance-single;
#DESCRIPTION:;
#CHARTSTYLE:;
#DIFFICULTY:Challenge;
#METER:15;
#RADARVALUES:0.916387,1.026232,0.195124,0.219515,1.018305,526.000000,510.000000,16.000000,18.000000,0.000000,0.000000,0.000000,0.000000,0.000000,0.916387,1.026232,0.195124,0.219515,1.018305,526.000000,510.000000,16.000000,18.000000,0.000000,0.000000,0.000000,0.000000,0.000000;
#CREDIT:;
#DISPLAYBPM:157.000000;
#NOTES:
// measure 0
0000
0000
0000
0000
,  // measure 1
0000
0000
0000
0000
,  // measure 2
0100
0001
0100
0001
1000
0001
1000
0001
0010
0000
0100
1000
1000
0000
0000
0000
,  // measure 3
1000
0100
1000
0100
0010
0001
0010
0001
0010
0000
0001
0010
0010
0000
0000
0000
,  // measure 4
0100
0010
0100
0010
1000
0000
0010
0100
0010
0100
0001
0000
1000
0000
0001
0000
,  // measure 5
0100
0001
0000
0001
1000
0000
0010
1000
0000
1000
0100
0000
0010
0010
0100
0000
,  // measure 6
0010
0001
0100
0010
1000
0000
0001
0100
0010
0100
0010
1000
1000
0000
0000
0000
,  // measure 7
1000
0100
1000
0100
0010
0000
0001
0100
0001
0010
0001
0100
0100
0000
0000
0000
,  // measure 8
1000
0001
1000
0001
0100
0000
0001
1000
0001
1000
0100
1000
0001
0100
0010
0100
,  // measure 9
2000
0000
0000
3000
0000
1100
0000
1000
,  // measure 10
0010
0000
0001
1000
0100
0000
0020
0000
0000
0000
0130
0000
0000
0000
0100
0001
,  // measure 11
0010
0000
1000
0000
0010
0000
0200
0000
0000
0000
1000
0000
0000
0000
0310
0100
,  // measure 12
0001
0000
0001
0000
0010
0000
0010
0000
0100
1000
0010
0000
1000
0000
1000
0000
,  // measure 13
0100
1000
0100
1000
0010
0000
0200
0000
0000
0000
0010
0000
0310
0000
0100
0000
,  // measure 14
0001
0010
0001
1000
0000
1001
1001
0001
,  // measure 15
1000
0100
0010
0000
0100
0000
0001
0100
1000
0000
0100
0000
0010
0000
0001
0000
,  // measure 16
0010
0000
0010
0000
0001
0000
0001
0000
1000
0001
1000
0000
0001
0000
0100
0000
,  // measure 17
0010
1000
0010
0000
1000
0010
1000
0000
0100
0000
0020
0000
0000
0000
0130
0001
,  // measure 18
1000
0000
0001
0000
0100
0000
0002
0000
0000
0000
1003
0000
0000
0000
0010
0001
,  // measure 19
0100
0010
1000
0200
0000
1300
0100
0010
,  // measure 20
0001
0010
0100
0000
0010
0100
1000
0000
0010
1000
0001
0000
1000
0001
0100
0010
,  // measure 21
1000
0100
1000
0100
0000
0110
0000
0010
,  // measure 22
0001
0000
0100
0010
1000
0000
0100
0000
0000
0000
1200
0000
0000
0000
0310
0001
,  // measure 23
1000
0000
0001
0000
0100
0000
0010
0000
0000
0000
0120
0000
0000
0000
1030
0100
,  // measure 24
0001
0000
0001
0000
0100
0000
0100
0000
1000
0000
1000
0000
0001
0100
1000
0000
,  // measure 25
2002
0000
0000
3003
1000
0100
0001
0010
,  // measure 26
0100
1000
0010
0000
0010
0100
0001
0000
1001
0000
0101
0000
0001
0010
0100
0000
,  // measure 27
0010
0000
1000
0001
0100
0000
0010
0000
0010
0000
0100
0010
0110
0000
0000
0000
,  // measure 28
0110
0000
1100
0000
1000
0001
0100
0010
,  // measure 29
1000
0000
0100
1000
0100
1000
0010
0100
0010
0100
0001
0100
0002
0000
0000
0000
,  // measure 30
1003
0000
0001
0000
0100
0000
0010
0000
1000
0100
1000
0100
0010
0000
0001
0000
,  // measure 31
0100
0001
0100
0000
1000
0000
1000
0000
0100
0010
0001
0000
1000
0000
0001
0000
,  // measure 32
0200
0002
0303
0000
2000
0020
3000
1000
,  // measure 33
0000
0100
0030
0000
0010
0000
1000
0000
0001
0000
0100
0000
0010
0000
0100
0000
,  // measure 34
0000
0000
0100
0010
0010
0100
0010
0010
0100
0000
0001
0100
0110
0000
0000
0000
,  // measure 35
1000
0100
0010
0000
0001
0010
0100
0000
1000
0010
0100
0000
0001
1000
0100
0010
,  // measure 36
0001
0000
0100
0010
0100
0000
0010
1000
0010
0100
0001
0000
1001
0000
0000
0000
,  // measure 37
1000
0001
0010
0000
0100
1000
0001
0000
0010
0100
1000
0001
0100
0010
1000
0100
,  // measure 38
0010
0000
0001
0010
0100
0000
0010
0100
1000
0010
0100
0001
0200
0000
0000
0000
,  // measure 39
0310
1000
0001
0000
0010
1000
0001
0000
0011
0000
0001
0100
0010
1000
0100
0010
,  // measure 40
0001
1000
0001
0100
0001
1000
0001
0000
0010
0000
0010
0000
0100
0000
0000
0000
,  // measure 41
1000
0100
1000
0100
0010
0100
0010
0100
1000
0100
0010
0100
1000
0010
0100
0010
,  // measure 42
1000
0001
0100
0001
1000
0100
0010
0001
1000
0001
0100
0001
0020
0000
0000
0000
,  // measure 43
0031
0100
0010
1000
0001
0010
0100
1000
0100
1000
0010
0100
0100
0000
0000
0000
,  // measure 44
0100
1000
0100
1000
0010
0100
0010
0100
0001
0010
0001
0010
0010
0000
0000
0000
,  // measure 45
0100
1000
0100
1000
0001
0010
0001
0100
0010
1000
0001
0010
0100
1000
0001
0100
,  // measure 46
0010
0000
1000
0010
0000
0100
0001
0000
1000
0001
0100
0000
0010
0000
1000
0000
,  // measure 47
0001
0001
1000
1000
0001
1000
0100
0010
0001
1000
0001
1000
1000
0000
0000
0000
,  // measure 48
1000
0010
0100
0001
1000
0100
0010
0001
0100
0010
0100
0010
0010
0000
0000
0000
,  // measure 49
0010
0100
0010
0100
0001
0010
0001
0010
0100
1000
0100
1000
0001
0010
0100
1000
,  // measure 50
0001
0100
0001
0100
0010
1000
0010
1000
0001
0010
0100
1000
0100
0010
0001
0000
,  // measure 51
1001
0000
0000
0000
;
