#TITLE:Reach Up;
#SUBTITLE:;
#ARTIST:Alien Six;
#TITLETRANSLIT:;
#SUBTITLETRANSLIT:;
#ARTISTTRANSLIT:;
#GENRE:;
#CREDIT:;
#BANNER:Reach Up.png;
#BACKGROUND:Reach Up-bg.png;
#LYRICSPATH:;
#CDTITLE:;
#MUSIC:Reach Up.ogg;
#OFFSET:0.000000;
#SAMPLESTART:46.397999;
#SAMPLELENGTH:15.000000;
#SELECTABLE:YES;
#DISPLAYBPM:150.000000;
#BPMS:0.000000=150.000000
;
#STOPS:
;
#BGCHANGES:;
#KEYSOUNDS:;
#ATTACKS:;

//---------------dance-single - ----------------
#NOTES:
     dance-single:
     :
     Beginner:
     3:
     0.099572,0.182196,0.000000,0.000000,0.000000,68.000000,68.000000,0.000000,0.000000,0.000000,0.000000,0.099572,0.182196,0.000000,0.000000,0.000000,68.000000,68.000000,0.000000,0.000000,0.000000,0.000000:
0000
0000
0000
0000
,
0000
0000
0000
0000
,
0000
0000
0000
0000
,
0001
0000
0000
0000
,
0000
0000
0000
0000
,
1000
0000
0000
0000
,
0000
0000
0000
0000
,
0001
0000
0000
0000
,
0001
0000
0000
0000
,
1000
0000
0000
0000
,
1000
0000
0000
0000
,
0000
0000
0000
0000
,
0000
0000
0000
0000
,
0010
0000
0010
0000
,
0000
0000
0000
0000
,
1000
0000
1000
0000
,
0000
0000
0000
0000
,
0001
0000
0001
0000
,
0000
0000
0000
0000
,
0100
0000
0100
0000
,
0000
0000
0000
0000
,
0001
0000
0000
0000
,
1000
0000
0000
0000
,
0001
0000
0000
0000
,
1000
0000
0000
0000
,
0010
0000
0000
0000
,
0100
0000
0000
0000
,
0010
0000
0000
0000
,
0000
0000
0000
0000
,
0001
0001
0000
0000
,
1000
0000
1000
0000
,
0001
0001
0000
0000
,
0010
0000
0000
0000
,
1000
1000
0000
0000
,
0001
0000
0001
0000
,
1000
1000
0000
0000
,
0010
0000
0000
0000
,
0000
0000
0000
0000
,
0000
0000
0000
0000
,
0001
0000
0000
0000
,
0100
0000
0000
0000
,
1000
0000
0000
0000
,
0010
0000
0000
0000
,
0001
0000
0001
0000
,
0100
0000
0100
0000
,
1000
0000
1000
0000
,
0010
0000
0010
0000
,
0000
0000
0000
0000
,
0000
0000
0000
0000
,
0100
0000
0100
0000
,
0100
0100
0100
0000
,
0001
0000
0001
0000
,
1000
0000
1000
0000
,
0001
0000
1000
0000
,
0001
0000
0000
0000
,
0010
0000
0010
0000
,
0100
0000
0100
0000
,
0010
0000
0100
0000
,
0010
0000
0000
0000
,
0100
0100
0000
0000
,
0000
0000
0000
0000
;

//---------------dance-single - ----------------
#NOTES:
     dance-single:
     :
     Easy:
     5:
     0.248931,0.273293,0.092251,0.082001,0.000000,170.000000,161.000000,9.000000,8.000000,0.000000,0.000000,0.248931,0.273293,0.092251,0.082001,0.000000,170.000000,161.000000,9.000000,8.000000,0.000000,0.000000:
0000
0000
0000
0000
,
0000
0000
0000
0000
,
0000
0000
0000
0000
,
0001
0010
1000
0000
,
1000
0001
0001
1000
,
1000
0010
0100
0000
,
0100
0001
0100
0001
,
1000
0010
1000
0000
,
0001
1000
1000
0001
,
0100
1000
0100
0000
,
0010
0001
0100
1000
,
0200
0000
0000
0300
,
0020
0000
0000
0030
,
0001
0001
1000
1000
,
0001
0010
0100
1000
,
0010
0010
0100
0100
,
0010
1000
0100
0000
,
1000
1000
0001
0001
,
1000
0010
0100
0001
,
0010
0010
0100
0100
,
0010
0001
0100
0000
,
0010
0000
0001
0001
,
2000
0000
0100
3000
,
0001
0000
1000
0000
,
0001
0100
1000
0010
,
0010
0000
1000
1000
,
0002
0000
0100
0003
,
1000
0000
0001
0000
,
0200
0000
0000
0300
,
1000
1001
0000
0000
,
0100
0001
0010
1000
,
0001
1001
0000
0001
,
0000
0100
1000
0010
,
0001
1001
0000
0000
,
0010
1000
0100
0001
,
1000
1001
0000
1000
,
0000
0010
0001
0100
,
2000
0000
0000
0000
,
0000
0000
0000
3000
,
0000
0100
0000
0001
,
0000
0010
0000
1000
,
0000
0100
0000
0001
,
0000
0010
0000
1000
,
0001
0100
0001
0100
,
1000
0100
1000
0100
,
0001
0100
1000
0100
,
0001
0100
1000
0100
,
0200
0000
0000
0300
,
0000
0001
0000
0010
,
0200
0000
0000
0300
,
1000
0010
0100
0000
,
0001
1001
0000
0000
,
0100
1000
0010
0001
,
1000
1001
0000
1000
,
0000
0100
0001
0010
,
1000
1001
0000
0000
,
0010
0001
0100
1000
,
0001
1001
0000
0001
,
0000
0010
1000
0100
,
0010
1001
0000
0000
,
0000
0000
0000
0000
;

//---------------dance-single - ----------------
#NOTES:
     dance-single:
     :
     Medium:
     8:
     0.388040,0.425123,0.348504,0.071751,0.000000,265.000000,231.000000,34.000000,7.000000,0.000000,0.000000,0.388040,0.425123,0.348504,0.071751,0.000000,265.000000,231.000000,34.000000,7.000000,0.000000,0.000000:
0000
0000
0000
0000
,
0000
0000
0000
0000
,
0000
0000
0000
0000
,
1000
0010
0001
1000
,
0001
0100
1000
0000
1000
0100
0001
0000
,
0001
0010
0100
0010
,
0100
1000
0101
0000
,
0001
0010
0001
0100
,
1000
0010
0001
0000
0001
0010
1000
0000
,
0100
0001
0100
1000
,
0100
0001
0110
1001
,
0100
0000
0100
0000
,
0010
0000
0010
0000
,
1000
1100
0001
0101
,
1000
0000
0010
0000
0100
0001
0010
0000
,
0110
1001
0010
0100
,
0010
0000
0001
0000
0100
1000
1000
0000
,
0001
0011
1000
1010
,
0100
0000
0001
0000
0100
1000
0010
0000
,
0110
1001
0010
0100
,
0010
0000
1000
0000
0100
0001
0001
0000
,
0010
1000
0010
0000
0100
0000
1000
0000
,
0012
0000
0100
0013
,
1000
0100
0001
0100
,
1000
0010
0100
0000
0001
0000
1001
0000
,
0010
0001
0010
0000
0100
0000
0001
0000
,
2010
0000
0100
3010
,
0001
0100
1000
0100
,
2002
0000
0000
3003
,
0101
1100
0001
0010
,
0100
0000
1000
0000
0010
0010
0001
0000
,
1010
0011
0100
0100
,
0001
0100
1000
0010
,
1100
0101
0010
0100
,
0010
0000
0001
0000
0100
0100
1000
0000
,
0011
1010
0100
0100
,
1000
0010
0001
0010
,
0002
0000
0000
0000
,
0000
0000
0000
0003
,
0100
0000
1000
1000
0000
0010
0010
0000
,
0001
0001
0000
0100
0100
0000
1000
1000
,
0000
0010
0010
0000
0001
0001
0000
0100
,
0100
0000
1000
1000
0000
0010
0010
0000
,
0001
0100
0000
0100
1000
0000
1000
0010
,
0000
0010
0001
0000
0001
0100
0000
0100
,
1000
0000
1000
0010
0000
0010
0001
0000
,
0001
0100
0000
0100
1000
0000
1001
0000
,
0200
0000
0000
0000
0000
0310
0000
1000
,
0000
0100
0000
0010
0000
0001
0000
0000
,
0200
0000
0000
0000
0000
0310
0000
1000
,
0001
0010
0100
0100
,
1100
0101
1000
0010
,
0100
0000
0001
0000
0010
0010
1000
0000
,
0011
1010
0100
0100
,
1000
0100
0001
0010
,
0101
1100
0010
0100
,
0010
0000
1000
0000
0100
0100
0001
0000
,
1010
0011
0100
0100
,
0001
0010
1000
0010
,
0110
1001
0000
0000
,
0000
0000
0000
0000
;

//---------------dance-single - ----------------
#NOTES:
     dance-single:
     :
     Hard:
     11:
     0.533005,0.546587,0.717507,0.112751,0.000000,364.000000,294.000000,70.000000,11.000000,0.000000,0.000000,0.533005,0.546587,0.717507,0.112751,0.000000,364.000000,294.000000,70.000000,11.000000,0.000000,0.000000:
0000
0000
0000
0000
,
0000
0000
0000
0000
,
0000
0000
0000
0000
,
0001
0010
0100
1000
0100
0000
0001
0000
,
1000
0010
0100
0001
0100
0000
1000
0000
,
1010
1000
0100
0000
0011
0001
0100
0000
,
0010
0100
0001
1000
0100
0100
0010
0000
,
1000
0100
0001
0100
1000
0000
0010
0000
,
0001
0100
1000
0100
0001
0000
0010
0000
,
0011
0100
1000
0000
1010
0100
0001
0000
,
0010
0100
1000
0001
0100
0100
0010
0000
,
0002
0010
1000
0013
,
2000
0010
0001
3010
,
0101
1100
0101
1100
,
0010
0001
0100
1000
0010
1000
0100
0000
,
0011
1100
0101
1010
,
0100
0010
1000
0100
0010
0000
0001
0000
,
1100
0101
1100
0101
,
0010
1000
0100
0001
0010
0001
0100
0000
,
1010
0101
1100
0011
,
0100
0010
0001
0100
0010
0000
1000
0000
,
0101
0001
0001
0000
0010
0000
0001
0000
,
1100
1000
1000
0000
0010
0000
0100
0000
,
0001
0100
0010
0000
1000
0100
0010
0000
,
0001
0100
0010
0100
1000
0100
0001
0000
,
1010
1000
1000
0000
0100
0000
1000
0000
,
0011
0001
0001
0000
0100
0000
0010
0000
,
1000
0010
0100
0000
0001
0010
0100
0000
,
1002
0100
0100
0103
,
1010
0000
0101
0000
1010
0001
0100
0000
,
0010
0100
0001
0020
0100
0130
1000
0000
,
0101
0000
1100
0000
0010
0001
0010
0000
,
1000
0010
1000
0000
0100
1000
0100
0000
,
0101
0000
1010
0000
0101
1000
0010
0000
,
0100
0010
1000
0200
0010
0310
0001
0000
,
1100
0000
0101
0000
0010
1000
0010
0000
,
0001
0010
0001
0000
0100
0001
0100
0000
,
2000
0000
0000
0000
,
0000
0000
0000
3000
,
0010
0000
0001
0101
0000
1000
1010
0000
,
0010
1001
0000
0100
1001
0000
0010
0011
,
0000
0100
1100
0000
0001
0101
0000
1000
,
1010
0000
0100
0110
0000
0010
1001
0000
,
1000
1010
0000
0001
0101
0000
0100
1001
,
0000
0010
1001
0000
0100
1100
0000
0010
,
0011
0000
1000
1010
0000
0001
0101
0000
,
0010
0110
0000
0100
1001
0000
1001
0000
,
0020
0000
0000
0000
0000
0230
0000
0301
,
0000
0011
0000
0100
0000
1100
0000
0000
,
0020
0000
0000
0000
0000
0130
0000
0001
,
1000
0000
0100
0000
0010
0100
0010
0000
,
0011
0000
1100
0000
0101
1000
0100
0000
,
0010
0100
1000
0020
0100
0130
0001
0000
,
1100
0000
0101
0000
0010
1000
0010
0000
,
0001
0010
0001
0000
0100
0001
0100
0000
,
1100
0000
0011
0000
1010
0001
0010
0000
,
0100
0010
0001
0200
0010
0310
1000
0000
,
0101
0000
1100
0000
0010
0001
0010
0000
,
1000
0010
1000
0000
0100
1000
0100
0000
,
0110
1001
0000
0000
,
0000
0000
0000
0000
;

//---------------dance-double - ----------------
#NOTES:
     dance-double:
     :
     Easy:
     6:
     0.254788,0.303659,0.153752,0.020500,0.000000,174.000000,159.000000,15.000000,2.000000,0.000000,0.000000,0.254788,0.303659,0.153752,0.020500,0.000000,174.000000,159.000000,15.000000,2.000000,0.000000,0.000000:
00000000
00000000
00000000
00000000
,
00000000
00000000
00000000
00000000
,
00000000
00000000
00000000
00000000
,
00010000
00100000
10000000
01000000
,
00010000
00000000
00010000
00000000
,
00001000
00000010
00000001
00000100
,
00001000
00000000
00001000
00000000
,
00010000
01000000
10000000
01000000
,
00100000
00001000
00010000
00000000
,
00001000
00000100
00000001
00000100
,
00000010
00010000
00001000
00000000
,
01000000
00000000
01000000
00000000
,
00100000
00000000
00100000
00000000
,
10000000
10010000
00000000
00000000
,
00100000
00010000
00001000
00000010
,
00000001
00001001
00000000
00000000
,
00000100
00000000
00000100
00000000
,
00000001
00001001
00000000
00000000
,
00000010
00001000
00010000
00100000
,
10000000
10010000
00000000
00000000
,
01000000
00000000
01000000
00000000
,
00100000
10000000
00100000
00000000
,
01000000
00010000
01000000
00000000
,
00001000
00010000
00001000
00000000
,
00000010
00000001
00000010
00000000
,
00001000
00000100
00001000
00000000
,
00010000
00001000
00010000
00000000
,
01000000
00010000
01000000
00000000
,
20020000
00000000
00000000
30030000
,
00100000
01100000
00000000
00000000
,
00010000
00001000
00000100
00000001
,
00000010
00000110
00000000
00000000
,
00000001
00000100
00001000
00000100
,
00000010
00000110
00000000
00000000
,
00001000
00010000
01000000
10000000
,
00100000
01100000
00000000
00000000
,
10000000
01000000
00010000
01000000
,
10000000
00000000
00000000
00000000
,
00000000
00000000
00000000
00000000
,
00100000
00100000
10000000
10000000
,
01000000
00010000
00001000
00000100
,
00000010
00000010
00000001
00000001
,
00000100
00001000
00010000
01000000
,
00100000
00010000
01000000
00000000
,
00100000
10000000
01000000
00000000
,
00010000
00010000
00001000
00001000
,
00010000
00001000
00010000
00011000
,
00000010
00000000
00000000
00000000
,
00000001
00000000
00000000
00000000
,
00001000
00000000
00000000
00000000
,
00000100
00000100
00000100
00000000
,
00000010
00000110
00000000
00000000
,
00001000
00010000
01000000
10000000
,
00100000
01100000
00000000
00000000
,
10000000
01000000
00010000
01000000
,
00100000
01100000
00000000
00000000
,
00010000
00001000
00000100
00000001
,
00000010
00000110
00000000
00000000
,
00000001
00000100
00001000
00000100
,
00000010
00001001
00000000
00000000
,
00000000
00000000
00000000
00000000
;

//---------------dance-double - ----------------
#NOTES:
     dance-double:
     :
     Medium:
     8:
     0.401218,0.425123,0.338253,0.153752,0.000000,274.000000,241.000000,33.000000,15.000000,0.000000,0.000000,0.401218,0.425123,0.338253,0.153752,0.000000,274.000000,241.000000,33.000000,15.000000,0.000000,0.000000:
00000000
00000000
00000000
00000000
,
00000000
00000000
00000000
00000000
,
00000000
00000000
00000000
00000000
,
10000000
01000000
00010000
01000000
,
10000000
00000000
01000000
00000000
00010000
00001000
00000100
00000000
,
00000001
00000100
00001000
00000100
,
00000001
00000000
00000100
00000000
00001000
00010000
01000000
00000000
,
20000000
00100000
00010000
31000000
,
00020000
00001000
01000000
00031000
,
00000100
00000001
00000100
00000000
00000010
00000100
00000001
00000000
,
00000010
00001000
00011000
00011000
,
00100000
00010000
00100000
00010000
,
01000000
00100000
01000000
00100000
,
00010000
00110000
10000000
10100000
,
01000000
00000000
00010000
00000000
00001000
00000010
00000001
00000000
,
00000110
00001001
00000100
00000010
,
00000100
00000000
00001000
00000000
00010000
00001000
00000100
00000000
,
00001000
00001010
00000001
00000011
,
00000100
00000000
00001000
00000000
00010000
00100000
10000000
00000000
,
01100000
10010000
01000000
00100000
,
01000000
00000000
00010000
00000000
00001000
00010000
01000000
00000000
,
10000000
01000000
10000000
00000000
00020000
00000000
00031000
00000000
,
00000010
00000001
00000010
00000000
00002000
00000000
00003010
00000000
,
00000100
00000010
00000100
00000000
00002000
00000000
00013000
00000000
,
00020010
00031000
01002000
00013000
,
00100000
10000000
00100000
00000000
02000000
00000000
03100000
00000000
,
00001000
00010000
00001000
00000000
00000200
00000000
00000301
00000000
,
00001000
00000100
00001000
00000000
00000020
00000000
00001030
00000000
,
00022000
00000000
00000000
00033000
,
00110000
11000000
00100000
01000000
,
10000000
00000000
00100000
00000000
01000000
01000000
00001000
00000000
,
00011000
00001010
00000001
00000100
,
00001000
00000100
00000001
00000010
,
00001100
00011000
00100000
10000000
,
00010000
00000000
01000000
00000000
00100000
00100000
01000000
00000000
,
10010000
01100000
00010000
00001000
,
00000100
00000010
00000001
00000100
,
00002000
00000000
00000000
00000000
,
00000000
00000000
00000000
00003000
,
00000010
00000000
00000001
00000000
00000001
00000100
00001000
00000000
,
00001000
00010000
00100000
00000000
00100000
10000000
01000000
00000000
,
01000000
00000000
00010000
00000000
00010000
00001000
00000010
00000000
,
00000010
00000001
00000100
00000000
00000010
00000000
00001001
00000000
,
00000010
00000000
00000100
00000000
00010000
00001000
00010000
00000000
,
00100000
01000000
00100000
00000000
10000000
00100000
10000000
00000000
,
00010000
01000000
00010000
00000000
00001000
00010000
00001000
00000000
,
00000100
00000010
00000100
00000000
00000001
00000000
00001001
00000000
,
00000020
00000000
00000000
00000130
,
00001000
00000010
00000100
00000001
,
00000020
00000000
00000000
00001030
,
00010000
10000000
00100000
00100000
,
01010000
10100000
01000000
00100000
,
10000000
00000000
01000000
00000000
00100000
00100000
00001000
00000000
,
00011000
00001100
00000001
00000010
,
00001000
00000010
00000001
00000100
,
00001010
00011000
01000000
10000000
,
00010000
00000000
00100000
00000000
01000000
01000000
00100000
00000000
,
10010000
01100000
00010000
00001000
,
00000010
00000100
00000001
00000010
,
00001100
00000101
00000000
00000000
,
00000000
00000000
00000000
00000000
;

//---------------dance-double - ----------------
#NOTES:
     dance-double:
     :
     Hard:
     11:
     0.506648,0.516221,0.481755,0.092251,0.000000,346.000000,299.000000,47.000000,9.000000,0.000000,0.000000,0.506648,0.516221,0.481755,0.092251,0.000000,346.000000,299.000000,47.000000,9.000000,0.000000,0.000000:
00000000
00000000
00000000
00000000
,
00000000
00000000
00000000
00000000
,
00000000
00000000
00000000
00000000
,
00001000
00000010
00000100
00000001
00000010
00000000
00001000
00000000
,
00010000
00100000
01000000
10000000
01000000
00000000
00010000
00000000
,
00101000
00001000
00010000
00000000
00000110
00000001
00001000
00000000
,
00000010
00000100
00000001
00001000
00000100
00000010
00000001
00000000
,
00000100
00000010
00010000
00001000
01000000
00100000
10000000
00000000
,
01000000
00100000
00001000
00010000
00000100
00000010
00000001
00000000
,
00001020
00000130
00000021
00000130
,
00010000
00001000
00000100
00001000
00010000
01000000
10000000
00000000
,
00020000
00100000
00001000
00130000
,
00002000
00000010
01000000
00003010
,
00110000
01010000
00001100
00001010
,
00000010
00001000
00000100
00000010
00000001
00000100
00001000
00000000
,
00010010
00011000
00101000
00011000
,
01000000
10000000
01000000
00000000
00010000
01000000
00010000
00000000
,
00010010
01001000
00101000
00010100
,
00000010
00000001
00000100
00000010
00001000
00000100
00000010
00000000
,
00001001
00000110
00011000
01100000
,
00100000
00010000
00100000
00000000
01000000
00000000
01000000
00000000
,
10000000
00010000
01000000
00001000
00010000
00000100
00000010
00000000
,
00000001
00000100
00000010
00010000
00001000
00000000
00100000
00000000
,
10000000
00010000
00100000
00001000
00010000
00000010
00000100
00000000
,
00000001
00000010
00000100
00010000
00001000
00000000
01000000
00000000
,
10100000
01000000
00010000
00000000
00100000
00000000
01000000
00000000
,
00110000
01000000
10000000
00000000
00100000
00000000
01000000
00000000
,
00010000
00001000
00010000
00000000
00001000
00000010
00000100
00000000
,
00002002
00000000
00000000
00003003
,
00000011
00000000
00001100
00000000
00000101
00001000
00000100
00000000
,
00000001
00000100
00001000
00010000
00100000
10000000
01000000
00000000
,
00110000
00000000
11000000
00000000
00001000
00010000
00010000
00000000
,
01000000
00100000
00100000
00000000
00010000
00001000
00001000
00000000
,
00001100
00000000
00000101
00000000
00001010
00000001
00000010
00000000
,
00000100
00010000
00000010
00000100
00001000
00010000
00100000
00000000
,
10010000
00000000
01100000
00000000
00010000
00100000
00100000
00000000
,
10000000
00100000
00100000
00000000
00010000
00000000
00001000
00000000
,
00000001
00000000
00000000
00000000
,
00000000
00000000
00000000
00000000
,
00000010
00000001
00000010
00000000
00000100
00001000
00000100
00000000
,
00000010
00000100
00001000
00010000
00100000
01000000
00010000
00000000
,
10000000
01000000
10000000
00000000
00010000
01000000
00010000
00000000
,
10000000
00100000
00010000
00001000
00010000
00000100
00000001
00000000
,
00000010
00000001
00000100
00000000
00000010
00001000
00000100
00000000
,
00010000
00001000
00000010
00001000
00010000
00001000
00000100
00000000
,
00001000
00000010
00010000
00000000
00001000
00100000
01000000
00000000
,
01000000
10000000
00100000
00000000
10000000
00000000
00010000
00000000
,
00200000
00000000
00000000
00000000
00000000
02300000
00000000
13000000
,
00000000
10100000
00000000
00010000
00000000
00011000
00000000
00000000
,
00000020
00000000
00000000
00000000
00000000
00000130
00000000
00001000
,
00000001
00000000
00000100
00000000
00000010
00000100
00000010
00000000
,
00000101
00000000
00001010
00000000
00000011
00001000
00000010
00000000
,
00000001
00000010
00001000
00010000
01000000
10000000
00100000
00000000
,
01010000
00000000
10100000
00000000
00001000
00010000
00010000
00000000
,
00100000
01000000
01000000
00000000
00010000
00001000
00001000
00000000
,
00001010
00000000
00000011
00000000
00001100
00000001
00000100
00000000
,
00000010
00010000
00000100
00000010
00001000
00010000
01000000
00000000
,
10010000
00000000
01100000
00000000
00010000
01000000
01000000
00000000
,
10000000
01000000
01000000
00000000
00010000
00000000
00001000
00000000
,
00000110
00001001
00000000
00000000
,
00000000
00000000
00000000
00000000
;

//---------------dance-single - ----------------
#NOTES:
     dance-single:
     :
     Challenge:
     16:
     0.732150,0.796177,0.574006,0.317753,0.620131,500.000000,444.000000,56.000000,31.000000,180.000000,0.000000,0.732150,0.796177,0.574006,0.317753,0.620131,500.000000,444.000000,56.000000,31.000000,180.000000,0.000000:
// measure 0
0000
0000
0000
0000
,  // measure 1
0000
0000
0000
0000
,  // measure 2
0000
0000
0000
0000
,  // measure 3
0001
0010
1000
0010
0000
0101
MMMM
1010
,  // measure 4
0000
1100
MMMM
0011
0000
1001
MMMM
0110
,  // measure 5
0100
0001
1000
0010
0000
1010
MMMM
0101
,  // measure 6
0000
0011
MMMM
1100
0000
1001
MMMM
0110
,  // measure 7
0100
0001
0010
1000
0000
1001
MMMM
0011
,  // measure 8
0000
0101
MMMM
1100
0000
0110
MMMM
1001
,  // measure 9
1000
0010
0001
0100
0000
0110
MMMM
0011
,  // measure 10
0000
0110
MMMM
1100
0000
1001
MMMM
0101
,  // measure 11
0100
0010
1000
0100
0000
0101
MMMM
1010
,  // measure 12
0000
0101
MMMM
1100
0000
0011
0100
0020
,  // measure 13
0100
0130
0020
1030
,  // measure 14
0010
0001
0100
1000
MMMM
0000
1001
0200
,  // measure 15
0010
0310
0020
0130
,  // measure 16
1000
0000
0100
0000
0001
0000
0010
0000
MMMM
0000
0000
0010
0100
0000
2000
0000
,  // measure 17
0010
3010
0002
0013
,  // measure 18
0010
0000
0001
0000
1000
0000
0010
0000
0000
0000
0000
0100
1000
0000
0002
0000
,  // measure 19
0010
0013
2000
3010
,  // measure 20
1100
0100
0001
1000
0011
0010
1000
0001
,  // measure 21
0100
0010
0001
0010
0100
0000
1000
0100
0000
MMMM
0000
0100
1000
0000
1100
0000
,  // measure 22
1000
0010
0100
0001
0010
0000
0100
0010
0000
MMMM
0000
0010
0100
0000
0110
0000
,  // measure 23
0010
0001
0100
1000
0100
0000
0001
1000
0000
MMMM
0000
0001
1000
0000
0001
0000
,  // measure 24
1000
0010
0100
0001
1000
0000
0100
0010
0000
MMMM
0000
0010
0001
0000
1001
0000
,  // measure 25
0001
0001
0010
0100
1000
0000
0010
0100
0000
MMMM
0000
1000
0100
0000
0011
0000
,  // measure 26
1000
1000
0100
0010
0001
0000
0010
0001
0000
MMMM
0000
0010
0100
0000
1100
0000
,  // measure 27
1000
1000
0010
0010
0100
0000
0001
0100
0000
MMMM
0000
0010
0100
0000
0110
0000
,  // measure 28
1020
0000
0000
0000
0100
0000
0000
0000
0031
0000
MMMM
0000
0001
0010
0100
1000
,  // measure 29
0010
0010
0010
0000
0010
0010
0010
0000
1000
0100
0010
0001
0100
0000
0010
0010
,  // measure 30
MMMM
0010
0010
0000
0020
0000
0001
0000
1000
0000
0130
0000
0010
0100
0001
1000
,  // measure 31
0010
0010
0010
0000
0010
0010
0010
0000
0001
0010
1000
0100
0001
0000
0010
0000
,  // measure 32
MMMM
0000
1010
0000
0000
0000
0011
0000
MMMM
0000
1001
0000
0010
1000
0100
0001
,  // measure 33
0010
0010
0010
0000
0010
0010
0010
0000
0010
0001
0100
0010
1000
0000
0010
0010
,  // measure 34
MMMM
0010
0010
0000
0020
0000
0100
0000
0001
0000
1030
0000
0010
0001
0100
1000
,  // measure 35
0010
0010
0010
0000
0010
0010
0010
0000
0001
0010
0100
1000
0010
0000
0010
0000
,  // measure 36
MMMM
0000
0011
0000
0000
0000
1010
0000
MMMM
0000
0110
0000
0001
0010
1000
0100
,  // measure 37
0020
0100
0100
0100
,  // measure 38
0100
0100
0130
MMMM
,  // measure 39
1000
0100
0010
0100
1000
0000
1001
0000
0001
0010
0100
0000
MMMM
0000
0000
0000
,  // measure 40
0001
0010
0100
1000
0010
0000
1000
0000
0010
0001
0100
0000
MMMM
0000
0000
0000
,  // measure 41
0010
0001
0100
0010
1000
0000
0100
0000
0001
0010
0100
0000
MMMM
0000
0000
0000
,  // measure 42
0010
0100
0001
1000
0100
0000
0010
0000
1000
0100
0010
0000
MMMM
0000
0000
0000
,  // measure 43
0010
0100
0001
1000
0010
0000
0001
0000
0100
0010
0001
0000
MMMM
0000
0000
0000
,  // measure 44
1000
0100
0010
0001
0100
0000
0010
0000
1000
0001
0010
0000
MMMM
0000
0000
0000
,  // measure 45
0010
0001
0100
1000
0010
0000
0100
0000
0010
0001
1000
0000
MMMM
0000
0000
0000
,  // measure 46
0100
1000
0001
0010
0100
0000
0001
0000
0100
1000
0010
0000
MMMM
0000
0000
0000
,  // measure 47
0200
2300
3020
0230
0000
0302
0000
2003
,  // measure 48
0000
3020
0000
0230
0000
0302
0000
1003
,  // measure 49
0020
0230
0302
0023
0000
0230
0000
0302
,  // measure 50
2000
0000
0003
0000
3100
0000
0000
0100
0010
1000
0001
0010
0100
0001
1000
0100
,  // measure 51
0010
0010
0010
0000
0010
0010
0010
0000
0001
0010
0100
1000
0010
0000
0010
0010
,  // measure 52
MMMM
0010
0010
0000
0020
0000
1000
0000
0100
0000
0031
0000
0010
0001
1000
0100
,  // measure 53
0010
0010
0010
0000
0010
0010
0010
0000
0001
0010
0100
1000
0010
0000
1010
0000
,  // measure 54
0000
0101
MMMM
1100
0000
0011
MMMM
1001
,  // measure 55
0010
0010
0010
0000
0010
0010
0010
0000
1000
0010
0001
0100
1000
0000
0010
0010
,  // measure 56
MMMM
0010
0010
0000
0020
0000
0001
0000
0100
0000
1030
0000
0010
0100
0001
1000
,  // measure 57
0010
0010
0010
0000
0010
0010
0010
0000
0010
0001
0100
0010
1000
0000
1010
0000
,  // measure 58
0000
0011
MMMM
0101
0000
1100
MMMM
0110
,  // measure 59
0010
0010
0010
0000
0020
0000
0000
0000
0000
0000
0000
0000
0030
0000
0000
0000
;
