#TITLE:Raspberry♥Heart (English version);
#SUBTITLE:;
#ARTIST:jun feat. PAULA TERRY;
#TITLETRANSLIT:;
#SUBTITLETRANSLIT:;
#ARTISTTRANSLIT:;
#GENRE:;
#CREDIT:;
#BANNER:Raspberry Heart (English Version).png;
#BACKGROUND:Raspberry Heart (English Version)-bg.png;
#LYRICSPATH:;
#CDTITLE:;
#MUSIC:Raspberry Heart (English version).ogg;
#OFFSET:0.000000;
#SAMPLESTART:13.510000;
#SAMPLELENGTH:15.000000;
#SELECTABLE:YES;
#DISPLAYBPM:160.000000;
#BPMS:0.000000=160.000000
;
#STOPS:
;
#BGCHANGES:0.000=Raspberry Heart (English version).avi=1.000=0=0=0=StretchNoLoop====,
99999=-nosongbg-=1.000=0=0=0 // don't automatically add -songbackground-
;
#KEYSOUNDS:;
#ATTACKS:;

//---------------dance-single - ----------------
#NOTES:
     dance-single:
     :
     Beginner:
     3:
     0.172722,0.195417,0.009373,0.000000,0.000000,129.000000,128.000000,1.000000,0.000000,0.000000,0.000000,0.172722,0.195417,0.009373,0.000000,0.000000,129.000000,128.000000,1.000000,0.000000,0.000000,0.000000:
0000
0000
0000
0000
,
0000
0000
0000
0000
,
0000
0000
0000
0000
,
0000
0000
0000
0000
,
0000
0000
0000
0000
,
0001
0000
0000
0000
,
1000
0000
0000
0000
,
0010
0000
0000
0000
,
0100
0000
0000
0000
,
0010
0000
0010
0000
,
0001
0001
0001
0000
,
0100
0000
0100
0000
,
1000
1000
1000
0000
,
0001
0000
0000
0000
,
1000
0000
0000
0000
,
0001
0000
0001
0000
,
1000
0000
1000
0000
,
0010
0000
0010
0000
,
0100
0100
0100
0000
,
0001
0000
0001
0000
,
0010
0010
0010
0000
,
0100
0000
0000
0000
,
0001
0000
0000
0000
,
0100
0000
0100
0000
,
1000
0000
1000
0000
,
0001
0000
0000
0000
,
0100
0000
0000
0000
,
1000
0000
1000
0000
,
0001
0001
0001
0000
,
0010
0010
0000
0000
,
0100
0100
0000
0000
,
0001
0001
0000
0000
,
1000
1000
0000
0000
,
0010
0000
0010
0000
,
1000
0000
0100
0000
,
0001
0001
0000
0000
,
1000
0000
0001
0000
,
1000
0000
0001
0000
,
0100
0000
1000
0000
,
0010
0010
0000
0000
,
0010
0000
1000
0000
,
0001
0000
0100
0000
,
0010
0010
0010
0000
,
0100
0000
0010
0000
,
1000
1000
1000
0000
,
0001
0000
0010
0000
,
1000
0000
0001
0000
,
0100
0000
0000
0000
,
0010
0000
0000
0000
,
1001
0000
0000
0000
,
0100
0000
0010
0000
,
1000
1000
1000
0000
,
0010
0000
0100
0000
,
0001
0001
0001
0000
,
1000
0000
0100
0000
,
0001
0000
0010
0000
,
0100
0000
0000
0000
,
0001
0001
0001
0000
,
0100
0000
0001
0000
,
0010
0010
0010
0000
,
0001
0000
0100
0000
,
1000
1000
1000
0000
,
0100
0000
0000
0000
,
1000
0000
0001
0000
,
0010
0010
0000
0000
,
0001
0000
1000
0000
,
0010
0000
0100
0000
,
0001
0000
1000
0000
,
0010
0000
0001
0000
,
0100
0100
0100
0000
,
0000
0000
0000
0000
;

//---------------dance-single - ----------------
#NOTES:
     dance-single:
     :
     Easy:
     5:
     0.273142,0.325695,0.149960,0.037490,0.000000,204.000000,188.000000,16.000000,4.000000,0.000000,0.000000,0.273142,0.325695,0.149960,0.037490,0.000000,204.000000,188.000000,16.000000,4.000000,0.000000,0.000000:
0000
0000
0000
0000
,
0000
0000
0000
0000
,
0000
0000
0000
0000
,
0000
0000
0000
0000
,
0000
0000
0000
0000
,
0000
0001
0000
1000
,
0000
0010
0000
0010
,
1000
0100
0000
0001
,
1000
0001
1001
0000
,
0010
0000
0100
0000
,
0001
1000
0110
0000
,
0100
0000
0010
0000
,
1000
1000
0001
0001
,
1001
0000
0010
0000
,
1000
0001
0100
0000
,
0010
0000
0100
0000
,
1000
1000
0001
0001
,
0010
0000
1000
0000
,
0100
0010
1001
0000
,
1000
0000
0010
0000
,
0100
0100
0010
0010
,
0110
0000
1000
0000
,
0001
0001
1000
1000
,
0100
1000
0000
0000
,
0100
0000
0001
0000
,
1001
0000
0010
0000
,
0100
0000
0010
0000
,
1001
0000
0110
0000
,
0001
1000
2002
3003
,
0010
0010
0010
0010
,
0100
0100
0100
0100
,
0001
0001
1000
1000
,
0100
0010
0100
0010
,
1000
0010
1000
0000
,
0001
1000
0100
0000
,
0001
0001
0010
0010
,
1000
0010
0001
0000
,
1000
0000
0001
0000
,
0100
0001
1000
0000
,
0010
0010
0100
0100
,
0010
0100
1000
0010
,
0000
0001
0000
0100
,
0010
0001
0200
0300
,
0000
0010
0000
0100
,
0010
0100
2000
3000
,
0001
0000
0010
0000
,
1000
1000
0001
0001
,
0100
0000
0001
0000
,
0010
0000
1000
0000
,
1001
0000
0000
0000
,
0100
0000
0010
0000
,
0010
0100
1001
0000
,
0010
0000
0100
0000
,
1000
1000
0001
0001
,
1001
0000
0100
0000
,
0001
1000
0010
0000
,
0100
0100
0010
0010
,
1000
0001
1000
1001
,
0100
0010
0001
0000
,
1000
0001
0110
0000
,
0001
1000
0100
0000
,
0010
0010
0100
0100
,
0110
0000
0100
0000
,
1000
1000
0001
0001
,
0010
0001
0000
1000
,
0001
0001
1000
1000
,
0010
1000
0100
1000
,
0010
0001
0100
0001
,
1000
0000
0001
0000
,
0100
0010
1001
0000
,
0000
0000
0000
0000
;

//---------------dance-single - ----------------
#NOTES:
     dance-single:
     :
     Medium:
     6:
     0.373561,0.455973,0.393645,0.074980,0.000000,279.000000,237.000000,42.000000,8.000000,0.000000,0.000000,0.373561,0.455973,0.393645,0.074980,0.000000,279.000000,237.000000,42.000000,8.000000,0.000000,0.000000:
0000
0000
0000
0000
,
0000
0000
0000
0000
,
0000
0000
0000
0000
,
0000
0000
0000
0000
,
0000
0000
0000
0000
,
0100
0001
0100
1000
,
0001
0110
1001
0110
,
1000
0100
0010
0001
,
0100
0001
0010
1001
,
0010
1000
0100
0010
,
0100
1000
0101
0000
,
0100
0001
0010
1000
,
0100
0001
0100
0100
,
1001
0000
0010
0001
,
1000
0001
0100
1000
,
0010
1000
0100
1000
,
0010
0101
1001
0110
,
0010
0100
1000
0010
,
0100
0001
1010
0000
,
1000
0001
0010
1000
,
0100
0010
0100
1000
,
0101
0000
0010
1000
,
0001
0001
1000
1000
,
0100
1000
0010
0001
,
0100
0001
1000
0110
,
0101
0000
0010
0000
,
1100
0000
0010
0000
,
1001
0000
0110
0000
,
0001
1000
2002
3003
,
0100
0001
0010
0001
,
0100
1000
0010
1000
,
0001
0001
1000
1000
,
0100
0010
1001
0000
,
0100
0010
1000
0010
,
0001
1000
0100
0100
,
0001
0001
0010
0010
,
1000
0010
0001
0100
,
1100
0000
0001
0010
,
0100
0001
1000
0001
,
0010
1001
0100
1001
,
0010
0100
1000
0010
,
0001
1000
0010
0100
,
1010
1001
0202
0303
,
0010
0100
1000
0100
,
0011
0110
2200
3300
,
0001
0100
0010
0001
,
1000
0010
0001
1001
,
0100
0000
0001
0000
,
0110
0000
0000
0002
2000
0000
3003
0000
,
0010
0010
0010
0010
,
0100
0001
0010
0100
,
0010
0001
1010
0000
,
0010
1000
0100
0001
,
0010
1000
0010
0010
,
1001
0000
0100
1000
,
0001
1000
0010
0001
,
0100
0001
0010
1000
,
0100
1001
0110
1001
,
0100
0010
0001
0100
,
0010
1000
0101
0000
,
0001
1000
0100
0001
,
0010
0100
0010
0001
,
1010
0000
0100
0001
,
1000
1000
0001
0001
,
0010
0001
0100
1000
,
0010
1000
0001
0110
,
0010
1001
0100
1001
,
0010
0101
1000
0011
,
0100
1000
0010
0001
,
0100
0010
1001
0000
,
0000
0000
0000
0000
;

//---------------dance-single - ----------------
#NOTES:
     dance-single:
     :
     Hard:
     9:
     0.468626,0.586251,0.552978,0.084353,0.000000,350.000000,291.000000,59.000000,9.000000,0.000000,0.000000,0.468626,0.586251,0.552978,0.084353,0.000000,350.000000,291.000000,59.000000,9.000000,0.000000,0.000000:
0000
0000
0000
0000
,
0000
0000
0000
0000
,
0000
0000
0000
0000
,
0000
0000
0000
0000
,
0000
0000
0000
0000
,
0010
1100
0010
0101
,
1000
0110
1001
0110
,
0001
0010
0100
1000
,
0010
1000
0100
1001
,
0100
0000
0001
0000
0010
0001
0100
0000
,
0010
0100
0001
0000
0010
0000
1100
0000
,
0010
0000
1000
0000
0100
1000
0001
0000
,
0010
0100
1000
0000
0010
0000
0101
0000
,
1000
0000
0100
0000
0001
0010
1000
0000
,
0001
0100
1000
0000
0010
0000
0001
0000
,
0100
0001
0010
1000
,
0100
0000
0001
0000
1000
0010
1000
0000
,
0100
0011
1001
1100
,
0010
0100
1000
0000
0001
0000
0110
0000
,
0001
1010
0110
0101
,
0010
1000
0100
0000
0010
0000
1001
0000
,
0010
1000
0010
0000
0100
0000
0101
0000
,
0001
0010
0001
0000
1000
0000
1100
0000
,
0010
0001
0100
1000
,
0010
1000
0001
0110
,
1020
1000
1000
1000
,
0100
0100
0100
0130
,
2100
3100
0102
0103
,
1000
0001
2002
3003
,
0010
1000
0100
1100
,
0010
0001
0100
0101
,
1000
0001
0100
0000
0001
0010
0100
0000
,
0001
0100
1000
1001
,
0010
0000
0100
0000
0001
0010
0100
0000
,
1000
0000
0001
0000
0100
0010
0100
0000
,
1000
0101
0010
1100
,
0001
0110
1000
0011
,
1000
0000
0100
0000
0010
0100
1000
0000
,
0010
0000
1000
0000
0001
0100
1000
0000
,
0100
1001
0010
1001
,
0100
0011
1001
0101
,
1000
0001
0100
0010
,
1000
0100
0001
0100
2000
0000
3000
0000
,
0010
0100
0001
0010
,
0100
0010
0001
0010
0200
0000
0300
0000
,
1000
0000
0100
0000
0010
0100
1000
0000
,
0001
0000
0100
0010
1000
0000
0001
0000
,
0010
1001
0100
1001
,
0110
0000
0000
2000
0002
0000
3003
0000
,
0100
0100
0100
0100
,
0010
0000
1000
0000
0100
1000
0010
0000
,
0100
0010
1000
0000
0100
0000
0011
0000
,
0100
0000
0001
0000
0010
0001
1000
0000
,
0100
0010
0001
0000
0100
0000
1100
0000
,
0001
0000
0010
0000
1000
0100
0001
0000
,
1000
0010
0001
0000
0100
0000
1000
0000
,
0010
1000
0100
0001
,
0010
0000
1000
0000
0001
0100
0001
0000
,
0010
1100
1001
0011
,
0100
0010
0001
0000
1000
0000
0110
0000
,
1000
0101
0110
1010
,
0100
0001
0010
0000
0100
0000
1001
0000
,
0100
0001
0100
0000
0010
0000
0110
0000
,
1000
0100
1000
0000
0001
0000
0011
0000
,
0100
1000
0010
0001
,
0100
0001
1000
0110
,
0011
1100
1010
0101
,
0011
1010
1100
0101
,
1000
0010
0001
0100
,
0010
0100
1000
0010
0100
0000
0000
0000
,
0000
0000
0000
0000
;

//---------------dance-single - ----------------
#NOTES:
     dance-single:
     :
     Challenge:
     11:
     0.486032,0.488542,0.459253,0.009373,0.037490,363.000000,314.000000,49.000000,1.000000,0.000000,0.000000,0.486032,0.488542,0.459253,0.009373,0.037490,363.000000,314.000000,49.000000,1.000000,0.000000,0.000000:
0000
0000
0000
0000
,
0000
0000
0000
0000
,
0000
0000
0000
0000
,
0000
0000
0000
0000
,
0000
0000
0000
0000
,
0010
0000
1100
0000
0101
0000
1000
0010
,
0000
0001
0010
0100
0010
0000
1001
0000
,
0100
0000
0010
2000
0000
0000
3000
0000
,
0001
0100
1000
0100
,
0001
0000
1000
0010
0000
1000
0001
0010
,
0000
0001
0010
0000
0100
0000
1100
0000
,
1000
0000
0001
0010
0000
0001
1000
0010
,
0000
0000
0100
0000
0010
0000
0000
0000
1000
0000
0000
0100
0000
0000
0001
0000
,
0100
0000
0000
0000
1000
0010
0100
0001
,
0000
0000
1001
0000
1000
0100
1000
0000
,
0001
0000
0100
0001
0100
0010
0100
0000
,
0101
1001
1100
1001
,
0010
0000
0001
0100
0000
1100
0000
1001
,
0000
0110
0000
0011
0000
0000
0000
0000
,
1000
0000
0010
0100
0000
0001
0010
0100
,
0000
0000
1000
0000
0100
0000
0000
0000
0001
0000
0000
0100
0000
0000
1000
0000
,
0100
0000
0000
0000
1000
0100
0010
0001
,
0000
1000
0010
0100
0010
0000
1001
0000
,
0100
0000
0010
0001
0010
0100
1000
0000
,
0001
0101
1000
1100
,
0000
0000
0001
0000
0100
0000
0000
0000
0010
0000
0000
0100
0000
0000
0001
0000
,
0000
0000
1000
0000
0100
0000
0000
0000
0010
0000
0000
0100
0000
0000
1000
0000
,
0000
0000
0010
0000
0100
0000
0000
0000
0001
0000
0000
0100
0000
0000
1000
0000
,
0100
0000
0000
0000
0101
0000
0000
0000
1010
0000
0000
0100
0000
0000
0001
0000
,
1000
0000
0001
0100
0000
0010
0100
0000
,
0001
0000
1000
0100
0000
0010
0100
0000
,
1000
0000
0010
0100
0000
0001
0010
0000
,
1100
1010
0011
0101
,
1000
0000
0000
0000
0000
1000
0001
0100
,
0010
0000
0100
0000
0001
0000
1000
0100
,
0000
0001
0100
0000
0100
0000
0100
0000
,
0010
0101
0010
1100
,
0001
0000
0000
0000
0000
0001
1000
0100
,
0010
0000
0100
0000
1000
0000
0001
0100
,
0000
1000
0100
0000
0100
0000
0100
0000
,
0001
0010
0100
0010
0100
0000
0110
0000
,
0001
0000
0100
0001
0000
1001
0000
0110
,
0000
0001
0100
0010
1000
0000
0101
0000
,
1000
0000
0100
1000
0000
1001
0000
0110
,
0000
1000
0100
0010
0001
0000
1100
0000
,
0010
0000
0100
0010
0000
1000
0000
0001
,
0000
0010
0001
1000
0010
0010
1000
0001
,
0010
1001
0100
1001
,
0010
0000
0010
0001
0100
0000
0000
0000
,
1100
0000
0101
0000
1100
0000
0001
0100
,
0001
0000
1000
0010
0000
1000
0001
0010
,
0000
0001
0010
0000
0100
0000
1100
0000
,
1000
0000
0001
0010
0000
0001
1000
0010
,
0000
0000
0100
0000
0010
0000
0000
0000
1000
0000
0000
0100
0000
0000
0001
0000
,
0100
0000
0000
0000
1000
0010
0100
0001
,
0000
0000
1001
0000
1000
0100
1000
0000
,
0001
0000
0100
0001
0100
0010
0100
0000
,
0101
1001
1100
1001
,
0010
0000
0001
0100
0000
0100
1000
0010
,
0000
0010
0001
0000
0100
0000
0101
0000
,
1000
0000
0010
0100
0000
0001
0010
0100
,
0000
0000
1000
0000
0100
0000
0000
0000
0001
0000
0000
0100
0000
0000
1000
0000
,
0100
0000
0000
0001
1000
0100
0010
0001
,
0000
1000
0010
0100
0010
0000
1001
0000
,
0100
0000
0010
1000
0010
0000
0100
0000
,
0001
0101
1000
1100
,
0001
0000
0100
0010
0100
0000
0001
0000
,
0010
1100
0010
0101
,
1000
0000
0001
0010
0001
0000
1001
0000
,
0000
0010
0100
0001
0010
0000
0000
0000
,
0000
0000
0000
0000
;

//---------------dance-double - ----------------
#NOTES:
     dance-double:
     :
     Easy:
     5:
     0.278497,0.325695,0.140588,0.037490,0.000000,208.000000,193.000000,15.000000,4.000000,0.000000,0.000000,0.278497,0.325695,0.140588,0.037490,0.000000,208.000000,193.000000,15.000000,4.000000,0.000000,0.000000:
00000000
00000000
00000000
00000000
,
00000000
00000000
00000000
00000000
,
00000000
00000000
00000000
00000000
,
00000000
00000000
00000000
00000000
,
00000000
00000000
00000000
00000000
,
00000000
00010000
00000000
10000000
,
00100000
00100000
00010000
00010000
,
00001000
00000000
00000010
00000000
,
00000001
00001000
00001001
00000000
,
00000010
00000000
00000100
00000000
,
00001000
00010000
00011000
00000000
,
01000000
00000000
00100000
00000000
,
10000000
10000000
00010000
00010000
,
01100000
00000000
00010000
00000000
,
00001000
00000100
00000001
00000000
,
00000010
00000000
00000100
00000000
,
00000001
00000001
00001000
00001000
,
00000010
00000000
00001000
00000000
,
00010000
00100000
10010000
00000000
,
01000000
00000000
00100000
00000000
,
01000000
01000000
00010000
00010000
,
00011000
00000000
00000010
00000000
,
00000001
00000001
00001000
00001000
,
00000010
00000100
00000000
00000000
,
00001000
00000000
00010000
00000000
,
01100000
00000000
10000000
00000000
,
00010000
00000000
00001000
00000000
,
00001001
00000000
00000110
00000000
,
00001000
00000001
00002002
00003003
,
00000010
00000010
00001000
00001000
,
00010000
00010000
00100000
00100000
,
10000000
10000000
00010000
00010000
,
01000000
00100000
01000000
00100000
,
00010000
00001000
00000010
00000000
,
00000001
00001000
00000100
00000000
,
00000010
00000010
00001000
00001000
,
00010000
00010000
00100000
00100000
,
10000000
01000000
00010000
00000000
,
01000000
10000000
00100000
00000000
,
01000000
01000000
00010000
00010000
,
00001000
00001000
00000010
00000010
,
00000001
00000000
00000100
00000000
,
00001000
00010000
00002000
00003000
,
00010000
00000000
00100000
00000000
,
10000000
01000000
00200000
00300000
,
00010000
00001000
00000010
00000000
,
00001000
00001000
00000001
00000001
,
00000100
00000000
00000010
00000000
,
00001000
00000100
00000010
00000000
,
00001001
00000000
00000000
00000000
,
00000010
00000000
00000100
00000000
,
00001000
00010000
00011000
00000000
,
01000000
00000000
00100000
00000000
,
10000000
10000000
00010000
00010000
,
01100000
00000000
00010000
00000000
,
00001000
00000100
00000001
00000000
,
00000010
00000000
00000100
00000000
,
00000001
00000001
00001000
00001000
,
00000010
00000100
00001000
00000000
,
00010000
00100000
10010000
00000000
,
01000000
10000000
00100000
00000000
,
01000000
01000000
00010000
00010000
,
00011000
00000000
00000010
00000000
,
00000001
00000001
00001000
00001000
,
00000010
00000100
00000000
00000100
,
00001000
00010000
01000000
10000000
,
00100000
10000000
00010000
01000000
,
00100000
00010000
00001000
00000010
,
00000001
00000001
00000100
00000100
,
00001000
00010000
00011000
00000000
,
00000000
00000000
00000000
00000000
;

//---------------dance-double - ----------------
#NOTES:
     dance-double:
     :
     Medium:
     6:
     0.366867,0.455973,0.318665,0.149960,0.000000,274.000000,240.000000,34.000000,16.000000,0.000000,0.000000,0.366867,0.455973,0.318665,0.149960,0.000000,274.000000,240.000000,34.000000,16.000000,0.000000,0.000000:
00000000
00000000
00000000
00000000
,
00000000
00000000
00000000
00000000
,
00000000
00000000
00000000
00000000
,
00000000
00000000
00000000
00000000
,
00000000
00000000
00000000
00000000
,
00000010
00000001
00000100
00001000
,
00010000
01100000
10000000
01100000
,
00010000
10000000
01000000
00010000
,
00001000
00000010
00001001
00000000
,
00000010
00001000
00000100
00000010
,
00001000
00010000
00022000
00033000
,
01000000
10000000
00100000
00010000
,
00001000
00000010
00001000
00010000
,
01100000
00000000
00100000
10000000
,
00010000
01000000
00100000
10000000
,
01000000
00010000
00001000
00000010
,
00000001
00000110
00001001
00000110
,
00000001
00000100
00001000
00010000
,
00100000
10000000
02020000
03030000
,
00100000
10000000
01000000
00010000
,
00001000
00000010
00000001
00001000
,
00000110
00000000
00000010
00001000
,
00000001
00000100
00001000
00000100
,
00000001
00000010
00001000
00010000
,
01000000
10000000
00100000
10010000
,
01000000
00000000
10000000
10000000
,
00010000
00000000
00001000
00001000
,
00000001
00000000
00000010
00000000
,
00000001
00001000
00002002
00003003
,
00000010
00001000
00010000
01000000
,
00100000
00010000
00001000
00000100
,
00000001
00000001
00000010
00000010
,
00001000
00010000
00001000
00010000
,
01010000
00000000
00010000
00100000
,
10000000
00010000
00100000
01000000
,
10000000
10000000
00100000
00100000
,
00010000
00010000
00001000
00001000
,
00000110
00000000
00001000
00000010
,
00000100
00000001
00000010
00001000
,
00010000
00100000
10000000
01000000
,
00010000
01000000
10000000
00100000
,
00010000
00001000
00000010
00000100
,
00001001
00000110
00002002
00003003
,
00000100
00001000
00010000
00100000
,
10010000
01100000
20020000
30030000
,
00100000
01000000
00010000
00100000
,
01000000
00010000
00001000
00000100
,
00000001
00000001
00001000
00001000
,
00000010
00000100
00002002
00003003
,
00000100
00000100
00000100
00000100
,
00000001
00001000
00000010
00000100
,
00001000
00010000
00022000
00033000
,
00100000
10000000
01000000
00010000
,
00001000
00000100
00001000
00010000
,
01100000
00000000
01000000
10000000
,
00010000
00100000
01000000
10000000
,
00100000
00010000
00001000
00000100
,
00000001
00000110
00001001
00000110
,
00000001
00000010
00001000
00010000
,
01000000
10000000
02020000
03030000
,
00010000
10000000
00100000
00010000
,
00001000
00000100
00000001
00001000
,
00000110
00000000
00000100
00001000
,
00000001
00000010
00001000
00000010
,
00000001
00000100
00001000
00010000
,
00100000
10000000
01000000
10010000
,
00100000
00011000
00000100
00011000
,
01000000
00011000
00000010
00011000
,
00000100
00000001
00000010
00001000
,
00010000
01000000
10010000
00000000
,
00000000
00000000
00000000
00000000
;

//---------------dance-double - ----------------
#NOTES:
     dance-double:
     :
     Hard:
     9:
     0.453897,0.488542,0.412390,0.187450,0.032804,339.000000,295.000000,44.000000,20.000000,0.000000,0.000000,0.453897,0.488542,0.412390,0.187450,0.032804,339.000000,295.000000,44.000000,20.000000,0.000000,0.000000:
00000000
00000000
00000000
00000000
,
00000000
00000000
00000000
00000000
,
00000000
00000000
00000000
00000000
,
00000000
00000000
00000000
00000000
,
00000000
00000000
00000000
00000000
,
00000010
00000000
00000001
00000000
00000100
00000000
00001000
00010000
,
00000000
01000000
10000000
00000000
10100000
00000000
01010000
00000000
,
00100000
00000000
00020000
00002000
00000000
00000000
00033000
00000000
,
00000010
00000001
00000100
00001001
,
00000100
00000000
00001000
00000010
00000000
00000100
00001000
00010000
,
00000000
00100000
10000000
00000000
22000000
00000000
33000000
00000000
,
01000000
00000000
00010000
01000000
00000000
10000000
00100000
00010000
,
00000000
00000000
00001000
00000000
00000100
00000000
00000000
00000000
00000010
00000000
00000000
00000100
00000000
00000000
00000001
00000000
,
00000010
00000000
00000000
00000000
00001000
00000100
00001000
00000010
,
00000000
00000100
00000001
00000000
00000010
00000000
00001000
00000000
,
00010000
00000000
00100000
10000000
00010000
00000000
00000000
00000000
,
01000000
10010000
01100000
10010000
,
01000000
00000000
00010000
00001000
00000000
00000010
00000100
00001000
,
00000000
00000010
00001000
00000000
00000202
00000000
00000303
00000000
,
00001000
00000000
00010000
01000000
00000000
00100000
01000000
10000000
,
00000000
00000000
00010000
00000000
01000000
00000000
00000000
00000000
00100000
00000000
00000000
00010000
00000000
00000000
00001000
00000000
,
00000010
00000000
00000000
00000000
00000001
00000010
00000100
00001000
,
00000000
00010000
01000000
00100000
10000000
00000000
01010000
00000000
,
11000000
00000000
00200000
02000000
00000000
00000000
03300000
00000000
,
10000000
01000000
00010000
00001000
,
00000010
00000000
00001000
00000000
00010000
00000000
00000000
00000000
00001000
00000000
00000000
00001000
00000000
00000000
00001000
00000000
,
00000100
00000000
00000001
00000000
00000010
00000000
00000000
00000000
00000100
00000000
00000000
00000100
00000000
00000000
00000100
00000000
,
00000010
00000000
00001000
00000000
00010000
00000000
00000000
00000000
01000000
00000000
00000000
01000000
00000000
00000000
01000000
00000000
,
10000000
00100000
01000000
00000000
20020000
00000000
30030000
00000000
,
01000000
10000000
00100000
01010000
,
00001000
00000010
00000100
00001001
,
00000011
00001100
00001010
00000101
,
00000010
00001000
00010000
00011000
,
00100000
00000000
01000000
00000000
00001000
00100000
01000000
00000000
,
00010000
00000000
01000000
00000000
10000000
00100000
01000000
00000000
,
00001000
00010010
00011000
00010100
,
00001000
00000110
00001001
00001010
,
00000001
00000000
00000100
00000000
00000010
00000100
00000001
00000000
,
00000010
00000000
00001000
00000000
00010000
01000000
10000000
00000000
,
00100000
01010000
11000000
10100000
,
00010000
00010100
00011000
00001010
,
00000001
00000000
00000100
00000001
00000000
00000100
00000000
00000010
,
00000000
00000001
00000010
00001000
00020000
00000000
00030000
00000000
,
00100000
00000000
01000000
10000000
00000000
00100000
00000000
01000000
,
00000000
00100000
00010000
00001000
00000200
00000000
00000300
00000000
,
00000001
00000000
00001000
00000100
00000000
00000010
00000000
00001000
,
00000000
00010000
00100000
10000000
01000000
00000000
00110000
00000000
,
00001000
00000010
00000001
00000100
,
00000110
00000000
00001000
00000002
00002000
00000000
00003003
00000000
,
00000100
00001000
00010000
00100000
,
01000000
00000000
00010000
00100000
00000000
01000000
00010000
00001000
,
00000000
00000010
00000001
00000000
00000202
00000000
00000303
00000000
,
00000100
00000000
00001000
00000100
00000000
00000001
00000010
00001000
,
00000000
00000000
00010000
00000000
01000000
00000000
00000000
00000000
00100000
00000000
00000000
01000000
00000000
00000000
10000000
00000000
,
00100000
00000000
00000000
00000000
00010000
01000000
00010000
00100000
,
00000000
01000000
10000000
00000000
00100000
00000000
00010000
00000000
,
00001000
00000000
00000010
00000001
00001000
00000000
00000000
00000000
,
00000100
00001001
00000110
00001001
,
00000100
00000000
00001000
00010000
00000000
00100000
01000000
00010000
,
00000000
00100000
00010000
00000000
22000000
00000000
33000000
00000000
,
00010000
00000000
00001000
00000100
00000000
00000010
00000100
00000001
,
00000000
00000000
00001000
00000000
00000100
00000000
00000000
00000000
00000010
00000000
00000000
00001000
00000000
00000000
00010000
00000000
,
00100000
00000000
00000000
00000000
10000000
00100000
01000000
00010000
,
00000000
00001000
00000100
00000010
00000001
00000000
00001100
00000000
,
00000101
00000000
00000020
00000200
00000000
00000000
00000330
00000000
,
00000001
00000100
00001000
00010000
,
00100000
11000000
01010000
00110000
,
00001000
00010010
00001000
00010100
,
00000010
00000100
00001000
00000010
,
00000100
00001000
00010000
00001000
00000100
00000000
00000000
00000000
,
00000000
00000000
00000000
00000000
;

//---------------dance-double - ----------------
#NOTES:
     dance-double:
     :
     Challenge:
     12:
     0.536911,0.521112,0.656076,0.000000,0.037490,401.000000,331.000000,70.000000,0.000000,0.000000,0.000000,0.536911,0.521112,0.656076,0.000000,0.037490,401.000000,331.000000,70.000000,0.000000,0.000000,0.000000:
00000000
00000000
00000000
00000000
,
00000000
00000000
00000000
00000000
,
00000000
00000000
00000000
00000000
,
00000000
00000000
00000000
00000000
,
00000000
00000000
00000000
00000000
,
00010000
00000000
11000000
00000000
01100000
00000000
00010000
00001000
,
00000000
00000100
00000001
00000010
00000001
00000100
00001000
00000000
,
00011000
00000000
00000100
00010000
00000000
00000000
00000100
00000000
,
00000010
00001100
00010100
00011000
,
01000000
00000000
10000000
01000000
00000000
01000000
00010000
00001000
,
00000000
00000010
00000001
00000000
00001001
00000000
00001100
00000000
,
00000100
00000000
00000001
00000100
00000000
00000100
00001000
00010000
,
00000000
00000000
00100000
00000000
10000000
00000000
00000000
00000000
00100000
00000000
00000000
00010000
00000000
00000000
00001000
00000000
,
01000000
00000000
01010000
00000000
00100000
00010000
00001000
00000010
,
00000000
00000000
00011000
00000000
00100000
00001000
00010000
00000000
,
00000100
00000000
00010000
00001000
00010000
01000000
00010000
00000000
,
00011000
00001010
00000110
00001100
,
00010000
00000000
00000010
00010000
00000000
00011000
00000000
01010000
,
00000000
11000000
00000000
01100000
00000000
00000000
00000000
00000000
,
00010000
00000000
00001000
00100000
00000000
00100000
00010000
00000010
,
00000000
00000000
00001000
00000000
00000100
00000000
00000000
00000000
00000010
00000000
00000000
00001000
00000000
00000000
00010000
00000000
,
00000100
00000000
00001100
00000000
00001000
00010000
01000000
10000000
,
00000000
00010000
00001000
00000100
00000001
00000000
00000011
00000000
,
00001000
00000000
00010000
00000100
00000010
00001000
00010000
00000000
,
01010000
00011000
00010100
00000010
,
00000001
00000000
00000100
00000000
00001000
00000000
00000000
00000000
00010000
00000000
00000000
00100000
00000000
00000000
10000000
00000000
,
00100000
00000000
00010000
00000000
00001000
00000000
00000000
00000000
00000010
00000000
00000000
00000001
00000000
00000000
00000100
00000000
,
00001000
00000000
00010000
00000000
00100000
00000000
00000000
00000000
00010000
00000000
00000000
00001000
00000000
00000000
00000100
00000000
,
00000001
00000000
00000000
00000000
00001100
00000000
00000000
00000000
00011000
00000000
00000000
00000100
00000000
00000000
00000001
00000000
,
00000100
00000010
00000100
00000000
00001000
00010000
00000000
00010000
,
01000000
00100000
01000000
00000000
10000000
00010000
00000000
00100000
,
00010000
00001000
00010000
00000000
00000010
00010000
00000000
00001000
,
00100000
00110000
01010000
00011000
,
00001010
00000000
00000000
00000000
00000000
00000001
00000100
00001000
,
00010000
00000000
00010100
00000000
00000110
00000000
00000001
00000100
,
00000000
00001000
00010000
00000000
00011000
00000000
01001000
00000000
,
00100000
01010000
00100000
11000000
,
10100000
00000000
00000000
00000000
00000000
10000000
01000000
00010000
,
00001000
00000000
01001000
00000000
01100000
00000000
10000000
01000000
,
00000000
00010000
00001000
00000000
00011000
00000000
00010100
00000000
,
00001000
00000010
00000100
00000010
00000100
00001000
00010000
01000000
,
10000000
00000000
01000000
00010000
00000000
00011000
00000000
00101000
,
00000000
00100000
00010000
00001000
00000100
00000000
00000101
00000000
,
00000001
00000000
00000100
00001000
00000000
00011000
00000000
00010010
,
00000000
00000010
00001000
00010000
01000000
00000000
11000000
00000000
,
00100000
00000000
00010000
00001000
00000000
00000010
00000000
00001000
,
00000000
00010000
00001000
00010000
00100000
00100000
00010000
00001000
,
00000100
00001001
00000010
00001001
,
00000100
00000000
00000100
00001000
00010000
00000000
00000000
00000000
,
01010000
00000000
11000000
00000000
01010000
00000000
10000000
00010000
,
01000000
00000000
10000000
01000000
00000000
01000000
00010000
00001000
,
00000000
00000010
00000001
00000000
00001001
00000000
00001100
00000000
,
00000100
00000000
00000001
00000100
00000000
00000100
00001000
00010000
,
00000000
00000000
00100000
00000000
10000000
00000000
00000000
00000000
00100000
00000000
00000000
00010000
00000000
00000000
00001000
00000000
,
01000000
00000000
01010000
00000000
00100000
00010000
00001000
00000010
,
00000000
00000000
00011000
00000000
00100000
00001000
00010000
00000000
,
00000100
00000000
00010000
00001000
00010000
01000000
00010000
00000000
,
00011000
00001010
00000110
00001100
,
00010000
00000000
00000010
00001000
00000000
00001000
00010000
00000100
,
00000000
00000010
00001000
00000000
00010000
00000000
00110000
00000000
,
00010000
00000000
00001000
00100000
00000000
00100000
00010000
00000010
,
00000000
00000000
00001000
00000000
00000100
00000000
00000000
00000000
00000010
00000000
00000000
00001000
00000000
00000000
00010000
00000000
,
00000100
00000000
00001100
00000000
00001000
00010000
01000000
10000000
,
00000000
00010000
00001000
00000100
00000001
00000000
00000011
00000000
,
00001000
00000000
00010000
00000100
00000010
00001000
00010000
00000000
,
01010000
11000000
10100000
00110000
,
00001000
00000000
00000100
00000001
00000010
00000100
00000001
00000000
,
00001100
00001001
00000101
00001001
,
00000010
00000000
00001000
00010000
00001000
01000000
00100000
10000000
,
00000000
00100000
00010000
00001000
00010000
00000000
00000000
00000000
,
00000000
00000000
00000000
00000000
;

//---------------dance-single - Edit----------------
#NOTES:
     dance-single:
     :
     Edit:
     17:
     1.028298,1.377759,0.187450,0.403018,1.293406,768.000000,748.000000,20.000000,43.000000,0.000000,0.000000,1.028298,1.377759,0.187450,0.403018,1.293406,768.000000,748.000000,20.000000,43.000000,0.000000,0.000000:
// measure 0
0000
0000
0000
0000
,  // measure 1
0000
0000
0000
0000
,  // measure 2
0000
0000
0000
0000
,  // measure 3
0000
0000
0000
0000
,  // measure 4
0000
0000
0000
0000
,  // measure 5
1000
0100
0001
0100
1000
0100
0001
0010
,  // measure 6
0000
0010
0001
0100
1000
0000
1001
0000
,  // measure 7
0020
0000
0130
0001
2000
0000
3100
0000
,  // measure 8
0010
0001
0010
0000
1000
0100
0010
0001
0200
0000
0000
0000
0310
1000
0100
0010
,  // measure 9
0002
0000
0103
0010
1000
0000
0200
0000
1300
0000
0001
0010
1000
0000
0200
0000
,  // measure 10
0310
0000
1000
0010
0100
0000
0010
0001
0100
0000
0000
0000
0101
0000
0000
0000
,  // measure 11
0020
0000
0031
0100
0010
0000
2000
0000
3010
0000
0001
0010
1000
0000
0200
0000
,  // measure 12
0301
0000
0100
0010
1000
0000
0100
0000
0010
0000
0001
0010
0000
0010
0100
1000
,  // measure 13
0010
0000
0000
0000
0101
0000
0000
0000
1000
0100
0010
0001
0010
0100
2000
0000
,  // measure 14
3001
0000
1000
0100
0010
0000
0001
0010
0100
0000
1000
0000
1100
0000
0100
1000
,  // measure 15
0010
0000
0100
0001
0010
0000
0001
0100
0010
1000
0100
0010
0001
0100
0010
1000
,  // measure 16
0200
0000
0000
0000
1000
0000
1000
0000
0000
0000
0001
0000
0301
0010
1000
0100
,  // measure 17
0020
0000
0130
0001
0010
0000
1000
0000
0200
0000
1300
0010
0100
0000
0020
0000
,  // measure 18
0031
0000
0010
0001
0100
0000
0010
1000
0100
0000
0010
0000
0110
0000
0100
0001
,  // measure 19
2000
0000
3010
0001
0200
0000
0310
1000
0002
0000
0103
0010
1000
0000
0020
0000
,  // measure 20
0130
0000
0000
0000
0000
0000
0010
0000
0000
0100
0000
0000
1000
0000
0000
0000
0000
0000
0010
0000
0000
0000
0000
0000
0100
0000
0000
0000
0000
0000
0001
0000
0000
0010
0000
0000
0000
0000
0000
1000
0000
0000
0010
0000
0100
0000
0001
0000
,  // measure 21
1000
0100
0010
0000
1010
0000
0010
0000
0010
0001
1000
0001
1000
0001
1000
0000
,  // measure 22
0001
0000
1000
0001
1000
0000
0001
1000
0001
0000
1000
0000
1001
0000
1000
0001
,  // measure 23
0100
0000
0010
1000
0100
0000
0010
0001
1000
0000
0100
0001
0010
0000
0100
1000
,  // measure 24
0010
0100
0010
0001
0010
0100
0010
0001
0010
0100
0010
0001
0010
0100
0010
0001
,  // measure 25
0020
0000
1000
0000
0100
0000
0000
0000
0100
0000
0000
1000
0000
0000
0031
0000
,  // measure 26
0200
0000
0001
0000
0010
0000
0000
0000
1000
0000
0000
0010
0000
0000
0301
0000
,  // measure 27
2000
0000
0002
3003
,  // measure 28
0020
0230
2000
3300
,  // measure 29
1000
0010
0100
0001
0010
1000
0010
0001
0100
0010
1000
0001
0010
0100
1000
0001
,  // measure 30
0100
0000
0010
0000
1000
0000
0100
0000
0010
0000
0001
0000
0010
0000
0000
1000
0000
0000
0020
0000
0000
0000
0000
0000
0000
0000
0000
0000
0000
0000
0130
0000
0000
0001
0000
0000
1000
0000
0000
0000
0000
0000
0020
0000
0000
0000
0000
0000
,  // measure 31
0031
0000
0100
0010
1000
0000
0010
0100
0001
0000
0100
0010
1000
0000
0010
0100
,  // measure 32
0001
0010
0100
0000
1100
0000
1000
0100
0010
0001
0100
0000
0001
0010
0100
1000
,  // measure 33
0020
0000
0001
0000
1000
0000
0000
0000
0031
0000
1000
0010
0001
0000
0001
0010
,  // measure 34
1000
0000
1000
0100
0001
0000
0001
0100
1000
0000
0001
0000
1001
1000
0100
0000
,  // measure 35
0020
0001
0100
0001
0100
1000
0100
1000
,  // measure 36
0230
0000
0001
0000
0010
0000
0001
0000
0010
0000
1000
0000
0010
0000
1000
0001
,  // measure 37
0310
0001
1000
0100
0010
0001
0200
0000
0010
0000
0310
1000
0100
0000
0010
1000
,  // measure 38
0001
0000
0010
0001
1000
0000
0001
0100
0010
0000
1000
0000
1010
0000
0010
1000
,  // measure 39
0200
0001
1000
0001
0010
1000
0001
1000
,  // measure 40
0320
0000
0001
0000
1000
0000
0001
0000
0100
0000
1000
0000
0001
0000
1030
0001
,  // measure 41
0100
0000
0010
0001
0100
0000
0001
0100
0010
0000
0100
0010
1000
0000
0010
1000
,  // measure 42
0100
0001
0010
0000
0010
0001
0100
1000
0010
0000
0001
0000
0101
0000
1000
0100
,  // measure 43
0010
0000
0001
0010
0100
0000
1000
0010
0100
0000
0001
0100
0010
0000
1000
0010
,  // measure 44
0001
0100
1000
0100
0001
0010
0100
1000
0010
0000
0100
0000
1100
0000
1000
0010
,  // measure 45
0001
0000
0001
0100
1000
0000
1000
0100
0001
0000
0001
0010
1000
0000
1000
0010
,  // measure 46
0001
0000
0001
0100
1000
0100
0001
0000
0001
0000
0001
0000
0100
0000
0100
0000
,  // measure 47
0010
1000
0100
0010
0002
0000
1000
0000
0013
0000
0100
0001
0010
0000
0100
0000
,  // measure 48
1000
0010
0100
0001
1000
0010
0100
0001
2000
0000
0001
0000
3100
0010
1000
0100
,  // measure 49
0010
0000
0000
0000
0000
0000
0000
0000
0000
0000
0000
0000
0000
0000
0000
0000
0000
0000
0000
0000
0000
0000
0000
0000
0100
0000
0000
0000
0000
0000
0000
0000
0000
0000
0000
0000
0000
0000
0000
0000
0000
0000
0000
0000
0000
0000
0000
0000
0010
0000
0000
0000
0000
0000
0000
0000
0000
0000
0000
0000
0000
0000
0000
0000
0000
0000
0000
0000
0000
0000
0000
0100
0000
0000
0000
0000
0000
0000
0000
0000
0000
0000
0000
0000
0000
0000
0000
0000
0000
0000
0000
0000
0000
0000
0000
0000
0010
0000
0000
0000
0000
0000
0000
0000
0100
0000
0000
0000
0000
0000
0000
0000
0010
0000
0000
0000
0000
0000
0000
0000
0100
0000
0000
0000
0000
0000
0000
0000
0010
0000
0000
0000
0000
0000
0000
0000
0100
0000
0000
0000
0000
0000
0000
0000
0010
0000
0000
0000
0000
0000
0100
0000
0000
0000
0000
0000
0010
0000
0000
0000
0000
0000
0100
0000
0000
0000
0000
0000
0010
0000
0000
0000
0000
0000
0100
0000
0000
0000
0000
0000
0010
0000
0000
0000
0000
0000
0100
0000
0000
0000
0000
0000
,  // measure 50
0010
0001
1000
0001
0100
0000
0010
1000
0001
1000
0100
0000
0010
1000
0200
0010
,  // measure 51
0301
0000
0100
0010
1000
0000
0010
0100
0001
0000
1000
0000
1001
0000
0001
0010
,  // measure 52
0200
0010
1300
0010
0100
0000
0010
0100
0001
0100
0010
0000
1000
0100
0020
0000
,  // measure 53
0031
0000
0001
0010
0100
0000
1000
0000
0010
1000
0000
1000
0100
0010
0001
0010
,  // measure 54
0200
0000
1000
0000
0001
0000
1300
0000
0100
0001
0100
1000
0100
0000
0100
1000
,  // measure 55
0100
0001
0100
1000
0100
0000
0100
0001
0100
0000
0100
1000
0100
0001
0100
0000
,  // measure 56
0200
0000
1300
0001
0020
0000
0130
0001
,  // measure 57
1001
1100
1010
0101
,  // measure 58
0001
0010
0000
0001
0000
0000
0100
0000
0000
0010
0000
0000
1000
0000
0000
0010
0000
0000
0100
0001
0000
0100
0000
0000
0001
0000
0000
1000
0000
0000
0100
0000
0000
0010
0000
0000
0001
0000
0000
0010
0000
0000
1000
0100
0000
1000
0000
0000
,  // measure 59
0001
0000
0000
0000
0000
0000
0100
0000
0000
1000
0000
0000
0010
0000
0000
0000
0000
0000
0100
0000
0000
0001
0000
0000
0010
0000
0000
0000
0000
0000
0001
0000
0000
0000
0000
0000
0010
0001
0000
0000
0000
0000
0100
0000
0000
0001
0000
0000
,  // measure 60
1000
0000
0100
1000
0000
0000
0001
0000
0000
0010
0000
0000
0100
0000
0000
0010
0000
0000
1000
0010
0000
1000
0000
0000
0010
0000
0000
0100
0000
0000
0001
0000
0000
1000
0000
0000
0010
0000
0000
0100
0000
0000
0001
0010
0000
0001
0000
0000
,  // measure 61
0100
0000
0010
1000
0100
0000
0000
0000
0101
0000
0000
0110
0000
0000
1100
0000
,  // measure 62
1000
0100
0000
1000
0000
0000
0100
0000
0000
1000
0000
0000
0100
0000
0000
1000
0000
0000
0100
0000
0000
1000
0000
0000
0100
0000
0000
1000
0000
0000
0100
0000
0000
1000
0000
0000
0100
0000
0000
1000
0000
0000
0100
0000
0000
1000
0000
0000
,  // measure 63
0100
0010
0000
0100
0000
0000
0010
0000
0000
0100
0000
0000
0010
0000
0000
0100
0000
0000
0010
0000
0000
0100
0000
0000
0010
0000
0000
0100
0000
0000
0010
0000
0000
0100
0000
0000
0010
0000
0000
0100
0000
0000
0010
0000
0000
0100
0000
0000
,  // measure 64
0010
0001
0000
0010
0000
0000
0001
0000
0000
0010
0000
0000
0001
0000
0000
0010
0000
0000
0001
0000
0000
0010
0000
0000
0001
0000
0000
0010
0000
0000
0001
0000
0000
0010
0000
0000
0001
0000
0000
0010
0000
0000
0001
0000
0000
0010
0000
0000
,  // measure 65
0001
1000
0000
0001
0000
0000
1000
0000
0000
0001
0000
0000
1000
0000
0000
0001
0000
0000
1000
0000
0000
0001
0000
0000
1000
0000
0000
0001
0000
0000
1000
0000
0000
0001
0000
0000
1000
0000
0000
0001
0000
0000
1000
0000
0000
0001
0000
0000
,  // measure 66
1000
0100
0000
1000
0000
0000
0100
0000
0000
0010
0000
0000
0001
0000
0000
0010
0000
0000
0100
0000
0000
1000
0000
0000
0010
0100
0000
0010
0000
0000
0100
0000
0000
0001
0000
0000
1000
0000
0000
0100
0000
0000
0010
0000
0000
0001
0000
0000
,  // measure 67
1000
0010
0000
1000
0000
0000
0010
0000
0000
0100
0000
0000
0001
0010
0000
0001
0000
0000
0010
0000
0000
0100
0000
0000
1000
0100
0000
1000
0000
0000
0100
0000
0000
0010
0000
0000
0001
1000
0000
0001
0000
0000
1000
0000
0000
0001
0000
0000
,  // measure 68
0100
0001
0100
0000
0010
0000
1000
0000
0100
0000
0010
0000
0001
0000
1000
0000
0010
0100
0010
0000
0100
0000
0001
0000
1000
0000
0100
0000
0010
0000
0001
0000
,  // measure 69
0100
0010
0100
0000
0010
0100
0010
0000
0100
0001
0100
0000
0001
0100
0001
0200
0002
0000
0000
0000
0000
0000
0000
0000
0000
0000
0000
0000
0000
0000
0000
0000
,  // measure 70
0303
0000
0000
0000
;
