#TITLE:Radical Faith;
#SUBTITLE:;
#ARTIST:TaQ;
#TITLETRANSLIT:;
#SUBTITLETRANSLIT:;
#ARTISTTRANSLIT:;
#GENRE:;
#CREDIT:;
#BANNER:Radical Faith.png;
#BACKGROUND:Radical Faith-bg.png;
#LYRICSPATH:;
#CDTITLE:;
#MUSIC:Radical Faith.ogg;
#OFFSET:0.000000;
#SAMPLESTART:35.806999;
#SAMPLELENGTH:15.000000;
#SELECTABLE:YES;
#DISPLAYBPM:114.000000;
#BPMS:0.000000=113.081001
,4.000000=114.000000
;
#STOPS:
;
#BGCHANGES:;
#KEYSOUNDS:;
#ATTACKS:;

//---------------dance-single - ----------------
#NOTES:
     dance-single:
     :
     Beginner:
     4:
     0.138815,0.183964,0.084906,0.000000,0.000000,103.000000,94.000000,9.000000,0.000000,0.000000,0.000000,0.138815,0.183964,0.084906,0.000000,0.000000,103.000000,94.000000,9.000000,0.000000,0.000000,0.000000:
0000
0000
0000
0000
,
0000
0000
0000
0000
,
0000
0000
0000
0000
,
0001
0001
0000
0000
,
1000
1000
0000
0000
,
0000
0000
0001
0000
,
1000
0000
0001
0000
,
1000
0000
0010
0000
,
0100
0000
0100
0100
,
0100
0000
1000
0000
,
0001
0000
1000
0000
,
0001
0000
0010
0000
,
0100
0000
0100
0100
,
0100
0100
0000
0000
,
0000
0110
0000
0000
,
0000
0001
0001
0000
,
0000
0010
0010
0010
,
0010
0000
0000
0000
,
0000
0100
0100
0000
,
0000
0001
0001
0000
,
0000
1000
1000
1000
,
1000
1000
1000
0000
,
0000
0100
0100
0000
,
0000
1000
1000
0000
,
0000
0001
0001
0001
,
0001
0001
0000
1000
,
0000
0001
0000
0100
,
0000
0001
0000
1000
,
0000
0001
0000
0100
,
0000
1000
0000
0001
,
0000
1000
0000
0100
,
0000
1000
0000
0001
,
0000
1000
0000
0100
,
0000
1001
0000
0000
,
0001
0001
0000
0000
,
0110
0110
0000
0000
,
1000
1000
0000
0000
,
1001
1001
0000
0000
,
1000
1000
0000
0000
,
0110
0110
0000
0000
,
0001
0001
0000
0000
,
1001
0000
0000
0000
,
0000
1000
1000
0000
,
0000
0001
0001
0000
,
0000
1000
1000
0000
,
0000
0001
0000
1000
,
0000
0010
0000
0100
,
0000
1000
0000
0001
,
0000
0010
0000
0100
;

//---------------dance-single - ----------------
#NOTES:
     dance-single:
     :
     Easy:
     6:
     0.239894,0.275946,0.000000,0.000000,0.000000,178.000000,178.000000,0.000000,0.000000,0.000000,0.000000,0.239894,0.275946,0.000000,0.000000,0.000000,178.000000,178.000000,0.000000,0.000000,0.000000,0.000000:
0000
0000
0000
0000
,
0000
0000
0000
0000
,
0000
0000
0000
0000
,
1000
0000
0010
0000
0100
0000
0001
0001
,
0000
0000
0000
0000
0000
0000
1000
1000
,
1000
0000
0001
0000
1000
0001
1000
0001
,
1000
0000
0001
0001
,
0100
0000
0010
0000
0100
0010
0100
0010
,
0100
0000
0001
1000
,
0010
1000
0001
0100
,
0010
1000
0001
0001
,
1000
0010
0100
0001
,
1000
0010
0100
0100
,
0001
0000
0000
0000
0000
1000
0001
0000
,
0100
0000
0010
0100
,
0010
0000
0000
0100
,
0010
0000
0000
0000
0000
0000
0100
0010
,
1000
0000
1000
0000
0001
0001
0001
0001
,
0100
0100
0100
0010
,
1000
0001
0010
0010
,
0001
0000
0100
0000
0010
0000
1000
1000
,
0010
0000
0000
0000
0010
0100
0010
0000
,
0001
0000
1000
1000
,
0010
0000
0100
0001
,
1000
0000
1000
1000
,
0010
0000
0000
0010
,
0100
0000
0000
0100
,
0001
0000
0000
0001
,
1000
0000
0000
0000
1000
0001
1000
0001
,
1000
0000
0000
0000
0000
0000
0001
1000
,
0001
0000
0100
0100
,
0010
0000
0000
0000
0000
0000
0100
0010
,
0100
0001
1000
0000
,
0010
0000
0010
0000
0010
0100
0010
0000
,
1000
0001
1000
0010
,
0100
0000
0100
0000
0100
0010
0100
0000
,
0001
1000
0001
0100
,
0010
0000
1000
0000
0010
1000
0010
0000
,
0100
0000
0001
0000
0100
0001
0100
0000
,
0010
0000
0100
0000
0010
1000
0010
0000
,
0100
0000
0100
0000
0001
1000
0001
0000
,
0010
0000
0000
0000
0001
0001
0001
0000
,
1000
0000
0000
0000
0100
0100
0100
0000
,
0010
0001
1000
0100
,
0010
0000
0000
0000
0001
1000
0001
0000
,
0100
0001
1000
0010
,
1000
0100
0010
0001
,
0010
0100
1000
0001
,
0100
0000
0100
0000
0001
1000
0001
0000
;

//---------------dance-single - ----------------
#NOTES:
     dance-single:
     :
     Medium:
     9:
     0.361189,0.390422,0.047170,0.000000,0.004717,268.000000,263.000000,5.000000,0.000000,0.000000,0.000000,0.361189,0.390422,0.047170,0.000000,0.004717,268.000000,263.000000,5.000000,0.000000,0.000000,0.000000:
0000
0000
0000
0000
,
0000
0000
0000
0000
,
0000
0000
0000
0000
,
1000
0010
0100
0000
0001
0001
1000
0001
,
0100
0000
0000
0000
0000
0010
0110
0110
,
0100
0000
0001
0000
1000
0010
0100
0000
,
0001
0000
0100
0010
1000
0001
1000
0000
,
0010
0000
0010
0100
0001
0100
0001
0000
,
1000
0000
1000
0000
1000
0100
1000
0100
,
1000
0000
0010
0000
0100
0001
0100
0001
,
1000
0000
1000
0010
1000
0010
0100
0000
,
0001
0000
0100
0000
0010
1000
0100
0000
,
0010
0000
0010
0001
1000
0100
1000
0000
,
0001
0000
0000
0000
0000
0000
1100
1100
,
1000
0000
0010
0000
0100
0000
0001
1000
,
0001
1000
0000
0000
0010
0010
0010
0100
,
0001
0000
0001
0000
0001
0000
0001
1000
,
0010
0100
0010
0000
1000
0010
0100
0001
,
1000
0000
1000
0000
0100
0010
0001
0000
,
0100
0000
0010
1000
0010
0000
0100
0100
,
0001
0000
0001
1000
0010
0000
0010
0010
,
0100
0000
0010
1000
1000
0001
0001
0001
,
1000
0000
0000
0000
1000
1000
1000
0001
,
0100
0000
0100
0010
1000
0010
0100
0001
,
1000
0000
1000
1000
0010
0000
0100
0101
,
0000
1000
1000
0000
0010
0000
0100
0100
,
0000
0001
0001
0000
1000
0000
0100
0000
,
0010
0000
0000
0000
0010
0000
0100
0100
,
1000
0000
0000
0000
0001
1000
0001
0000
,
0100
0000
0100
0001
1000
0010
1000
0010
,
0100
0000
0100
0000
0010
1000
0001
0000
,
0010
0000
0010
0001
1000
0100
1000
0100
,
0010
0000
0010
0000
0100
1000
0001
0000
,
0100
0010
0100
0010
1000
0010
1000
0010
,
0100
0001
0100
0001
0010
0001
0010
0001
,
1000
0100
0010
0001
1000
0100
0010
0001
,
1000
0000
1000
0000
1000
0000
0001
0001
,
0100
0000
0000
0000
0001
0100
0010
1000
,
0001
0000
0000
0000
0010
0001
1000
0100
,
1000
0010
0100
0000
1000
0010
0100
0000
,
0001
0000
0001
0000
0001
0100
0001
0000
,
1000
0010
0100
0001
1000
0000
0000
0000
,
1000
0010
0100
0001
1000
0000
0000
0000
,
1000
0100
0010
0001
1000
0000
0000
0000
,
1000
0100
0010
0001
1000
0100
0010
0001
,
0100
0000
0100
0000
0001
0100
1000
0100
,
0001
0000
0001
0000
1000
0010
1000
0000
,
0001
0100
0010
0000
0010
1000
0100
1000
,
0001
0000
0000
0000
0001
0000
1000
0000
0010
0000
0100
0001
0000
0000
0000
0000
;

//---------------dance-single - ----------------
#NOTES:
     dance-single:
     :
     Hard:
     12:
     0.498657,0.528218,0.094341,0.000000,0.254719,370.000000,360.000000,10.000000,0.000000,0.000000,0.000000,0.498657,0.528218,0.094341,0.000000,0.254719,370.000000,360.000000,10.000000,0.000000,0.000000,0.000000:
0000
0000
0000
0000
,
0000
0000
0000
0000
,
0000
0000
0000
0000
,
0100
0000
0001
0000
1000
0100
0000
0000
1000
0000
1000
0000
0010
0000
0100
0000
,
0001
1000
0001
1000
0001
0001
0011
1001
,
0100
0000
0010
0000
0100
0001
0000
0001
1000
0000
1000
0000
1000
0000
1000
0000
,
0010
0000
0100
0000
0010
1000
0000
1000
0001
0000
0001
0000
0100
0000
0001
0000
,
1000
0000
0010
0000
0100
0001
0000
0001
1000
0000
0010
0000
1000
0000
1000
0000
,
0010
0000
0100
0000
0001
1000
0000
1000
0010
0000
0000
0000
0001
0000
1001
0000
,
1000
0000
0010
0000
0100
0000
0001
0000
0001
0000
1000
0000
0100
1000
0100
1000
,
0100
0000
0010
0000
0001
0000
0100
0000
0001
0100
0001
0100
0001
0000
0000
0000
,
1000
0000
0010
0000
0100
0000
0010
0000
1000
0010
1000
0010
0100
0000
0010
0000
,
1000
0000
0000
0000
0001
0100
0001
0000
1000
0000
1000
0000
1000
0000
0000
0000
,
0010
0000
0100
0000
0001
1000
0000
0001
1000
0000
0010
0000
0100
0000
0100
0000
,
0001
0000
0001
0000
0001
1000
0000
0010
1000
0000
0000
0000
0001
0000
0001
0000
,
0000
0100
0000
0010
0000
1000
0000
0010
,
0000
1000
0000
0001
0100
0010
0100
0010
,
1000
0010
0100
0001
0001
1000
0010
0010
,
0100
0001
0100
0001
1000
1000
0010
0100
,
0001
0001
0100
0000
0001
0100
1000
0100
,
0010
0100
0001
0000
1000
0001
0100
0000
,
0010
0000
0100
0000
0010
0000
0000
1000
0001
0000
0100
0000
0001
0000
0010
0000
,
0001
0000
0001
0000
0100
0000
0000
0010
1000
0000
0001
0000
1000
0000
1000
0000
,
0010
0000
0100
0010
1000
0001
0100
0001
,
1000
0010
1000
0000
0010
0000
0010
1010
,
0100
0000
0001
0001
0010
0001
0100
0000
,
0001
0100
0001
0010
0001
1000
0100
1000
,
0010
0110
0000
1000
,
0010
0100
0001
0100
0010
1000
1000
0000
,
0010
1000
0001
0100
0010
1000
1000
1000
,
0001
1000
0100
0010
0001
0100
0100
0100
,
0010
0100
0010
1000
0001
0010
0010
0010
,
0001
1000
0000
0000
0001
0100
0000
0000
0001
1000
0001
0100
0001
1000
0001
0100
,
0010
0000
0100
0000
0010
1000
0000
1000
0001
0000
0001
0000
0001
0000
0001
0000
,
0100
0000
0010
0000
0100
0001
0000
0001
1000
0000
1000
0000
0010
0000
1000
0000
,
0001
0000
0100
0000
0010
1000
0000
1000
0001
0000
0100
0000
0001
0000
0001
0000
,
0100
0000
0010
0000
1000
0001
0000
0001
0100
0000
0000
0000
1000
0000
1001
0000
,
0001
0000
0100
0000
0010
0000
1000
0000
1000
0000
0001
0000
0010
0001
0010
0001
,
0010
0000
0100
0000
1000
0000
0010
0000
1000
0010
1000
0010
1000
0000
0000
0000
,
0001
0000
0100
0000
0010
0000
0100
0000
0001
0100
0001
0100
0010
0000
0100
0000
,
0001
0000
0000
0000
1000
0010
1000
0000
0001
0000
0001
0000
0001
0000
0000
0000
,
0100
0000
0000
0000
0000
0000
0000
0000
1000
0100
0001
0100
1000
0100
0001
0100
,
1000
0000
0000
0000
0000
0000
0000
0000
0010
0001
0100
0001
0010
0001
0100
0001
,
0010
0000
0000
0000
0001
0000
1000
0010
,
0100
0000
0100
0000
0100
0001
1000
0010
,
0100
0001
0100
0000
0010
1010
0110
0000
,
0001
1000
0100
0000
1000
1010
1001
0000
,
1000
0010
0100
0001
0010
0100
1000
0001
,
0100
0000
0100
0000
0100
0010
0100
0010
0100
0000
0001
1000
0000
0000
0000
0000
;

//---------------dance-double - ----------------
#NOTES:
     dance-double:
     :
     Easy:
     3:
     0.233156,0.229955,0.000000,0.000000,0.000000,173.000000,173.000000,0.000000,0.000000,0.000000,0.000000,0.233156,0.229955,0.000000,0.000000,0.000000,173.000000,173.000000,0.000000,0.000000,0.000000,0.000000:
00000000
00000000
00000000
00000000
,
00000000
00000000
00000000
00000000
,
00000000
00000000
00000000
00000000
,
00010000
00000000
00000010
00001000
,
00000001
00000000
00000100
00000100
,
00000010
00001000
00010000
01000000
,
00100000
00100000
10000000
01000000
,
00100000
00001000
00010000
01000000
,
10000000
10000000
00100000
00001000
,
00000010
00001000
00000100
00001000
,
00000001
00000001
00000100
00000010
,
00010000
00010000
00001000
00010000
,
00100000
01000000
00010000
10000000
,
00100000
00000000
00000000
00000000
00000000
00000000
00001000
00000010
,
00000100
00000000
00000000
00000001
,
00001000
00000000
00100000
01000000
,
00010000
10000000
00100000
00100000
,
01000000
00000000
00001000
00001000
,
00010000
00000010
00001000
00000010
,
00000100
00000100
00000001
00001000
,
00000010
00000000
00001000
00100000
,
01000000
01000000
00010000
00100000
,
00001000
00100000
00001000
01000000
,
00010000
00100000
00001000
00010000
,
00000010
00000010
00001000
00000100
,
00000001
00000000
00001000
00010000
,
01000000
00000000
00100000
00001000
,
00000010
00000000
00000010
00001000
,
00000001
00001000
00000010
00000100
,
00000010
00010000
00001000
01000000
,
00100000
01000000
00100000
10000000
,
00010000
01000000
00001000
00010000
,
00000010
00000000
00000010
00000000
00000000
00000000
00000100
00000100
,
00000010
00010000
00001000
01000000
,
00010000
10000000
00100000
01000000
,
00100000
00010000
00001000
00000100
,
00000010
00000010
00000001
00001000
,
00000010
00001000
00010000
01000000
,
00100000
10000000
00010000
01000000
,
00100000
10000000
00100000
01000000
,
00010000
00010000
01000000
00001000
,
00010000
00000010
00001000
00000001
,
00000100
00000100
00000010
00001000
,
00000100
00010000
00001000
00100000
,
00010000
00000000
01000000
00000000
00100000
00000000
10000000
10000000
,
00010000
01000000
00001000
00010000
,
00000010
00001000
00000100
00001000
,
00000001
00000001
00000100
00000010
,
00001000
00000000
01000000
00010000
,
00000000
00000000
00000000
00000000
;

//---------------dance-double - ----------------
#NOTES:
     dance-double:
     :
     Medium:
     6:
     0.349060,0.482286,0.000000,0.000000,0.033019,259.000000,259.000000,0.000000,0.000000,0.000000,0.000000,0.349060,0.482286,0.000000,0.000000,0.033019,259.000000,259.000000,0.000000,0.000000,0.000000,0.000000:
00000000
00000000
00000000
00000000
,
00000000
00000000
00000000
00000000
,
00000000
00000000
00000000
00000000
,
10000000
01000000
00010000
00000000
00001000
00000000
00001000
00000000
,
00000010
00000000
00000001
00000000
00001000
00000100
00000001
00000000
,
00000100
00000000
00001000
00000000
00010000
00000000
01000000
00100000
,
10000000
00000000
00010000
00000000
01000000
00100000
10000000
00000000
,
00010000
01000000
00001000
00000100
,
00000010
00000000
00001000
00000000
00000001
00000001
00000100
00000001
,
00001000
00000000
00000010
00010000
00001000
01000000
00010000
01000000
,
00100000
00100000
10000000
10000000
,
00010000
00000000
01000000
00001000
00010000
00000000
00010000
00000010
,
00000100
00000000
00000100
00000000
00000001
00000000
00001000
00000010
,
00000100
00000000
00000000
00000000
00000010
00001000
00010000
00000000
,
01000000
00000000
00000000
00000000
01000000
00100000
01000000
00100000
,
10000000
10000000
00000000
00000000
00000000
00001000
00010000
00000000
,
00000010
00000000
00001000
00000000
00000010
00000010
00000100
00000001
,
00001000
00000010
00000100
00000000
00001000
00000001
00000100
00000100
,
00000010
00000000
00010000
00000000
00001000
00100000
00010000
00000000
,
01000000
00010000
10000000
00100000
,
01000000
00000000
01000000
00010000
10000000
00000000
10000000
00100000
,
01000000
00010000
01000000
00010000
10000000
00100000
10000000
00100000
,
01000000
00001000
01000000
00001000
00010000
00000000
00010000
00001000
,
00010000
00000010
00000100
00000010
00001000
00000000
00001000
00000001
,
00000100
00000000
00000010
00000000
00001000
00000000
00000000
00000000
00000001
00000000
00001000
00000001
00000000
00000000
00000000
00000000
,
00000100
00000000
00000000
00000000
00000100
00010000
01000000
00000000
,
01000000
00000000
00000000
00000000
01000000
00010000
00000100
00000000
,
00000001
00000000
00001000
00000000
,
00000010
00001000
00010000
01000000
,
00010000
00000000
01000000
00000000
00010000
01000000
10000000
01000000
,
00010000
00100000
00001000
00010000
,
00000100
00000000
00000100
00000000
00001000
00000100
00000001
00000100
,
00001000
00000010
00000100
00000001
,
00001000
00000000
00000100
00000000
00010000
00001000
00010000
00001000
,
01000000
00001000
00100000
00000000
00010000
00000000
00010000
00000000
,
10000000
00000000
00100000
00000000
01000000
00001000
01000000
00001000
,
00010000
00000010
00000100
00000001
00001000
00000000
00001000
00000010
,
00000100
00000001
00000100
00000000
00000010
00001000
00010000
00001000
,
00000010
00010000
01000000
01000000
,
00100000
10000000
00010000
01000000
00100000
00100000
10000000
00010000
,
01000000
00000000
01000000
00000000
00100000
00000000
00000000
00000000
10000000
00000000
00010000
10000000
00000000
00000000
00000000
00000000
,
00100000
00000000
00100000
00000000
00100000
00010000
00001000
00000010
,
00000100
00000000
00000100
00000000
00001000
00000001
00001000
00000000
,
00000010
00000000
00010000
00001000
00010000
00000000
01000000
01000000
,
10000000
00000000
10000000
00000000
10000000
00100000
01000000
00010000
,
01000000
00001000
00010000
00000010
00000100
00000100
00000001
00000001
,
00001000
00000000
00000100
00000000
00001000
00000000
00000010
00000000
00000100
00000001
00000100
00000001
00000100
00000001
00000100
00000001
,
00000100
00000000
00000000
00000010
00010000
00001000
01000000
00100000
,
10000000
00000000
00000000
00000000
10000000
00000000
00100000
00000000
01000000
00000000
00010000
10000000
00000000
00000000
00000000
00000000
,
00000000
00000000
00000000
00000000
;

//---------------dance-double - ----------------
#NOTES:
     dance-double:
     :
     Hard:
     8:
     0.533698,0.527540,0.000000,0.000000,0.646232,396.000000,396.000000,0.000000,0.000000,0.000000,0.000000,0.533698,0.527540,0.000000,0.000000,0.646232,396.000000,396.000000,0.000000,0.000000,0.000000,0.000000:
00000000
00000000
00000000
00000000
,
00000000
00000000
00000000
00000000
,
00000000
00000000
00000000
00000000
00000000
00000000
00000000
00000000
00100000
00000000
10000000
01000000
10000000
01000000
10000000
00000000
,
00010000
00000000
01000000
00000000
00010000
10000000
00000000
00000000
00010000
00100000
00010000
00100000
00010000
00000000
10000000
00000000
,
00000000
01000000
00000000
00010000
00000000
00001000
00000000
00000010
,
00000001
00000000
00001000
00000000
00000010
00000100
00000000
00000000
00001000
00000000
00010000
00000000
01000000
00000000
10000000
00000000
,
00010000
00000000
01000000
00000000
00100000
10000000
00000000
00000000
00010000
00000000
01000000
00000000
00001000
00000000
00010000
00000000
,
00000010
00000000
00000001
00000000
00000010
00001000
00000000
00000000
00000100
00000000
00001000
00000000
00000010
00000000
00000100
00000000
,
00001000
00000000
00010000
00000000
01000000
10000000
00000000
00000000
00010000
00000000
01000000
00000000
10000000
00000000
01000000
00000000
,
00100000
00000000
00010000
00000000
10000000
01000000
00000000
00000000
00010000
00000000
00001000
00000000
00000010
00000000
00000001
00000000
,
00001000
00000000
00001000
00000000
00000100
00010000
00000000
00000000
00001000
00000000
00100000
00000000
00001000
00000000
00000100
00000000
,
00000001
00000000
00000010
00000000
00000100
00001000
00000000
00000000
00000010
00000000
00010000
00000000
00001000
00000000
01000000
00000000
,
00100000
00000000
10000000
00000000
01000000
00100000
00000000
00000000
00010000
00000000
01000000
00000000
00001000
00000000
00000100
00000000
,
00000001
00000000
00000010
00000000
00000100
00001000
00000000
00000000
00000001
00000000
00000001
00000000
00000001
00000000
00000001
00000000
,
00000100
00000000
00000010
00000000
00001000
00000100
00000000
00000000
00010000
00000000
00010000
00000000
00010000
00000000
00010000
00000000
,
00001000
00000000
00100000
00000000
00010000
01000000
00000000
00000000
00100000
00000000
00100000
00000000
00100000
00000000
00100000
00000000
,
10000000
01000000
10000000
00000000
00010000
01000000
00010000
00000000
00100000
00001000
00010000
00001000
00010000
00001000
01000000
00000000
,
00010000
00000000
10000000
00000000
00100000
01000000
00000000
00000000
00010000
00000000
00100000
00000000
00001000
00000000
00010000
00001000
,
00010000
00000000
00000010
00000000
00001000
00000100
00000000
00000000
00000010
00000000
00000001
00000000
00000100
00000000
00000010
00000000
,
00001000
00000000
00000100
00000000
00010000
00001000
00000000
00000000
00100000
00000000
10000000
00000000
00100000
00000000
00010000
01000000
,
00010000
00000000
00100000
00000000
00001000
00010000
00000000
00000000
00000100
00000000
00000010
00000000
00000001
00000000
00001000
00000000
,
00000010
00000000
00000100
00000000
00000010
00000100
00000000
00000000
00001000
00000000
00010000
00000000
01000000
00000000
10000000
00010000
,
10000000
00000000
01000000
00000000
00100000
00010000
00000000
00000000
01000000
00000000
00001000
00000000
00010000
00000000
00000010
00000000
,
00001000
00000000
00000001
00000000
00000010
00000100
00000000
00000000
00001000
00000000
00000010
00000000
00000100
00000000
00000010
00001000
,
00000010
00000000
00010000
00000000
00001000
00010000
00000000
00000000
00000010
00000000
00000100
00000000
00001000
00000000
00010000
00000000
,
01000000
00000000
00000000
01000000
10000000
01000000
00000000
00100000
00000000
00001000
00000000
00010000
00000000
00000100
00000000
00000000
,
00000010
00000000
00000000
00000001
00000100
00000001
00000000
00000010
00000000
00001000
00000000
00010000
00000000
00100000
00000000
00000000
,
10000000
00000000
00000000
00010000
00100000
00010000
00000000
01000000
00000000
00001000
00000000
00010000
00000000
00000010
00000000
00000000
,
00000100
00000000
00000000
00000001
00000010
00000001
00000000
00001000
00000000
00000100
00000000
00010000
00000000
00001000
00000000
00000000
,
00100000
00000000
00000000
00010000
10000000
00010000
00000000
01000000
00000000
00100000
00000000
10000000
00000000
01000000
00000000
00000000
,
00100000
00000000
00000000
00001000
00010000
00001000
00000000
00000010
00000000
00000001
00000000
00000100
00000000
00000010
00000000
00000000
,
00001000
00000000
00000000
00000100
00000010
00000100
00000000
00001000
00000000
00000010
00000000
00010000
00000000
00001000
00000000
00000000
,
00100000
00010000
00000000
00000000
01000000
00100000
00000000
00000000
10000000
01000000
00000000
00000000
00010000
00001000
00000000
00000000
,
00000010
00000000
00000001
00000000
00000100
00000010
00000000
00000010
00000000
00001000
00000100
00001000
00000100
00001000
00000100
00000000
,
00010000
00000000
00001000
00000000
01000000
00100000
00000000
00100000
00000000
10000000
01000000
10000000
01000000
10000000
01000000
00000000
,
00100000
00000000
00010000
00000000
01000000
00001000
00000000
00001000
00000000
00100000
00010000
00100000
00010000
00100000
00010000
00000000
,
01000000
00000000
00001000
00000000
00010000
00000010
00000000
00000010
00000000
00001000
00000100
00001000
00000100
00001000
00000100
00000000
,
00000010
00000000
00000001
00000000
00000100
00000010
00000000
00000010
00000000
00001000
00000100
00010000
00000100
00001000
00000100
00000000
,
00010000
00000000
00001000
00000000
00100000
00010000
00000000
00010000
00000000
10000000
00100000
01000000
00100000
10000000
00100000
00000000
,
01000000
00000000
00010000
00000000
00100000
00001000
00000000
00001000
00000000
00010000
00000100
00001000
00000100
00010000
00000100
00000000
,
00001000
00000000
00000001
00000000
00000100
00000010
00000000
00000010
00000000
00001000
00000001
00000000
00000000
00000000
00000000
00000000
,
00000010
00000100
00000000
00000000
00010000
00001000
00000000
01000000
00000000
00100000
10000000
00000000
01000000
00000000
00000000
00000000
,
00100000
00010000
00000000
00000000
01000000
00001000
00000000
00010000
00000000
00000010
00001000
00000000
00000100
00000000
00000000
00000000
,
00000010
00000001
00000000
00000000
00000100
00000010
00000000
00001000
00000000
00000100
00010000
00000000
00001000
00000000
00000000
00000000
,
00100000
00010000
00000000
00000000
10000000
00100000
00000000
00000000
01000000
00000000
00010000
00000000
00100000
00000000
01000000
00000000
,
00010000
00000000
00001000
00000000
00000100
00000001
00000000
00000000
00000010
00000000
00000100
00001000
00000000
00000000
00000000
00000000
,
00000010
00000000
00010000
00000000
00001000
01000000
00000000
00000000
00100000
00000000
10000000
00000000
01000000
00000000
00100000
00000000
,
00001000
00000000
00000100
00000000
00000001
00000010
00000100
00000000
,
00001000
00000000
00000010
00000000
00010000
00001000
00000000
00100000
00000000
00010000
10000000
00000000
00000000
00000000
00000000
00000000
,
00000000
00000000
00000000
00000000
;

//---------------dance-single - ----------------
#NOTES:
     dance-single:
     :
     Challenge:
     15:
     0.814024,0.757879,0.000000,0.000000,1.169822,604.000000,604.000000,0.000000,0.000000,0.000000,0.000000,0.814024,0.757879,0.000000,0.000000,1.169822,604.000000,604.000000,0.000000,0.000000,0.000000,0.000000:
// measure 0
0000
0000
0000
0000
,  // measure 1
0000
0000
0000
0000
,  // measure 2
0000
0000
0000
0000
,  // measure 3
0010
0000
0001
0000
1000
0010
1000
0001
0100
0000
0010
1000
0001
1000
0100
0000
,  // measure 4
0010
0001
0010
0001
0100
0010
0100
0010
1000
0100
1000
0100
1000
0000
0001
0000
,  // measure 5
1000
0000
0010
0000
0001
0100
0001
0010
0100
1000
0100
0010
0100
0000
1000
0010
,  // measure 6
0100
0000
1000
0000
0001
0010
0001
0100
0001
1000
0001
0100
0001
0000
0100
1000
,  // measure 7
0001
0000
1000
0000
0010
0100
0001
0100
0010
1000
0100
0010
0001
0000
1000
0001
,  // measure 8
0100
0000
0010
0000
1000
1000
0100
0100
1000
0100
1000
0010
0100
0000
0100
0000
,  // measure 9
0001
0000
0010
0000
0001
0010
0001
0100
0010
1000
0100
1000
0001
0000
1000
0001
,  // measure 10
1000
0000
0100
0000
1000
0010
0100
0001
1000
0100
0010
0001
1000
0000
0001
0010
,  // measure 11
0100
0000
1000
0000
0010
0100
0010
0100
0001
0010
0001
0010
0100
0000
1000
0100
,  // measure 12
0010
0000
0001
0000
1000
0010
1000
0010
0100
0001
0100
0001
0010
0000
0001
0000
,  // measure 13
1000
0000
0100
0000
1000
0100
1000
0100
0010
0001
0010
0001
1000
0000
0001
0000
,  // measure 14
0100
0000
0001
0000
1000
0001
1000
0001
0100
0010
0100
0010
1000
0000
0010
1000
,  // measure 15
0001
0000
0010
0001
0010
0001
0100
0010
0100
0010
1000
0100
1000
0000
0001
1000
,  // measure 16
0001
1000
0100
0010
0001
0100
0010
1000
0100
1000
0100
1000
0010
0100
0010
0100
,  // measure 17
0001
0000
1000
0000
0010
0100
1000
0001
0010
0100
1000
0001
1000
0000
0001
0100
,  // measure 18
0010
0000
1000
0000
0010
1000
0100
0010
0001
1000
0010
0100
0001
0000
1000
0010
,  // measure 19
0100
0000
0001
0000
1000
0100
0010
0001
0100
0010
1000
0001
0010
0000
0100
0000
,  // measure 20
1000
0000
0010
0000
0100
0001
0010
0001
0100
0010
1000
0010
0100
0000
1000
0100
,  // measure 21
1000
0000
0001
0000
1000
0010
0100
0001
1000
0001
0010
0100
1000
0000
0001
1000
,  // measure 22
0001
0000
1000
0000
0001
0010
0100
1000
0001
0100
0010
1000
0100
0000
1000
0100
,  // measure 23
0010
0000
0001
0000
0100
0100
0010
0010
0100
0010
0100
0010
0100
0000
0010
0100
,  // measure 24
1000
0000
0100
0000
0010
0010
0100
0100
0010
0100
0010
0100
0010
0000
0100
0010
,  // measure 25
0001
0000
0010
0000
0001
0000
1000
0000
0001
0000
0100
0000
0001
0010
0100
1000
,  // measure 26
0010
0000
0001
0000
0010
0000
0100
0000
0010
0000
1000
0000
0010
0001
0100
0010
,  // measure 27
1000
0000
0100
0000
1000
0000
0010
0000
1000
0000
0001
0000
1000
0100
0010
0001
,  // measure 28
0100
0000
1000
0000
0100
0000
0010
0000
0100
0000
0001
0000
0100
0010
1000
0001
,  // measure 29
0010
0000
0001
0010
0000
0100
0010
0000
0100
1000
0000
0010
0100
0000
0001
1000
,  // measure 30
0001
0000
1000
0010
0000
0100
0001
0000
1000
0100
0000
0010
0001
0000
0100
0001
,  // measure 31
0100
0000
0001
0010
0000
0001
0100
0000
0010
1000
0000
0100
1000
0000
0100
1000
,  // measure 32
0100
1000
1000
0100
1000
1000
0100
1000
1000
0100
1000
1000
0100
1000
1000
0100
,  // measure 33
1000
0010
0100
0001
1000
0000
0001
0010
0100
1000
0001
0100
0010
0000
1000
0100
,  // measure 34
0010
0001
0100
0010
1000
0000
0001
0100
0010
1000
0100
0010
0001
0000
1000
0001
,  // measure 35
0100
0010
1000
0001
0010
0000
0001
0010
0100
1000
0001
0100
0010
0000
0100
1000
,  // measure 36
0010
0100
0001
0010
0001
0000
0100
0010
1000
0100
0010
0001
0100
0000
0001
1000
,  // measure 37
0001
1000
0010
0100
1000
0000
0100
1000
0010
0100
0001
0010
0001
0000
1000
0001
,  // measure 38
1000
0001
0100
0010
1000
0100
1000
0010
0100
0001
0100
0001
0010
0001
0010
0001
,  // measure 39
1000
0001
0100
0001
0010
0001
0100
0001
1000
0001
0100
0001
0010
0001
0100
0010
,  // measure 40
1000
0001
0001
1000
0001
0001
1000
0001
0001
1000
0001
0001
0000
0000
0001
1000
,  // measure 41
0001
1000
0100
0010
0001
0100
0010
1000
0001
0010
0100
1000
0001
0100
0010
0100
,  // measure 42
0010
1000
0001
1000
0100
0010
0001
0100
0010
1000
0001
0010
0100
1000
0001
0100
,  // measure 43
0010
0001
0100
0010
1000
0001
0100
0010
1000
0001
0010
0100
1000
0001
0100
0010
,  // measure 44
1000
0100
0000
0000
1000
0100
0000
0000
0010
0001
0000
0000
0010
0001
0010
0001
,  // measure 45
0100
0000
0001
0000
1000
0001
1000
0001
0100
0001
1000
0001
0100
0000
0001
1000
,  // measure 46
0100
0000
0010
0000
0001
0001
0010
0010
0100
0100
1000
1000
0001
1000
0100
0010
,  // measure 47
0001
1000
0010
0100
0001
1000
0100
0010
0001
0100
0010
1000
0001
0010
0100
1000
,  // measure 48
0100
1000
0100
1000
0010
0100
0010
0100
0001
0010
0001
0010
0000
0000
0000
0000
;
