#VERSION:0.83;
#TITLE:ROSE;
#SUBTITLE:;
#ARTIST:FIN.K.L;
#TITLETRANSLIT:;
#SUBTITLETRANSLIT:;
#ARTISTTRANSLIT:;
#GENRE:;
#ORIGIN:;
#CREDIT:;
#BANNER:ROSE.png;
#BACKGROUND:ROSE-bg.png;
#PREVIEWVID:;
#JACKET:ROSE-jacket.png;
#CDIMAGE:;
#DISCIMAGE:;
#LYRICSPATH:;
#CDTITLE:;
#MUSIC:ROSE.mp3;
#OFFSET:1.969000;
#SAMPLESTART:51.936001;
#SAMPLELENGTH:15.000000;
#SELECTABLE:YES;
#BPMS:0.000=120.020;
#STOPS:;
#DELAYS:;
#WARPS:;
#TIMESIGNATURES:0.000=4=4;
#TICKCOUNTS:0.000=4;
#COMBOS:0.000=1;
#SPEEDS:0.000=1.000=0.000=0;
#SCROLLS:0.000=1.000;
#FAKES:;
#LABELS:0.000=Song Start;
#BGCHANGES:;
#KEYSOUNDS:;
#ATTACKS:
;

//---------------dance-single - ----------------
#NOTEDATA:;
#CHARTNAME:;
#STEPSTYPE:dance-single;
#DESCRIPTION:;
#CHARTSTYLE:;
#DIFFICULTY:Easy;
#METER:5;
#RADARVALUES:0.289688,0.297523,0.210538,0.011081,0.000000,183.000000,164.000000,19.000000,1.000000,0.000000,0.000000,0.000000,0.000000,0.000000,0.289688,0.297523,0.210538,0.011081,0.000000,183.000000,164.000000,19.000000,1.000000,0.000000,0.000000,0.000000,0.000000,0.000000;
#CREDIT:;
#NOTES:
0000
0000
0000
0000
,
0000
0000
0000
0000
,
0000
0000
0000
0000
,
0000
0000
0000
0000
,
1001
0100
0001
1000
,
0100
0001
0100
0000
,
1000
0001
1000
0001
,
1000
1000
0001
0001
,
1000
0001
1000
0100
,
0110
1000
0001
0100
,
0001
0001
1000
1100
,
0010
0010
0100
0100
,
0001
1000
0100
0001
,
0100
1000
0001
0001
,
1000
1000
0110
1001
,
0100
0100
0001
0001
,
1000
0001
0100
0100
,
0010
0010
0100
0100
,
0110
1000
0100
0001
,
1000
0100
0001
1000
,
0001
0001
1000
1000
,
0110
1000
0001
0100
,
0001
0001
1000
1000
,
0100
0001
0100
1000
,
0001
0001
1000
1000
,
0010
1000
0100
0001
,
0100
0100
0001
1001
,
1000
1000
0001
0101
,
0001
0001
0010
1001
,
0100
0010
1000
0001
,
1000
1000
0001
0100
,
0110
0110
1000
1100
,
0001
0001
0010
0100
,
0001
0001
1000
1000
,
0010
1000
0001
0100
,
1000
1000
0001
0001
,
1000
1000
0001
0001
,
1000
0001
0100
0010
,
0100
0100
0010
1001
,
0010
0010
0100
1001
,
0100
0100
0010
1001
,
0010
0010
0100
1001
,
0010
0100
0001
1000
,
0010
0100
1001
0001
,
1000
0001
1000
0002
0000
0003
0110
0000
;

//---------------dance-single - ----------------
#NOTEDATA:;
#CHARTNAME:;
#STEPSTYPE:dance-single;
#DESCRIPTION:;
#CHARTSTYLE:;
#DIFFICULTY:Medium;
#METER:7;
#RADARVALUES:0.365671,0.396698,0.277024,0.011081,0.000000,231.000000,206.000000,25.000000,1.000000,0.000000,0.000000,0.000000,0.000000,0.000000,0.365671,0.396698,0.277024,0.011081,0.000000,231.000000,206.000000,25.000000,1.000000,0.000000,0.000000,0.000000,0.000000,0.000000;
#CREDIT:;
#NOTES:
0000
0000
0000
0000
,
0000
0000
0000
0000
,
0000
0000
0000
0000
,
0000
0000
0000
0000
,
0010
0000
1000
0000
0001
0100
1000
0000
,
0100
0000
0001
0000
0010
0001
0100
0000
,
0001
0001
1000
1000
,
0010
1000
0100
0000
0010
0001
0100
0000
,
0010
1000
0100
0000
0010
0001
0100
0000
,
0001
0000
1000
0000
0001
1000
0100
0000
,
1000
0000
0001
0000
1000
0001
0100
0000
,
0001
0001
1000
1000
,
0010
1000
0100
0000
0010
1000
0100
0000
,
0010
0001
0100
0000
0010
0001
0100
0000
,
0010
1001
0110
1001
,
0010
1000
0100
0000
1000
0001
0100
0000
,
0110
1001
0110
1001
,
0010
0010
1000
0001
,
1000
0100
0001
0000
1000
0100
0001
0000
,
1000
1000
0001
0001
,
0001
0100
1000
0000
0001
0100
1000
0000
,
0001
0001
1000
1000
,
0001
1000
0001
0000
1000
0001
1000
0000
,
0001
0001
1000
1000
,
0001
0100
0001
0000
0010
0001
0100
0000
,
0001
0100
1000
0000
0100
0010
1000
0000
,
0010
0010
0010
0000
1001
0000
0110
0000
,
1000
1000
1000
0000
0110
0000
0001
0000
,
0100
0100
0100
0000
1001
0000
0010
0000
,
0001
0001
0001
0000
0110
0000
1000
0000
,
0001
0001
0001
0000
1000
1000
1000
0000
,
0001
1000
0001
1000
0000
0001
0100
0100
,
1000
0001
1000
0001
0000
1000
0100
0100
,
0000
0100
0010
0001
,
1000
0010
1000
0100
0000
1000
0001
0000
,
1000
1000
0001
0001
,
0110
1001
0110
1001
,
0010
1000
0001
0100
,
0001
0010
0001
0100
0000
0001
1000
0000
,
0010
0010
0100
0100
,
0001
1000
0001
1000
,
0110
1001
0110
1001
,
0010
0001
0100
0001
0000
1000
0100
0000
,
0110
1001
0110
1001
,
0010
1000
0100
0020
0000
0030
1001
0000
;

//---------------dance-single - ----------------
#NOTEDATA:;
#CHARTNAME:;
#STEPSTYPE:dance-single;
#DESCRIPTION:;
#CHARTSTYLE:;
#DIFFICULTY:Hard;
#METER:11;
#RADARVALUES:0.460651,0.595047,0.565128,0.011081,0.000000,291.000000,240.000000,51.000000,1.000000,0.000000,0.000000,0.000000,0.000000,0.000000,0.460651,0.595047,0.565128,0.011081,0.000000,291.000000,240.000000,51.000000,1.000000,0.000000,0.000000,0.000000,0.000000,0.000000;
#CREDIT:;
#NOTES:
0000
0000
0000
0000
,
0000
0000
0000
0000
,
0000
0000
0000
0000
,
0000
0000
0000
0000
,
1001
0000
0100
1000
0000
0001
1000
0001
,
1000
1000
1000
0110
0000
0000
0000
0000
,
1001
0110
1100
0101
,
0001
0000
0001
1000
0000
0001
0100
1000
,
0100
0001
1000
0100
0000
1000
0001
0100
,
0010
0000
0010
1000
0000
0001
0000
1000
,
0010
1000
0001
1000
0000
0000
0001
0000
,
0110
0001
1000
0001
,
1100
0110
0101
0110
,
1001
0000
1001
0000
0010
1000
0101
0000
,
1000
1000
1000
0000
0001
0001
0001
0000
,
1001
0000
1001
0000
0010
0001
1100
0000
,
0001
0001
0001
0000
1000
1000
1000
0000
,
0010
1000
0100
0001
0100
1000
0001
0100
,
1000
0100
0001
1000
0100
0010
0001
1000
,
0001
1000
0001
1000
0010
0010
0010
0000
,
1000
0001
1000
0001
0010
0010
0010
0000
,
1001
1100
1001
0101
,
0010
0000
1000
0000
0001
1000
0001
0000
,
0010
0010
1000
0000
0010
0010
0001
0000
,
1000
0100
0101
0000
0010
0001
0101
0000
,
0010
0010
1000
0000
0001
0001
0100
0000
,
1000
1000
0000
0001
0000
1000
0001
0100
,
0001
0001
0001
1000
0000
0010
1000
0001
,
0100
0100
0100
1000
0000
0001
1000
0100
,
1100
1100
1100
1100
0011
0011
0011
0011
,
0001
1000
0010
0100
0000
0001
1000
0001
,
1000
1000
1000
0100
0001
0001
0001
0110
,
0010
0100
0001
1000
0100
0010
0100
0000
,
1001
0000
0100
0000
0010
0100
0010
0100
,
0001
1000
0001
0100
0000
0010
1001
0000
,
0110
0110
1100
0101
,
1001
0011
1001
1010
,
1001
0000
0010
0100
0000
0001
1000
0000
,
0010
0010
1000
0001
0000
1000
0100
0000
,
1001
0000
0100
0010
0000
1000
0001
0100
,
0010
0010
1000
0001
0000
1000
0001
0100
,
0110
0000
1001
0100
0000
1000
0000
0001
,
0010
0010
1001
0100
0000
0001
1000
0100
,
0110
0000
1001
0100
0000
0001
0000
1000
,
0010
0010
1001
0200
0000
0300
1001
0000
;

//---------------dance-double - ----------------
#NOTEDATA:;
#CHARTNAME:;
#STEPSTYPE:dance-double;
#DESCRIPTION:;
#CHARTSTYLE:;
#DIFFICULTY:Easy;
#METER:5;
#RADARVALUES:0.283356,0.322317,0.166214,0.011081,0.000000,179.000000,164.000000,15.000000,1.000000,0.000000,0.000000,0.000000,0.000000,0.000000,0.283356,0.322317,0.166214,0.011081,0.000000,179.000000,164.000000,15.000000,1.000000,0.000000,0.000000,0.000000,0.000000,0.000000;
#CREDIT:;
#NOTES:
00000000
00000000
00000000
00000000
,
00000000
00000000
00000000
00000000
,
00000000
00000000
00000000
00000000
,
00000000
00000000
00000000
00000000
,
00001000
00010000
00001000
00010000
,
00001000
00001000
00000100
00000001
,
00001000
00001000
00000001
00000001
,
00000110
00001000
00010000
01000000
,
10000000
00010000
00010000
10000000
,
01100000
00010000
00001000
00011000
,
00000100
00000001
00001000
00000100
,
00010000
00010000
00001000
00001000
,
00010000
01000000
10000000
00010000
,
01000000
00100000
00010000
00001000
,
00010000
00001000
00000100
00000001
,
00000010
00001000
00010000
00001000
,
00010000
01000000
10000000
00100000
,
00010000
00001000
00010000
00001000
,
00010000
00010000
00010000
00010000
,
00011000
00000100
00000001
00001000
,
00001001
00000100
00001000
00011000
,
01000000
10000000
00010000
10000000
,
10010000
01000000
00010000
00011000
,
00001000
00001000
00001000
00001000
,
00010000
00010000
00010000
00010000
,
00011000
00000110
00000001
00001000
,
00000010
00000010
00000010
00000010
,
00001000
00000001
00001000
00000100
,
00010000
00001000
01000000
00010000
,
10000000
10000000
10000000
10000000
,
00100000
00100000
10000000
01000000
,
00010000
00001000
00000100
00000001
,
00000010
00000010
00000001
00001000
,
00000100
00000100
00000100
00000100
,
00010000
00001000
00010000
00011000
,
00000010
00000010
00001000
00000100
,
00010000
00010000
00001000
01000000
,
00100000
00100000
10000000
01000000
,
00010000
00001000
00010000
01000000
,
10000000
10000000
00100000
00010000
,
00001000
00001000
00010000
00001000
,
00000100
00000001
00001000
00000100
,
00010000
00001000
00010000
01000000
,
10000000
00010000
10000000
01100000
,
00011000
00000000
00000110
00000020
00000030
00000000
00001001
00000000
;

//---------------dance-double - ----------------
#NOTEDATA:;
#CHARTNAME:;
#STEPSTYPE:dance-double;
#DESCRIPTION:;
#CHARTSTYLE:;
#DIFFICULTY:Medium;
#METER:9;
#RADARVALUES:0.362505,0.371904,0.265943,0.011081,0.000000,229.000000,205.000000,24.000000,1.000000,0.000000,0.000000,0.000000,0.000000,0.000000,0.362505,0.371904,0.265943,0.011081,0.000000,229.000000,205.000000,24.000000,1.000000,0.000000,0.000000,0.000000,0.000000,0.000000;
#CREDIT:;
#NOTES:
00000000
00000000
00000000
00000000
,
00000000
00000000
00000000
00000000
,
00000000
00000000
00000000
00000000
,
00000000
00000000
00000000
00000000
,
00011000
00000000
00100000
00000000
10000000
01000000
00010000
00000000
,
00011000
00000000
00000010
00000000
00000001
00000100
00001000
00000000
,
00010000
00010000
00001000
00001000
,
00011000
00000000
01000000
00000000
10000000
00010000
01000000
00000000
,
01100000
00000000
00010000
00000000
00001000
00010000
00001000
00000000
,
00011000
00000000
00000100
00000000
00000001
00001000
00000100
00000000
,
00010000
00010000
00001000
00010000
00000000
00000000
00011000
00000000
,
00100000
00100000
10000000
10000000
,
00100000
00010000
00001000
00000000
00010000
00001000
00000100
00000000
,
00000001
00000001
00001000
00000001
,
00000010
00001000
00010000
00000000
00001000
00010000
01000000
00000000
,
10000000
00000000
10000000
00000000
00010000
10000000
00010000
00000000
,
01100000
10010000
01000000
00010000
,
00001000
00010000
00001000
00000100
,
00001001
00000110
00001000
00000100
,
00010000
00001000
00010000
00001000
00010000
00000000
00001000
00000000
,
00010000
00000000
01000000
00000000
10000000
00100000
00010000
00000000
,
00100000
10000000
01000000
00000000
10000000
00000000
10000000
00000000
,
00010000
00000000
00010000
00000000
10000000
01000000
00010000
00001000
,
00010000
00001000
00001000
00001000
,
00001000
00000100
00000001
00000000
00000010
00000001
00000100
00000000
,
00001000
00000100
00000001
00001000
00000100
00010000
00001000
00000000
,
00010000
00010000
00010000
00000000
00011000
00000000
00100000
00000000
,
10000000
10000000
10000000
00000000
01100000
00000000
00010000
00000000
,
00001000
00001000
00001000
00000000
00011000
00000000
00000010
00000000
,
00000001
00000001
00000001
00000000
00000110
00000000
00001000
00000000
,
00000100
00000100
00000100
00000000
00010000
00001000
00010000
00000000
,
00001000
00010000
01000000
10000000
00000000
00010000
10000000
01000000
,
00010000
00001000
00000100
00000001
00000000
00001000
00000100
00000100
,
00001000
00000100
00000010
00000001
,
00000010
00001000
00010000
00001000
00000000
00010000
00001000
00000000
,
00010000
00010000
01000000
10000000
,
01100000
10010000
01100000
10010000
,
00100000
00010000
00001000
00000010
,
00000001
00001000
00000001
00000100
00000000
00000010
00001000
00000000
,
00000100
00000100
00010000
00001000
,
00010000
00001000
00010000
01000000
,
10010000
01100000
10010000
00100000
,
00010000
00001000
00010000
01000000
00000000
10000000
00010000
00000000
,
00100000
00011000
00000100
00001001
,
00000010
00001000
00010000
00002000
00003000
00000000
00011000
00000000
;

//---------------dance-double - ----------------
#NOTEDATA:;
#CHARTNAME:;
#STEPSTYPE:dance-double;
#DESCRIPTION:;
#CHARTSTYLE:;
#DIFFICULTY:Hard;
#METER:12;
#RADARVALUES:0.430574,0.421491,0.365671,0.011081,0.000000,272.000000,239.000000,33.000000,1.000000,0.000000,0.000000,0.000000,0.000000,0.000000,0.430574,0.421491,0.365671,0.011081,0.000000,272.000000,239.000000,33.000000,1.000000,0.000000,0.000000,0.000000,0.000000,0.000000;
#CREDIT:;
#NOTES:
00000000
00000000
00000000
00000000
,
00000000
00000000
00000000
00000000
,
00000000
00000000
00000000
00000000
,
00000000
00000000
00000000
00000000
,
10010000
00000000
01000000
00010000
00000000
00100000
00010000
01000000
,
00001000
00010000
00000100
00000110
00000000
00000000
00000000
00000000
,
00000110
00001001
00000101
00001100
,
00000010
00000000
00001000
00010000
00000000
00001000
00010000
00000000
,
01000000
10000000
00010000
10000000
00000000
00100000
00010000
00001000
,
00010000
00000000
00001000
00010000
00000000
00001000
00000000
00010000
,
00001000
00100000
00010000
00001000
00000000
00000000
00010000
00000000
,
00011000
00001000
00000100
00000001
,
00000110
00011000
01100000
10010000
,
01100000
00000000
01100000
00000000
00100000
00010000
00001000
00000000
,
00010000
00010000
00001000
00000000
00001000
00001000
00010000
00000000
,
00011000
00000000
00011000
00000000
00001000
00000100
00001001
00000000
,
00000010
00000010
00000010
00000000
00001000
00001000
00000001
00000000
,
00000010
00001000
00010000
00100000
00010000
00001000
00010000
01000000
,
10000000
00100000
00010000
00100000
10000000
00010000
00100000
00010000
,
10000000
00100000
00010000
00001000
00010000
00010000
00010000
00000000
,
00001000
00010000
00001000
00000100
00000001
00000001
00000001
00000000
,
00000110
00001100
00011000
01010000
,
00100000
00000000
10000000
00000000
00100000
00010000
00001000
00000000
,
00010000
00010000
00001000
00000000
00010000
00001000
00000100
00000000
,
00000001
00001000
00000100
00000010
00000001
00000100
00000001
00000000
,
00000010
00000010
00001000
00000000
00010000
00001000
00010000
00000000
,
01000000
01000000
00000000
10000000
00000000
00010000
10000000
01000000
,
00100000
00100000
00100000
00010000
00000000
10000000
00100000
00010000
,
00001000
00001000
00001000
00010000
00000000
00001000
00000100
00000000
,
00000001
00000001
00000001
00001000
00000010
00000010
00000010
00001000
,
00000100
00010000
00001000
00010000
00000000
01000000
10000000
00100000
,
10000000
00010000
10000000
01000000
00100000
00100000
00100000
00010000
,
01000000
00100000
10000000
00100000
00010000
00001000
00010000
00000000
,
00011000
00000000
00000100
00000000
00000001
00001000
00000100
00001000
,
00000010
00001000
00000100
00010000
00000000
00001000
00011000
00000000
,
01100000
10010000
01010000
00011000
,
00001100
00001001
00000010
00001001
,
00000110
00000000
00001000
00010000
00000000
00001000
00010000
00000000
,
00100000
00100000
10000000
01000000
00000000
00010000
00001000
00000000
,
00011000
00000000
00000100
00000010
00000000
00001000
00000100
00010000
,
00001000
01000000
00010000
10000000
00000000
00100000
00010000
01000000
,
01000000
00000000
00100000
00010000
00000000
00001000
00000000
00000010
,
00000001
00000001
00001000
00000100
00000000
00010000
00001000
00010000
,
00011000
00000000
00010000
01000000
00000000
00100000
00000000
00001000
,
00010000
00001000
00000100
00000002
00000003
00000000
00011000
00000000
;

//---------------dance-single - ----------------
#NOTEDATA:;
#CHARTNAME:;
#STEPSTYPE:dance-single;
#DESCRIPTION:;
#CHARTSTYLE:;
#DIFFICULTY:Beginner;
#METER:3;
#RADARVALUES:0.167797,0.198349,0.022162,0.099729,0.000000,106.000000,104.000000,2.000000,9.000000,0.000000,0.000000,0.000000,0.000000,0.000000,0.167797,0.198349,0.022162,0.099729,0.000000,106.000000,104.000000,2.000000,9.000000,0.000000,0.000000,0.000000,0.000000,0.000000;
#CREDIT:;
#NOTES:
0000
0000
0000
0000
,
0000
0000
0000
0000
,
0000
0000
0000
0000
,
0001
0000
0001
0000
,
1000
0000
1000
0000
,
0020
0000
0000
0030
0000
0000
0000
0000
,
0010
0010
0010
0010
,
1000
0001
1000
0000
,
0001
1000
0001
0000
,
0100
0010
0100
0000
,
0010
0010
0020
0030
,
0100
0000
0000
0100
,
0100
0010
0100
0010
,
1000
0000
1000
0000
,
0100
0000
0100
0000
,
1000
0000
1000
0000
,
0010
0000
0010
0000
,
0100
0000
0100
0000
,
0001
0000
0001
0000
,
0010
0000
0001
0000
,
1000
0000
0100
0000
,
1000
0000
0010
0000
,
0100
0000
0001
0000
,
1000
0000
0001
0000
,
0010
0000
0100
0000
,
1000
0000
0100
0000
,
0020
0000
0000
0030
0000
0000
0100
0000
,
0001
0100
0001
0000
,
1000
0100
1000
0000
,
0010
0100
0010
0000
,
1000
0001
1000
0000
,
0001
0010
0100
0000
,
0010
0100
1000
0000
,
1000
0010
0100
0000
,
0010
0100
0002
0003
,
2000
0000
0000
3000
0000
0000
0001
0000
,
0100
1000
0100
0000
,
0020
0000
0000
0030
0000
0000
0001
0000
,
1000
0100
1000
0000
,
0200
0000
0000
0300
0000
0000
1000
0000
,
0001
0100
0001
0000
,
0002
0000
0000
0003
0000
0000
1000
0000
,
0001
0010
0100
0000
,
1100
0000
0101
0000
,
0100
0010
0200
0300
;

//---------------dance-single - ----------------
#NOTEDATA:;
#CHARTNAME:;
#STEPSTYPE:dance-single;
#DESCRIPTION:;
#CHARTSTYLE:;
#DIFFICULTY:Challenge;
#METER:16;
#RADARVALUES:0.645861,0.695514,0.177295,0.277024,0.609452,408.000000,392.000000,16.000000,25.000000,0.000000,0.000000,0.000000,0.000000,0.000000,0.645861,0.695514,0.177295,0.277024,0.609452,408.000000,392.000000,16.000000,25.000000,0.000000,0.000000,0.000000,0.000000,0.000000;
#CREDIT:;
#NOTES:
// measure 0
0000
0000
0000
0000
,  // measure 1
0000
0000
0000
0000
,  // measure 2
0000
0000
0000
0000
,  // measure 3
0022
0030
0100
0200
0000
0000
0303
0000
,  // measure 4
2200
0300
0010
0020
0000
0000
3030
0000
,  // measure 5
0001
0100
0001
0100
0000
0000
0000
0000
,  // measure 6
0100
0000
0100
0010
0000
0000
0010
0000
0010
0100
0000
0000
0100
0000
0100
0001
0000
0000
0001
0000
0001
1000
0000
1000
,  // measure 7
0002
0000
0013
0001
0000
1001
0000
1000
,  // measure 8
0100
0000
0100
0010
0000
0010
0001
0000
0001
0020
0000
0000
0001
0000
0000
0031
0000
0000
0100
0000
0000
0000
0000
0000
,  // measure 9
0102
0000
1003
0001
0000
1001
0000
0001
,  // measure 10
0010
0000
0010
0100
0000
0100
1000
0000
1000
0200
0000
0000
1000
0000
0000
1300
0000
0000
0100
0000
0000
0000
0000
0000
,  // measure 11
1100
0000
0000
1000
0000
1000
0100
0000
0000
1000
0000
1000
0001
0000
0000
0000
0000
0000
0101
0000
0000
0100
0000
0100
,  // measure 12
0010
0000
0000
1000
0000
0000
0001
0000
0000
0100
0000
0000
0010
0000
0000
1000
0000
0000
0001
0000
0000
1000
0000
1000
,  // measure 13
0001
0010
0100
1000
0001
0100
0010
0100
,  // measure 14
0001
0000
0000
0001
0000
0001
0010
0000
0000
0010
0000
0010
0100
0000
0000
0100
0000
0100
1000
0000
0000
1000
0000
0000
,  // measure 15
0100
0000
0000
1000
0000
0000
0001
0000
0000
0100
0000
0000
0010
0000
0000
1000
0000
0000
0001
0000
0000
0010
0000
0010
,  // measure 16
0001
0000
0000
1000
0000
0000
0010
0000
0000
0100
0000
0000
0001
0000
0000
1000
0000
0000
0100
0000
0000
0010
0000
0010
,  // measure 17
0001
0001
1000
0100
0010
0100
1000
0001
,  // measure 18
0100
0010
0100
0001
1000
0001
0010
0001
,  // measure 19
2000
3020
0230
0302
0003
0001
1000
0020
,  // measure 20
0000
0130
0001
0010
0100
1000
0001
0100
,  // measure 21
0010
0000
0010
1000
0000
1000
0001
0000
0001
0100
0000
0100
0001
0000
0001
1000
0000
1000
0001
0000
0000
1000
0000
1000
,  // measure 22
0001
0000
0001
0100
0000
0100
0010
0000
0010
0100
0000
0100
0001
0000
0000
0010
0000
0000
0100
0000
0000
1000
0000
0000
,  // measure 23
0000
0001
1001
1000
0000
1000
0100
0000
,  // measure 24
1001
0001
0100
0010
0100
0001
1000
0100
,  // measure 25
0000
0010
0010
0100
0100
1000
1000
0001
,  // measure 26
0100
0010
0000
0110
0000
0200
0002
0303
,  // measure 27
0001
0000
0001
0010
0000
0010
0100
0000
0100
1000
0000
0000
0000
0000
0000
1000
0000
1000
0010
0000
0010
0100
0000
0100
,  // measure 28
0001
0000
0001
1000
0000
1000
0001
0000
0001
1000
0000
0000
0000
0000
0000
1000
0000
0000
1100
0000
0000
0000
0000
0000
,  // measure 29
1000
0000
1000
0010
0000
0010
0100
0000
0100
0001
0000
0001
1000
0000
1000
0001
0000
0000
0000
0000
0000
0001
0000
0000
,  // measure 30
0001
0000
0001
0010
0000
0010
0100
0000
0100
1000
0000
0000
0002
0000
0000
0100
0000
0000
0200
0000
0000
0303
0000
0000
,  // measure 31
0100
0000
0100
0010
0000
0010
1000
0000
1000
0001
0000
0000
0000
0000
0000
0001
0000
0001
0010
0000
0010
0100
0000
0100
,  // measure 32
1000
0000
1000
0001
0000
0001
1000
0000
1000
0001
0000
0000
0000
0000
0000
0001
0000
0000
0101
0000
0000
0000
0000
0000
,  // measure 33
1000
0000
1000
0010
0000
0010
0100
0000
0100
0001
0000
0001
1000
0000
1000
0001
0000
0000
0000
0000
0000
0001
0000
0001
,  // measure 34
1000
0000
1000
0010
0000
0010
0100
0000
0100
0001
0000
0001
1000
0000
0000
0002
0000
0000
2000
0000
0000
3003
0000
0000
,  // measure 35
1000
0000
1000
0100
0000
0100
1000
0000
1000
0010
0000
0010
1000
0000
1000
0001
0000
0001
1000
0000
0000
0001
0000
0000
,  // measure 36
0010
0000
0010
0001
0000
0001
0100
0000
0100
0010
0000
0000
0000
0000
0000
0001
0000
0000
0101
0000
0000
0000
0000
0000
,  // measure 37
0001
0000
0001
0010
0000
0010
0001
0000
0001
0100
0000
0100
0001
0000
0001
1000
0000
1000
0001
0000
0000
1000
0000
0000
,  // measure 38
0100
0000
0100
1000
0000
1000
0100
0000
0100
0010
0000
0000
0000
0000
0000
0010
0000
0000
0110
0000
0000
0000
0000
0000
,  // measure 39
0100
0000
0100
1000
0000
1000
0001
0000
0001
0100
0000
0100
0010
0000
0010
1000
0000
1000
0001
0000
0000
1000
0000
1000
,  // measure 40
0010
0000
0010
0100
0000
0100
0001
0000
0001
1000
0000
0000
0000
0000
0000
1000
0000
0000
1100
0000
0000
0000
0000
0000
,  // measure 41
1000
0000
1000
0100
0000
0100
0010
0000
0010
0001
0000
0001
0010
0000
0010
0100
0000
0100
1000
0000
0000
0100
0000
0000
,  // measure 42
1000
0000
1000
0001
0000
0001
0100
0000
0100
0010
0000
0000
0000
0000
0000
0001
0000
0000
1001
0000
0000
0000
0000
0000
,  // measure 43
0200
0000
1300
0200
0000
0310
0100
1000
,  // measure 44
0001
0000
0000
0100
0000
0000
0010
0100
0010
0100
0010
0100
0010
0000
0100
0000
0002
0000
2000
0000
3003
0000
0000
0000
;
