#TITLE:RHYTHM AND POLICE (K.O.G G3 Mix);
#SUBTITLE:;
#ARTIST:CJ CREW feat. CHRISTIAN D;
#TITLETRANSLIT:;
#SUBTITLETRANSLIT:;
#ARTISTTRANSLIT:;
#GENRE:;
#CREDIT:;
#BANNER:RHYTHM AND POLICE (K.O.G G3 Mix).png;
#BACKGROUND:RHYTHM AND POLICE (K.O.G G3 Mix)-bg.png;
#LYRICSPATH:;
#CDTITLE:;
#MUSIC:RHYTHM AND POLICE (K.O.G G3 Mix).ogg;
#OFFSET:0.000000;
#SAMPLESTART:29.645000;
#SAMPLELENGTH:15.000000;
#SELECTABLE:YES;
#DISPLAYBPM:170.000000;
#BPMS:0.000000=170.011002
;
#STOPS:
;
#BGCHANGES:;
#KEYSOUNDS:;
#ATTACKS:;

//---------------dance-single - ----------------
#NOTES:
     dance-single:
     :
     Beginner:
     3:
     0.181687,0.278276,0.076091,0.000000,0.000000,117.000000,110.000000,7.000000,0.000000,0.000000,0.000000,0.181687,0.278276,0.076091,0.000000,0.000000,117.000000,110.000000,7.000000,0.000000,0.000000,0.000000:
0000
0000
0000
0000
,
0000
0000
0000
0000
,
0000
0000
0000
0000
,
0000
0000
0000
0000
,
0000
0000
0000
0000
,
1000
0000
0000
0000
,
0001
0000
0000
0000
,
1000
0000
0000
0000
,
0001
0000
0000
0000
,
0010
0000
0010
0000
,
0100
0000
0100
0000
,
0001
0000
1000
0000
,
0001
0000
1000
0000
,
0001
0001
0001
0001
,
0000
0000
0000
0000
,
1000
1000
1000
1000
,
0000
0000
0000
0000
,
0100
0100
0100
0100
,
0000
0000
0000
0000
,
0010
0010
0010
0010
,
0000
0000
0000
0000
,
1000
0000
0000
0000
,
1000
0000
0000
0000
,
1000
0000
0000
0000
,
1000
0000
0000
0000
,
0001
0000
0000
0000
,
0001
0000
0000
0000
,
0001
0000
0000
0000
,
0001
0000
0000
0000
,
0100
0100
0100
0000
,
0001
0001
0001
0000
,
1000
1000
1000
0000
,
0001
0000
0000
0000
,
0010
0010
0010
0000
,
1000
1000
1000
0000
,
0001
0001
0001
0000
,
0100
0000
0000
0000
,
1001
0000
0000
0000
,
1001
0000
0000
0000
,
1001
0000
0000
0000
,
0010
0000
0000
0000
,
0110
0000
0000
0000
,
0110
0000
0000
0000
,
0110
0000
0000
0000
,
1000
0000
0000
0000
,
0000
0000
0000
0000
,
0001
0000
0000
1000
,
1000
0000
0000
0010
,
0010
0000
0000
0100
,
0100
0000
0000
0001
,
0001
0000
0000
1000
,
1000
0000
0000
0010
,
0010
0000
0000
0100
,
0100
0000
0000
0000
,
0010
0010
0010
0000
,
1000
1000
1000
0000
,
0010
0010
0010
0000
,
0001
0001
0001
0000
,
0100
0100
0100
0000
,
0010
0010
0010
0000
,
0100
0100
0100
0000
,
1000
1000
1000
0000
,
0001
0001
0001
0000
,
1000
1000
1000
0000
,
0110
0000
0000
0000
;

//---------------dance-single - ----------------
#NOTES:
     dance-single:
     :
     Easy:
     8:
     0.419277,0.556552,0.489157,0.000000,0.000000,270.000000,225.000000,45.000000,0.000000,0.000000,0.000000,0.419277,0.556552,0.489157,0.000000,0.000000,270.000000,225.000000,45.000000,0.000000,0.000000,0.000000:
0000
0000
0000
0000
,
0000
0000
0000
0000
,
0000
0000
0000
0000
,
0000
0000
0000
0000
,
0000
0000
0000
0000
,
1000
0010
0010
0010
,
0001
0100
0100
0100
,
1000
0010
0010
0010
,
0001
0100
0100
0100
,
0010
1000
0010
1000
,
0001
0100
0001
0100
,
0001
0101
1000
1100
,
0001
0101
1000
1100
,
0011
0011
0011
0011
,
0100
0100
0100
0100
,
1010
1010
1010
1010
,
0100
0100
0100
0100
,
1000
1100
0001
0101
,
1000
1100
0001
0101
,
1000
0001
1000
0001
,
0100
0000
0000
0000
,
1000
0100
0001
0100
,
1000
0100
0001
0100
,
0010
1000
0100
0100
,
0010
0001
0100
0100
,
1000
0001
1000
0100
,
0001
1000
0001
0100
,
0010
1000
0001
0100
,
1000
1000
1000
1100
,
0010
0010
0010
0110
,
1000
1000
1000
1001
,
0001
0001
1000
1000
,
0001
0000
0000
0000
,
1000
0100
0001
0100
,
1000
1000
1000
1000
,
1000
0100
0001
0100
,
1000
0000
1001
0110
,
0001
0101
0101
0101
,
1000
1100
1100
1100
,
0001
0101
0101
0101
,
0010
0000
0000
0000
,
1000
0100
0001
0100
,
1000
0100
0101
1001
,
0010
0010
0010
0010
,
1000
0000
0001
0101
,
0001
0000
1000
1100
,
0001
1000
0001
0101
,
0001
1000
0001
0101
,
0001
1000
0001
0101
,
0001
1000
1100
1100
,
0001
1000
0001
1100
,
0001
1000
0001
1100
,
0001
1000
0001
1100
,
1000
1000
0001
0110
,
0010
0010
0010
0010
,
1000
1000
0100
0100
,
0010
0010
0010
0010
,
0001
0001
0100
0100
,
1000
0100
0001
0100
,
1000
0100
0001
0101
,
1000
0001
1000
1100
,
0010
0010
0010
0010
,
0001
0001
1000
0010
,
1000
1000
0001
0100
,
0010
0000
0000
0000
;

//---------------dance-single - ----------------
#NOTES:
     dance-single:
     :
     Medium:
     9:
     0.454994,0.591336,0.380455,0.000000,0.000000,293.000000,258.000000,35.000000,0.000000,0.000000,0.000000,0.454994,0.591336,0.380455,0.000000,0.000000,293.000000,258.000000,35.000000,0.000000,0.000000,0.000000:
0000
0000
0000
0000
,
0000
0000
0000
0000
,
0000
0000
0000
0000
,
0000
0000
0000
0000
,
0000
0000
0000
0000
,
1000
0010
1000
0000
0001
0000
0100
0000
,
1000
0010
1000
0000
0001
0000
0100
0000
,
0001
0100
0001
0000
1000
0000
0100
0000
,
0001
0100
0001
0000
1000
0000
0100
0000
,
1010
0000
0101
0000
0010
1000
0100
0000
,
1010
0000
0101
0000
0010
1000
0100
0000
,
0011
0000
1100
0000
0010
1000
0100
0000
,
0011
0000
1100
0000
0010
1000
0100
0000
,
0011
0011
0011
0011
,
1001
0000
0010
0000
0100
1000
0100
0000
,
1010
1010
1010
1010
,
1001
0000
0010
0000
0100
0001
0100
0000
,
1000
1100
0001
0101
,
1100
0000
0101
0000
0010
1000
0100
0000
,
0001
0100
0001
0000
1000
0100
1000
0000
,
0100
0100
0100
0100
,
1000
0000
0100
0000
0010
0001
0100
0000
,
1000
0000
0100
0000
0010
0001
0100
0000
,
0010
0000
1000
0000
0001
1000
0100
0000
,
0010
0000
1000
0000
0001
1000
0100
0000
,
1000
0000
0001
0000
1000
0001
0100
0000
,
1000
0000
0001
0000
1000
0001
0100
0000
,
0010
0000
0100
0000
0010
1000
0100
0000
,
0010
1000
0010
0000
0001
0000
0101
0000
,
0010
0010
0010
0110
,
1000
1000
1000
0000
0001
0000
0101
0000
,
0001
0000
0000
0000
1000
0100
1000
0000
,
0001
0000
0000
0000
,
0000
0010
0000
1000
0000
0001
0000
1000
,
0000
0100
0000
0100
0000
0100
0000
0100
,
0000
0010
0000
1000
0000
0001
0000
0100
,
0000
0000
0000
0000
,
1001
1001
1001
1001
,
1000
1100
1100
1100
,
0001
0000
0100
0000
0010
1000
0100
0010
,
0001
0000
0000
0000
,
1000
0100
0001
0100
,
1000
0100
1000
0000
0001
0100
0001
0000
,
0010
0000
0010
0000
0010
1000
0010
1000
,
0100
0000
0000
0000
,
0001
0000
0000
1000
,
0110
0000
1000
0000
0001
0100
0001
0000
,
0001
0000
1000
0000
0001
1000
0100
0000
,
0010
1000
0010
0000
0001
0000
0100
0000
,
0001
0000
1000
0000
1000
0001
0100
0000
,
0001
0000
1000
0000
0001
1000
0001
0000
,
0100
0000
0010
0000
1000
0100
1000
0000
,
0001
0000
1000
0000
0001
0010
0100
0000
,
1000
1000
0001
0110
,
0010
1000
0010
1000
0000
0001
0000
0100
,
0000
0001
0000
0001
0000
1000
0100
1000
,
0000
0001
0000
0001
0000
0001
0100
0001
,
0000
1000
0000
1000
0000
0001
0100
0001
,
1000
0100
0001
0100
,
1000
0100
1000
0000
0001
0100
0001
0000
,
0000
1000
0000
0001
0000
0100
0000
0010
,
0001
0000
0000
0000
,
1000
0000
0000
0000
,
0010
1000
0001
0100
,
1001
0000
0000
0000
;

//---------------dance-single - ----------------
#NOTES:
     dance-single:
     :
     Hard:
     14:
     0.667738,0.591336,0.108702,0.000000,0.353280,430.000000,420.000000,10.000000,0.000000,0.000000,0.000000,0.667738,0.591336,0.108702,0.000000,0.353280,430.000000,420.000000,10.000000,0.000000,0.000000,0.000000:
0000
0000
0000
0000
,
0000
0000
0000
0000
,
0000
0000
0000
0000
,
0000
0000
0000
0000
,
0000
0000
0000
0000
,
0010
1000
0100
0001
0100
1000
0010
0100
,
0001
1000
0100
0010
0001
0100
0010
1000
,
0001
0100
1000
0100
0010
1000
0100
0001
,
0100
0010
0001
1000
0010
0100
0001
0010
,
0100
1000
0001
0100
0010
1000
0100
0001
,
0100
0010
0001
0100
0010
0001
0010
1000
,
0100
0001
0100
1000
0010
0001
0010
1000
,
0100
0001
0100
1000
0001
0010
0100
0000
,
0001
1000
0000
0000
1000
0100
0000
0000
0100
0010
0000
0000
0010
0001
0000
0000
,
0001
0100
0000
0000
0100
0010
0000
0000
0010
1000
0000
0000
1000
0001
0000
0000
,
0001
0010
0000
0000
0010
0001
0000
0000
0001
0100
0000
0000
0100
0001
0000
0000
,
0001
1000
0000
0000
1000
0100
0000
0000
0100
1000
0000
0000
1000
0010
0000
0000
,
0010
1000
0000
0000
1000
0001
0000
0000
0001
0010
0000
0000
0010
0100
0000
0000
,
0100
0001
0000
0000
0001
0100
0000
0000
0100
1000
0000
0000
1000
0100
0000
0000
,
0100
0010
0000
0000
0010
0001
0000
0000
0001
1000
0000
0000
1000
0001
0000
0000
,
0010
0000
0010
0000
0010
0000
0001
0000
0000
1000
0000
0000
0000
0000
0000
0000
,
1000
0100
0010
0001
1000
0100
1000
0010
,
0100
0001
1000
0100
0001
0100
1000
0010
,
0001
0010
1000
0100
0010
0001
0100
1000
,
0100
0001
0010
0100
0010
0001
0100
1000
,
0100
0010
1000
0100
0001
0100
1000
0001
,
0100
1000
0100
0001
0010
0100
1000
0001
,
0010
1000
0010
0001
0100
1000
0100
0000
,
0010
0000
0010
0000
0010
0000
1000
0000
0000
0001
0000
0000
0000
0000
0000
0000
,
1000
0100
0010
0001
0100
0010
1000
1000
,
0010
0100
0001
0010
0100
0100
1000
0000
,
0001
0000
0000
0000
1000
0010
0100
0000
,
0010
0000
0000
0000
0010
0010
0010
0000
,
1001
0000
1100
0000
0010
1000
0100
0000
,
1001
0000
0101
0000
0010
0001
0100
0000
,
0011
0000
1100
0000
0001
0001
0100
0000
,
1000
0000
1000
0000
0001
1000
0001
0000
,
0100
1000
0100
0010
0100
0001
0100
1000
,
0100
0001
0100
1000
0100
0001
0100
0010
,
0100
1000
0100
0010
0100
1000
0100
0000
,
0101
0000
1000
0000
,
0010
0001
0010
1000
0010
0001
0010
1000
,
0010
0100
0010
0001
0010
0100
0010
0001
,
0010
1000
0010
0100
0010
1000
0010
0000
,
1001
0000
0010
0010
,
1001
0000
0010
1001
,
0100
0001
0010
0100
0010
0001
0010
1000
,
0010
0001
0100
1000
0100
0001
0010
0100
,
1000
0010
0001
0010
1000
0100
0010
1000
,
0010
0001
0100
1000
0100
0001
0010
0001
,
0100
1000
0100
0001
0010
0001
0100
0010
,
1000
0100
0001
0100
1000
0001
0010
0100
,
0001
0100
1000
0010
0001
0010
1000
0000
,
0100
0000
0100
0000
0100
0000
0010
0000
0000
0001
0000
0000
0000
0000
0000
0000
,
0001
0100
0000
0000
0100
0010
0000
0000
0010
0001
0000
0000
0001
0010
0000
0000
,
0010
1000
0000
0000
1000
0100
0000
0000
0100
0010
0000
0000
0010
0100
0000
0000
,
0100
1000
0000
0000
1000
0100
0000
0000
0100
0001
0000
0000
0001
0100
0000
0000
,
0100
1000
0000
0000
1000
0010
0000
0000
0010
0001
0000
0000
0001
0010
0000
0000
,
0010
1000
0000
0000
1000
0001
0000
0000
0001
0100
0000
0000
0100
1000
0000
0000
,
1000
0100
0000
0000
0100
0010
0000
0000
0010
1000
0000
0000
1000
0001
0000
0000
,
0001
0010
0000
0000
0010
1000
0000
0000
1000
0010
0000
0000
0010
0001
0000
0000
,
1000
0000
0001
0000
0100
0000
0001
1000
0000
0001
1000
0000
0000
0000
0000
0000
,
0010
0000
1000
0000
0100
0000
1000
0001
0000
1000
0001
0000
0000
0000
0000
0000
,
0001
0000
1000
0000
0100
0000
0010
0100
0000
0010
0100
0000
0000
0000
0001
0000
,
1000
0000
0000
0000
;

//---------------dance-double - ----------------
#NOTES:
     dance-double:
     :
     Easy:
     4:
     0.385114,0.626121,0.358715,0.000000,0.000000,248.000000,215.000000,33.000000,0.000000,0.000000,0.000000,0.385114,0.626121,0.358715,0.000000,0.000000,248.000000,215.000000,33.000000,0.000000,0.000000,0.000000:
00000000
00000000
00000000
00000000
,
00000000
00000000
00000000
00000000
,
00000000
00000000
00000000
00000000
,
00000000
00000000
00000000
00000000
,
00000000
00000000
00000000
00000000
,
10000000
01000000
00010000
00001000
,
00001000
00010000
01000000
10000000
,
10000000
01000000
00010000
00001000
,
00001000
00010000
01000000
10000000
,
00100000
00000000
00010000
00000000
,
00001000
00000010
00000001
00000100
,
00001000
00000000
00010000
00000000
,
01000000
10000000
00100000
10000000
,
00010000
01000000
10000000
01000000
,
00010000
00001000
00000100
00000001
,
00001000
00000100
00000001
00000100
,
00001000
00010000
01000000
10000000
,
10000000
01000000
00010000
01000000
,
00001000
00010000
00000010
00000100
,
00001000
00000100
00000001
00000100
,
00000010
00000000
00001000
00000000
,
00010000
01000000
00001000
00010000
,
00000010
00001000
00000001
00000100
,
00001000
00000100
00010000
00001000
,
00100000
00010000
10000000
01000000
,
00010000
00001000
00000100
00000001
,
00001000
00010000
01000000
10000000
,
00010000
00001000
00000100
00000001
,
00001000
00000000
00010000
00000000
,
00000001
00000100
00001000
00010000
,
00010000
00001000
00000100
00000001
,
00000001
00000100
00001000
00010000
,
10000000
00000000
00000000
00000000
,
00010000
01000000
10000000
01000000
,
00010000
00001000
00000100
00000001
,
00001000
00000100
00000001
00000100
,
00001000
00010000
01000000
10000000
,
10100000
10100000
10100000
10100000
,
00011000
00011000
00011000
00011000
,
00000011
00000011
00000011
00000011
,
00000011
00000000
00000000
00000000
,
00000011
00000011
00000011
00000011
,
00011000
00011000
00011000
00011000
,
10100000
10100000
10100000
10100000
,
10100000
00000000
00000000
00000000
,
00011000
00000000
00000000
00000000
,
00000011
00000101
00001000
00010000
,
00011000
00010000
10000000
01000000
,
10100000
11000000
00010000
00001000
,
00011000
00001000
00000001
00000100
,
00000001
00000100
00001000
00010000
,
00010000
00001000
00000100
00000001
,
00000001
00000100
00001000
00010000
,
01000000
00000000
10000000
00000000
,
10000000
01000000
00010000
00001000
,
00001000
00010000
01000000
10000000
,
10000000
01000000
00010000
00001000
,
00001000
00010000
01000000
10000000
,
10000000
01000000
00010000
00001000
,
00000100
00000001
00001000
00000100
,
00000001
00000100
00001000
00010000
,
00001000
00010000
01000000
10000000
,
00010000
00100000
01000000
01000000
,
00010000
00001000
00000100
00000001
,
00000010
00000000
00000000
00000000
;

//---------------dance-double - ----------------
#NOTES:
     dance-double:
     :
     Medium:
     7:
     0.448782,0.556552,0.119572,0.000000,0.000000,289.000000,278.000000,11.000000,0.000000,0.000000,0.000000,0.448782,0.556552,0.119572,0.000000,0.000000,289.000000,278.000000,11.000000,0.000000,0.000000,0.000000:
00000000
00000000
00000000
00000000
,
00000000
00000000
00000000
00000000
,
00000000
00000000
00000000
00000000
,
00000000
00000000
00000000
00000000
,
00000000
00000000
00000000
00000000
,
00100000
10000000
01000000
00000000
00100000
00010000
01000000
00000000
,
00000010
00001000
00000100
00000000
00000010
00000001
00000100
00000000
,
00000010
00001000
00000100
00000000
00001000
00010000
01000000
00000000
,
10000000
00100000
00010000
00000000
00010000
00100000
10000000
00000000
,
00100000
00010000
01000000
00000000
00010000
00001000
00000100
00000000
,
00000001
00000010
00001000
00000000
00001000
00000010
00000001
00000000
,
00000001
00000100
00001000
00000000
00001000
00010000
01000000
00000000
,
10000000
00000000
00010000
00000000
00001000
00010000
01000000
00000000
,
00010000
00000000
10000000
00000000
01000000
00010000
00001000
00000000
,
00000010
00000000
00000100
00000000
00000001
00001000
00000100
00000000
,
00001000
00000000
00010000
00000000
00100000
10000000
01000000
00000000
,
00100000
00000000
01000000
00000000
10000000
01000000
00010000
00000000
,
00001000
00000000
00010000
00000000
00000010
00001000
00000100
00000000
,
00000001
00000000
00001000
00000000
00000010
00000001
00000100
00000000
,
00001000
00000000
00010000
00000000
01000000
10000000
00100000
00000000
,
10000000
00000000
10000000
00000000
00100000
00010000
00100000
00000000
,
10000000
00000000
00000000
00000000
00010000
10000000
01000000
00000000
,
00010000
00000000
00000000
00000000
00001000
00000100
00000001
00000000
,
00001000
00000000
00000000
00000000
00100000
00010000
01000000
00000000
,
00001000
00000000
00000000
00000000
00100000
01000000
10000000
00000000
,
01000000
00000000
00000000
00000000
00010000
00001000
00000100
00000000
,
00000001
00000000
00000000
00000000
00000100
00001000
00010000
00000000
,
01000000
00000000
00000000
00000000
00010000
00001000
00000100
00000000
,
00000010
00000001
00000010
00000000
00010000
00000000
00001000
00000000
,
00100000
10000000
01000000
00000000
00010000
00000000
00001000
00000000
,
00000010
00001000
00000100
00000000
00001001
00000000
00000101
00000000
,
00001000
00000000
00010000
00000000
01000000
10000000
00100000
00000000
,
10010000
00000000
00000000
00000000
,
00100000
00000000
10000000
00000000
01000000
00010000
00001000
00000000
,
00001000
00000100
00000001
00000000
00000011
00000000
00001001
00000000
,
00001001
00000000
00011000
00000000
00100000
00010000
01000000
00000000
,
10010000
00000000
00000000
00000000
,
10000000
10000000
10000000
10000000
,
00010000
00010000
00010000
00010000
,
00001000
00001000
00001000
00001000
,
00001001
00000000
00000001
00000000
,
00001000
00000100
00000001
00000100
,
00001000
00010000
01000000
01000000
,
10000000
01000000
10000000
00000000
00010000
01000000
00010000
00000000
,
00000010
00000000
00001000
00000100
,
00000101
00000000
00000010
00011000
,
00100000
00000000
10000000
00000000
00010000
01000000
10000000
00000000
,
10000000
00000000
01000000
00000000
00100000
00001000
00010000
00000000
,
00000100
00000000
00000001
00000000
00001000
00000010
00000100
00000000
,
00001000
00000000
00010000
00000000
01000000
10000000
00100000
00000000
,
00100000
10000000
01000000
00000000
00100000
00010000
01000000
00000000
,
00000010
00001000
00000100
00000000
00000010
00000001
00000100
00000000
,
00001000
00010000
01000000
00000000
00010000
00001000
00000100
00000000
,
00000001
00000100
00001000
00010000
,
00100000
10000000
00100000
00000000
00100000
00000000
00100000
00000000
,
00001000
00010000
00001000
00000000
00001000
00000000
00001000
00000000
,
00000001
00000100
00000001
00000000
00000001
00000000
00000001
00000000
,
00001000
00000001
00001000
00000001
00001000
00000001
00001000
00000000
,
00100000
00000000
10000000
00000000
00010000
10000000
01000000
00000000
,
00010000
00000000
01000000
00000000
10000000
01000000
00100000
00000000
,
00001000
00000000
00010000
00000000
00000010
00001000
00000001
00000000
,
00000001
00000100
00001000
00010000
,
01000000
10000000
01000000
00010000
,
00001000
00000100
00000001
00000010
,
00000100
00000000
00000000
00000000
;

//---------------dance-double - ----------------
#NOTES:
     dance-double:
     :
     Hard:
     9:
     0.614940,0.626121,0.347845,0.000000,0.092396,396.000000,364.000000,32.000000,0.000000,0.000000,0.000000,0.614940,0.626121,0.347845,0.000000,0.092396,396.000000,364.000000,32.000000,0.000000,0.000000,0.000000:
00000000
00000000
00000000
00000000
,
00000000
00000000
00000000
00000000
,
00000000
00000000
00000000
00000000
,
00000000
00000000
00000000
00000000
,
00000000
00000000
00000000
00000000
,
00001000
00010000
00100000
10000000
01000000
00100000
00010000
00100000
,
01000000
00010000
00001000
00000100
00000001
00000010
00000100
00001000
,
00000010
00000100
00001000
00010000
01000000
00010000
00001000
00010000
,
00100000
10000000
01000000
01000000
00010000
00001000
00000100
00000001
,
00000010
00001000
00000010
00000001
00000100
00001000
00010000
00001000
,
00000100
00001000
00010000
00010000
01000000
10000000
00100000
00010000
,
00001000
00000010
00001000
00010000
00001000
00000100
00000001
00000010
,
00000001
00000100
00001000
00001000
00010000
00001000
00000100
00000000
,
00001000
00010000
01000000
10000000
,
00100000
10000000
00000000
00000000
10000000
00010000
00000000
00000000
00010000
00001000
00000000
00000000
00001000
00000001
00000000
00000000
,
00000001
00000000
00000100
00000000
00001000
00010000
01000000
00000000
,
00010000
00000000
00001000
00000000
00010000
00100000
10000000
00000000
,
00010000
00000000
01000000
00000000
00100000
10000000
01000000
00000000
,
00100000
10000000
00000000
00000000
10000000
00010000
00000000
00000000
00010000
00001000
00000000
00000000
00001000
00000001
00000000
00000000
,
00000001
00000000
00000100
00000000
00000001
00001000
00000100
00000000
,
00001000
00000000
00010000
00000000
01000000
00000000
10000000
00000000
00000000
10000000
00000000
00000000
00000000
00000000
00000000
00000000
,
00100000
10000000
01000000
00010000
01000000
10000000
00100000
00010000
,
00001000
00000010
00000001
00000100
00001000
00000100
00000001
00000010
,
00000100
00010000
00001000
00000100
00001000
00010000
01000000
10000000
,
00100000
00010000
00001000
01000000
00010000
10000000
01000000
00010000
,
00001000
00000010
00000001
00000010
00001000
00000010
00000001
00000100
,
00001000
00100000
00001000
00010000
01000000
10000000
00100000
00010000
,
00001000
00100000
01000000
00010000
00001000
00000100
00000001
00000000
,
00000010
00000000
00000001
00000000
00000100
00000000
00001000
00000000
00000000
00000100
00000000
00000000
00000000
00000000
00000000
00000000
,
00000010
00000001
00000100
00000000
00010000
00100000
01000000
00000000
,
10000000
00100000
01000000
00000000
00001000
00010000
00000100
00000000
,
00001001
00000000
00000101
00000000
00000010
00001000
00000100
00000000
,
00011000
00000000
10010000
00000000
00100000
10000000
01000000
00000000
,
10010000
10100000
11000000
10000000
,
10010000
01010000
00110000
00010000
,
00011000
00000000
00001001
00000000
00000010
00000001
00000100
00000000
,
00001000
00000000
00010000
00000000
01000000
01000000
10000000
00000000
,
10010000
01100000
01010000
01010000
,
00011000
00001100
00000110
00001001
,
00001001
00000110
00001100
00110000
,
10010000
00000000
01100000
00000000
,
00000000
10000000
00000000
01000000
00000000
00010000
00000000
00001000
,
00000000
00000100
00000000
00000001
00000000
00000110
00000000
00001001
,
00000000
00000010
00000000
00000100
00000000
00001000
00000000
00100000
,
01000000
00000000
10000000
10000000
,
01010000
00000000
00000010
00001001
,
00000010
00000000
00000001
00000000
00001000
00000100
00001000
00000000
,
00100000
00000000
00010000
00000000
10000000
01000000
10000000
00000000
,
00100000
00000000
10000000
00000000
00010000
01000000
00010000
00000000
,
00000010
00000000
00001000
00000000
00000001
00000100
00000001
00000000
,
00000001
00000010
00000100
00001000
00100000
10000000
01000000
00000000
,
10000000
01000000
00010000
00001000
00000100
00000010
00000001
00000000
,
00000001
00000100
00001000
00000100
00001000
00010000
01000000
00000000
,
00100000
00000000
10000000
00000000
01000000
00000000
11000000
00000000
00000000
10010000
00000000
00000000
00000000
00000000
00000000
00000000
,
00100000
10000000
01000000
00010000
00001000
00000100
00000001
00000010
,
00001000
00010000
00001000
00000100
00000001
00000010
00000100
00010000
,
00001000
00100000
01000000
10000000
00100000
01000000
00001000
00010000
,
00001000
00000100
00000001
00000010
00000100
00001000
00000100
00010000
,
01000000
10000000
00100000
10000000
01000000
00010000
00001000
00000100
,
00000010
00001000
00000100
00000001
00000100
00001000
00100000
10000000
,
01000000
00010000
01000000
00010000
00001000
00000100
00000001
00000000
,
00000010
00000000
00000001
00000000
00000100
00000000
00000001
00001000
00000000
00001000
00000100
00000000
00000000
00000000
00000000
00000000
,
00100000
00000000
00001000
00000000
00010000
00000000
00001000
00010000
00000000
00010000
00001000
00000000
00000000
00000000
00000000
00000000
,
00100000
00000000
10000000
00000000
01000000
00000000
10000000
00010000
00000000
00010000
10000000
00000000
00000000
00000000
00010000
00000000
,
01000000
00000000
00000000
00000000
;

//---------------dance-couple - ----------------
#NOTES:
     dance-couple:
     :
     Challenge:
     8:
     0.403749,0.591336,0.250014,0.000000,0.114137,260.000000,237.000000,23.000000,0.000000,0.000000,0.000000,0.405302,0.626121,0.260884,0.000000,0.114137,261.000000,237.000000,24.000000,0.000000,0.000000,0.000000:
00000000
00000000
00000000
00000000
,
00000000
00000000
00000000
00000000
,
00000000
00000000
00000000
00000000
,
00000000
00000000
00000000
00000000
,
00000000
00000000
00000000
00000000
,
10001000
00100000
00100000
00100000
,
00010001
01000000
01000000
01000000
,
10001000
00000010
00000010
00000010
,
00010001
00000100
00000100
00000100
,
00100000
10000001
00100000
10000001
,
00010000
00000000
01010001
00000000
10000000
00000000
11000000
00000001
,
00000010
10001000
00000010
10001000
,
00000001
10000101
00001000
10001100
,
00110000
00110001
00110000
00110001
,
01000000
01000001
01000000
01000001
,
00001010
10001010
00001010
10001010
,
00000100
10000100
00000100
10000100
,
10001000
11001100
00010001
01010101
,
10001000
11001100
00010001
01010101
,
10001000
00010001
10001000
00010001
,
01000100
00000000
00000000
00000000
,
10000001
00000000
01000100
00000000
00101000
00010000
01000100
00000000
,
10000001
00000000
01000100
00000000
00101000
00010000
01000100
00000000
,
00100001
00000000
10000100
00000000
00011000
10000000
01000100
00000000
,
00011000
00000000
01000100
00000000
10000010
00000001
01000100
00000000
,
00011000
00000000
01000100
00000000
10000010
00000001
01000100
00000000
,
00010010
00000000
01001000
00000000
10000001
00001000
01000100
00000000
,
00100010
00000000
01000100
00000000
00100010
10001000
01000100
00000000
,
00100010
10001000
00100010
00000000
00010001
00000000
01010101
00000000
,
00100010
00100010
00100010
01100110
,
10000001
10000001
10000001
00000000
00011000
00000000
01011100
00000000
,
00011000
00000000
00000000
00000000
10000001
01000100
10000001
00000000
,
00011000
00000000
00000000
00000000
,
00000000
00100000
00000000
10000000
00000000
00010000
00000000
10000000
,
00000000
00000010
00000000
00001000
00000000
00000001
00000000
00001000
,
00000000
00100010
00000000
10001000
00000000
00010001
00000000
01000100
,
00000000
00000000
00000000
00000000
,
00110000
00110000
00110000
00110000
,
00001010
00001010
00001010
00001010
,
01011100
01011100
01011100
01011100
,
10011001
00000000
00000000
00000000
,
10000001
01000100
00011000
01000100
,
10000001
01000100
10000001
00000000
00011000
01000100
00011000
00000000
,
00100010
00000000
00100010
00000000
00100010
10000001
00100010
10000001
,
01000100
00000000
00000000
00000000
,
10001001
00000000
00100010
10011001
,
01000000
00010000
00100001
01000000
00100000
00010000
00100001
10000000
,
00100000
00010000
01000001
10000000
01000000
00010000
00100001
01000000
,
10000000
00100000
00010001
00100000
10000000
01000000
00100001
10000000
,
00100100
00010001
01000010
10000100
01000010
00010001
00100010
00001000
,
00000010
00000001
10000100
00001000
00000100
00000001
10000010
00000100
,
00001000
00000010
10000001
00000010
00001000
00000100
10000010
00001000
,
00000010
00000001
10000100
00001000
00000100
00000001
10000010
00000000
,
01000100
00000000
01000100
00000000
01000100
00000000
00100010
00000000
00000000
00010001
00000000
00000000
00000000
00000000
00000000
00000000
,
00010001
01000000
00000000
00000000
01000001
00100000
00000000
00000000
00100001
00010000
00000000
00000000
00010001
00100000
00000000
00000000
,
00100001
10000000
00000000
00000000
10000001
01000000
00000000
00000000
01000001
00100000
00000000
00000000
00100001
01000000
00000000
00000000
,
01000001
10000000
00000000
00000000
10000001
01000000
00000000
00000000
01000001
00010000
00000000
00000000
00010001
01000000
00000000
00000000
,
01000001
10000100
00000000
00000000
10000100
00100010
00000000
00000000
00100010
00010001
00000000
00000000
00010001
01000010
00000000
00000000
,
10000010
00001000
00000000
00000000
10001000
00000100
00000000
00000000
10000100
00000010
00000000
00000000
10000010
00000100
00000000
00000000
,
10000100
00001000
00000000
00000000
10001000
00000100
00000000
00000000
10000100
00000001
00000000
00000000
10000001
00000100
00000000
00000000
,
10000100
00001000
00000000
00000000
10001000
00000010
00000000
00000000
10000010
00000001
00000000
00000000
10000001
00000100
00000000
00000000
,
10000000
00000000
00010000
00000000
01000000
00000000
00010000
10000000
00000000
00010000
10000000
00000000
00000000
00000000
00000000
00000000
,
00001000
00000000
00000001
00000000
00000100
00000000
00000001
00001000
00000000
00000001
00001000
00000000
00000000
00000000
00000000
00000000
,
00010001
00000000
10001000
00000000
01000100
00000000
00100010
01000100
00000000
00100010
01000100
00000000
00000000
00000000
00010001
00000000
,
10001000
00000000
00000000
00000000
;

//---------------dance-solo - ----------------
#NOTES:
     dance-solo:
     :
     Easy:
     4:
     0.383561,0.626121,0.336975,0.000000,0.000000,247.000000,216.000000,31.000000,0.000000,0.000000,0.000000,0.383561,0.626121,0.336975,0.000000,0.000000,247.000000,216.000000,31.000000,0.000000,0.000000,0.000000:
000000
000000
000000
000000
,
000000
000000
000000
000000
,
000000
000000
000000
000000
,
000000
000000
000000
000000
,
000000
000000
000000
000000
,
000100
001000
000010
010000
,
000100
001000
000010
010000
,
001000
100000
000100
000001
,
001000
100000
000100
000001
,
010000
000000
001000
001000
,
000010
000000
001000
001000
,
100000
001000
000001
001000
,
000001
100000
000010
010000
,
001000
100000
000001
010000
,
000010
001000
000001
100000
,
001000
100000
000001
010000
,
000010
001000
000001
100000
,
001000
001000
001000
001000
,
100000
000001
010000
000010
,
001000
001000
001000
001000
,
100000
000000
000001
000000
,
010000
000100
000010
000100
,
010000
000100
000010
000100
,
010000
000100
000010
000100
,
010000
000100
000010
000100
,
100000
001000
000001
001000
,
100000
001000
000001
001000
,
100000
001000
000001
001000
,
100000
100000
100000
100000
,
000100
100000
001000
010000
,
000010
001000
000001
001000
,
010000
010000
001000
001000
,
100000
000000
000000
000000
,
000001
001000
100000
001000
,
000100
000100
000010
010000
,
001000
000001
001000
100000
,
000100
000000
000000
000000
,
010100
010100
010100
010100
,
000110
000110
000110
000110
,
010010
010010
010010
010010
,
010010
000000
000000
000000
,
000011
000011
000011
000011
,
010010
010010
010010
010010
,
110000
110000
110000
110000
,
100001
000000
000000
000000
,
001100
000000
000000
000000
,
000011
100000
001000
100000
,
110000
000001
001000
000001
,
000110
100000
000001
001000
,
010100
000001
100000
001000
,
000001
100000
001000
010000
,
100000
000001
001000
000010
,
000100
010000
000010
000100
,
100000
000000
001000
000000
,
010000
000001
010000
001000
,
100000
000001
001000
001000
,
000010
100000
000010
001000
,
000001
100000
001000
001000
,
000100
000010
010000
001000
,
100000
001000
000001
001000
,
000010
010000
000100
001000
,
000001
100000
000001
001000
,
010000
000100
001000
001000
,
000010
000100
001000
100000
,
000001
000000
000000
000000
;

//---------------dance-solo - ----------------
#NOTES:
     dance-solo:
     :
     Medium:
     6:
     0.448782,0.556552,0.119572,0.000000,0.000000,289.000000,278.000000,11.000000,0.000000,0.000000,0.000000,0.448782,0.556552,0.119572,0.000000,0.000000,289.000000,278.000000,11.000000,0.000000,0.000000,0.000000:
000000
000000
000000
000000
,
000000
000000
000000
000000
,
000000
000000
000000
000000
,
000000
000000
000000
000000
,
000000
000000
000000
000000
,
000100
100000
001000
000000
000100
000001
001000
000000
,
000100
100000
010000
000000
001000
000001
000010
000000
,
000001
100000
001000
000000
100000
000001
001000
000000
,
000100
010000
000100
000000
000010
000100
000010
000000
,
100000
001000
100000
000000
000001
001000
000001
000000
,
010000
100000
010000
000000
000010
000001
000010
000000
,
000100
010000
001000
000000
100000
000010
001000
000000
,
000010
000000
010000
000000
000001
100000
001000
000000
,
000100
000000
000100
000000
100000
010000
100000
000000
,
000100
000000
000100
000000
000001
000010
000001
000000
,
100000
000000
000001
000000
100000
000100
100000
000000
,
000001
000000
100000
000000
000001
000100
000001
000000
,
001000
000000
100000
000000
000001
000010
001000
000000
,
001000
000000
000001
000000
100000
010000
001000
000000
,
000010
000000
000010
000000
010000
000100
010000
000000
,
010000
000000
010000
000000
000010
000100
000010
000000
,
100000
000000
000000
000000
000010
001000
000010
000000
,
000001
000000
000000
000000
010000
001000
010000
000000
,
000100
000000
000000
000000
000001
100000
000001
000000
,
001000
000000
000000
000000
010000
000001
010000
000000
,
000001
000000
000000
000000
100000
000100
001000
000000
,
001000
000000
000000
000000
000100
010000
000010
000000
,
100000
000000
000000
000000
100000
000100
000001
000000
,
010000
000100
010000
000000
000001
000000
001000
000000
,
000100
100000
001000
000000
000001
000000
001000
000000
,
000100
000001
100000
000000
101000
000000
101000
000000
,
000100
000000
000100
000000
000001
001000
000100
000000
,
100001
000000
000000
000000
,
000100
000000
100000
000000
100000
001000
000001
000000
,
000001
001000
100000
000000
000101
000000
001001
000000
,
100001
000000
100100
000000
000100
100000
010000
000000
,
100001
000000
000000
000000
,
010000
010000
010000
010000
,
000010
000010
000010
000010
,
001000
001000
001000
001000
,
010010
000000
000001
000000
,
100000
001000
000001
001000
,
000010
000100
010000
000100
,
100000
001000
100000
000000
000001
000100
001000
000000
,
000010
000000
010000
000100
,
000110
000000
010000
100001
,
001000
000000
000001
000000
100000
000100
010000
000000
,
001000
000000
100000
000000
000001
000100
000010
000000
,
000100
000000
010000
000000
000010
000100
000010
000000
,
000100
000000
000010
000000
010000
000100
010000
000000
,
000001
010000
001000
000000
100000
000010
001000
000000
,
000100
100000
001000
000000
000100
000001
001000
000000
,
010000
100000
010000
000000
000010
000001
000010
000000
,
000100
100000
001000
000001
,
000100
100000
000100
000000
000100
000000
000100
000000
,
001000
000001
001000
000000
001000
000000
001000
000000
,
000100
010000
000100
000000
000100
000000
000100
000000
,
000010
010000
000010
010000
000010
010000
000010
000000
,
100000
000000
001000
000000
000001
100000
001000
000000
,
000001
000000
001000
000000
100000
000001
001000
000000
,
000100
000000
010000
000000
010000
000010
000001
000000
,
000001
001000
100000
000100
,
000100
100000
001000
000001
,
010000
000010
000100
001000
,
000001
000000
000000
000000
;

//---------------dance-solo - ----------------
#NOTES:
     dance-solo:
     :
     Hard:
     9:
     0.645998,0.591336,0.173922,0.000000,0.244578,416.000000,400.000000,16.000000,0.000000,0.000000,0.000000,0.645998,0.591336,0.173922,0.000000,0.244578,416.000000,400.000000,16.000000,0.000000,0.000000,0.000000:
000000
000000
000000
000000
,
000000
000000
000000
000000
,
000000
000000
000000
000000
,
000000
000000
000000
000000
,
000000
000000
000000
000000
,
000100
010000
100000
010000
000100
000001
000010
000100
,
001000
100000
010000
100000
001000
000001
001000
100000
,
000100
001000
000001
000010
000001
100000
010000
001000
,
000100
100000
001000
000010
000001
001000
100000
001000
,
000001
000100
000000
001000
100000
010000
100000
001000
,
000100
000001
001000
100000
001000
000001
000100
001000
,
100000
000001
001000
000100
010000
001000
100000
010000
,
100000
000001
000010
000001
000100
001000
100000
000000
,
000100
100000
001000
000001
,
000100
100000
000000
000000
100000
001000
000000
000000
001000
000100
000000
000000
000100
000001
000000
000000
,
100000
000000
001000
000000
010000
000100
010000
000000
,
000001
000000
001000
000000
000010
000100
000010
000000
,
100000
000000
001000
000000
000100
000001
001000
000000
,
000001
001000
000000
000000
001000
000001
000000
000000
000001
000100
000000
000000
000100
001000
000000
000000
,
100000
000000
000001
000000
100000
000001
100000
000000
,
000100
000000
100000
000000
001000
000000
000010
000000
000000
010000
000000
000000
000000
000000
000000
000000
,
001000
000001
000100
100000
000100
000001
001000
010000
,
100000
000001
000100
001000
010000
000010
001000
000100
,
010000
100000
010000
000100
000001
000010
000100
001000
,
100000
010000
100000
000001
001000
000100
100000
001000
,
000001
001000
100000
000100
001000
100000
001000
000001
,
000010
001000
100000
010000
001000
000001
000010
001000
,
100000
000100
000001
000100
010000
001000
100000
000000
,
000100
000000
000100
000000
000100
000000
010000
000000
000000
000010
000000
000000
000000
000000
000000
000000
,
000100
010000
001000
000000
000100
000010
001000
000000
,
100000
000100
010000
000000
000001
000100
000010
000000
,
100001
000000
101000
000000
000100
100000
010000
000000
,
100001
000000
001001
000000
000100
000001
000010
000000
,
100100
010100
001100
000100
,
001000
001100
001010
001001
,
100001
000000
001100
000000
100000
000001
100000
000000
,
000010
000000
000010
000000
100000
001000
100000
000000
,
000100
000010
000100
000001
000100
001000
000100
000001
,
001000
100000
001000
010000
001000
000001
001000
000001
,
000100
000010
000100
100000
000100
001000
000100
000000
,
100001
000000
000010
000000
,
100000
000100
100000
000001
100000
000010
100000
001000
,
000100
000001
000100
001000
000100
000001
000100
000010
,
100000
010000
100000
000001
100000
001000
100000
000000
,
010010
000000
001000
001000
,
100001
000000
000100
010010
,
000001
100000
000100
001000
000001
000100
001000
100000
,
010000
001000
000010
000100
000001
001000
100000
001000
,
000001
000010
001000
100000
010000
001000
000001
000010
,
001000
100000
000100
010000
001000
000010
000001
001000
,
000100
100000
000001
001000
000010
000100
001000
100000
,
010000
001000
000001
000100
000010
001000
010000
100000
,
001000
000001
001000
100000
000100
010000
001000
000000
,
010000
000000
010000
000000
010000
000000
000001
000000
000000
001000
000000
000000
000000
000000
000000
000000
,
000100
100000
000000
000000
100000
010000
000000
000000
010000
100000
000000
000000
100000
000001
000000
000000
,
000001
000100
000000
000000
000100
001000
000000
000000
001000
000001
000000
000000
000001
001000
000000
000000
,
001000
100000
000000
000000
100000
000010
000000
000000
000010
000100
000000
000000
000100
000001
000000
000000
,
000001
001000
000000
000000
001000
100000
000000
000000
100000
001000
000000
000000
001000
000100
000000
000000
,
000100
010000
000000
000000
010000
000010
000000
000000
000010
000100
000000
000000
000100
000001
000000
000000
,
000001
100000
000000
000000
100000
001000
000000
000000
001000
010000
000000
000000
010000
000001
000000
000000
,
000001
000010
000000
000000
000010
000001
000000
000000
000001
001000
000000
000000
001000
000100
000000
000000
,
100000
000000
000001
000000
100000
000000
010000
000100
000000
010000
000100
000000
000000
000000
000000
000000
,
000001
000000
100000
000000
000001
000000
000010
000100
000000
000010
000100
000000
000000
000000
000000
000000
,
100000
000000
000001
000000
001000
000000
100000
001000
000000
100000
001000
000000
000000
000000
000010
000000
,
010000
000000
000000
000000
;

//---------------dance-single - ----------------
#NOTES:
     dance-single:
     :
     Challenge:
     17:
     1.099439,1.078319,0.217403,0.032610,1.304419,708.000000,688.000000,20.000000,3.000000,0.000000,0.000000,1.099439,1.078319,0.217403,0.032610,1.304419,708.000000,688.000000,20.000000,3.000000,0.000000,0.000000:
// measure 0
0000
0000
0000
0000
,  // measure 1
0000
0000
0000
0000
,  // measure 2
0000
0000
0000
0000
,  // measure 3
0000
0000
0000
0000
,  // measure 4
0000
0000
0000
0000
,  // measure 5
1000
0000
0010
1000
0010
0000
0001
0100
0001
0000
0010
1000
0010
0000
0001
0100
,  // measure 6
0001
0000
0010
1000
0010
0000
0001
0100
0001
0000
0010
1000
0010
1000
0001
0100
,  // measure 7
0001
0100
0001
0000
1000
0010
1000
0000
0001
0100
0001
0000
1000
0010
1000
0000
,  // measure 8
0001
0100
0001
0000
1000
0010
1000
0000
0001
0100
0001
1000
0010
1000
0010
0000
,  // measure 9
1000
0000
0100
1000
0100
0000
0010
0100
0010
0000
0001
0010
0001
0000
0100
1000
,  // measure 10
0100
0000
0010
0100
0010
0000
0001
0010
0001
0000
0100
1000
0010
0100
0001
0010
,  // measure 11
0001
1000
0001
0000
0010
1000
0010
0000
0001
1000
0001
0000
0010
1000
0010
0000
,  // measure 12
1000
0010
0000
0000
0100
0001
0000
0000
1000
0100
0000
0000
0010
0001
1000
0100
,  // measure 13
0010
0000
0001
0000
1000
0000
0100
0000
0001
0000
0100
0000
1000
0010
0100
0001
,  // measure 14
0010
0000
0100
0000
0001
0000
1000
0000
0100
0000
0010
0000
0100
0010
0001
0010
,  // measure 15
0001
0000
0010
0000
0100
0000
1000
0000
0010
0000
0100
0000
0001
1000
0100
0010
,  // measure 16
0001
0000
0100
0000
0010
0000
0001
0000
1000
0000
0100
0000
0010
0100
1000
0100
,  // measure 17
0010
0000
1000
0000
0001
0000
0100
0000
0010
0000
1000
0000
0001
0010
0100
1000
,  // measure 18
0010
0000
0100
0000
0001
0000
1000
0000
0100
0000
0010
0000
0100
1000
0100
1000
,  // measure 19
0010
0000
0100
0000
0001
0000
1000
0000
0010
0000
0100
0000
0001
0010
0001
0010
,  // measure 20
0100
0000
1100
0000
1100
0000
1000
0100
0000
0100
1000
0000
0000
0000
0000
0000
,  // measure 21
1000
0100
1000
0100
1000
0100
0010
0000
0001
0000
0010
0001
0010
0001
0010
0001
,  // measure 22
1000
0001
1000
0001
1000
0001
1000
0001
1000
0000
1000
0001
1000
0001
1000
0100
,  // measure 23
1000
0100
1000
0010
1000
0010
1000
0010
1000
0000
0100
0010
0100
0010
1000
0010
,  // measure 24
1000
0010
0001
0100
0001
0100
0001
0100
0001
0000
0001
0010
0001
0010
0100
1000
,  // measure 25
0100
1000
0001
0010
0100
1000
0010
1000
0010
0000
0010
1000
0010
1000
0001
0100
,  // measure 26
0001
0100
0010
1000
0001
0100
0010
1000
0001
0000
0010
0001
0010
0001
0100
0010
,  // measure 27
0100
0010
1000
0100
1000
0100
1000
0010
0100
0000
0010
0100
0010
0100
0001
0100
,  // measure 28
0001
0000
0011
0000
0011
0000
0001
0010
0000
0010
0001
0000
0000
0000
0000
0000
,  // measure 29
1000
0100
0010
0000
0100
0000
1000
0000
0100
0010
0001
0000
0100
0000
0001
0000
,  // measure 30
1000
0010
0100
0000
0001
0000
0100
0000
0010
1000
0100
0000
0010
0000
0001
0000
,  // measure 31
1000
0010
0100
0000
0010
0000
0100
0000
0001
0010
1000
0000
0100
0000
0010
0000
,  // measure 32
0002
0000
1003
0000
1001
0101
1100
0000
,  // measure 33
1000
0100
1000
0000
1000
0010
1000
0000
1000
0100
1000
0000
1000
0010
1000
0000
,  // measure 34
1000
0100
0010
0000
0100
0010
0001
0000
0001
0010
0100
0000
0010
0100
1000
0000
,  // measure 35
0002
0000
0003
0000
0010
0100
0001
0000
1000
0001
0100
0000
0001
0100
0010
0000
,  // measure 36
1000
0010
1000
0010
1000
0010
1000
0010
1000
0000
0010
0000
1000
0000
0001
0000
,  // measure 37
1000
0000
1000
0100
0010
0000
0100
0010
0001
0000
0001
0010
0100
0000
0010
0100
,  // measure 38
1000
0000
1000
0010
0100
0000
0010
0100
0001
0000
0001
0100
0010
0000
0100
0010
,  // measure 39
1000
0000
0010
1000
0100
0000
0010
0001
0100
0000
0010
1000
0001
0000
1000
0000
,  // measure 40
0020
0000
0130
0000
0110
0011
1010
0000
,  // measure 41
1000
0010
0100
0000
0010
0100
0001
0000
1000
0010
0100
0000
0010
0100
0001
0000
,  // measure 42
1000
0100
0010
0000
1000
0100
0010
0000
0100
0010
0001
0000
0100
0010
0001
0000
,  // measure 43
1000
0100
0010
0000
0010
0100
1000
0000
1000
0100
0010
0000
0010
0100
1000
0000
,  // measure 44
0010
1000
0010
1000
0010
1000
0010
1000
0010
0000
1000
0000
0001
0000
1000
0000
,  // measure 45
0001
0100
0001
0100
0001
0100
0001
0100
0001
0000
0100
0000
0001
0000
1000
0000
,  // measure 46
0010
0100
0010
0100
0001
0100
0001
0100
0010
0000
1000
0100
0010
0001
0010
0100
,  // measure 47
1000
0010
1000
0010
0100
0001
0100
0001
0010
0000
0001
0010
0001
0010
0100
1000
,  // measure 48
0100
1000
0001
0010
0100
1000
0010
0100
0001
0000
1000
0010
1000
0010
0100
0001
,  // measure 49
0100
0001
1000
0010
0100
0001
1000
0010
0100
0000
0001
0100
0010
1000
0001
0010
,  // measure 50
0100
1000
0100
0010
0001
1000
0001
0100
0001
0000
1000
0001
1000
0001
1000
0100
,  // measure 51
1000
0100
0010
0001
1000
0100
0010
0001
0100
0000
0001
0010
0100
1000
0010
1000
,  // measure 52
0010
1000
0001
1000
0001
1000
0100
1000
0010
0000
1000
0010
1000
0010
0100
0001
,  // measure 53
0100
0000
0101
0000
0101
0000
0001
0100
0000
0001
0100
0000
0000
0000
0000
0000
,  // measure 54
0001
0010
0001
0000
0100
1000
0100
0000
0001
0010
0001
0000
0100
1000
0100
0000
,  // measure 55
0001
0010
0001
0000
0100
1000
0100
0000
0001
0000
0010
0100
1000
0100
0010
0000
,  // measure 56
0001
0100
0001
0000
0010
1000
0010
0000
0001
0100
0001
0000
0010
1000
0010
0000
,  // measure 57
0001
0100
0001
0000
0010
1000
0010
0000
0001
0000
1000
0100
0010
0100
1000
0000
,  // measure 58
0001
1000
0100
0000
0001
1000
0100
0000
1000
0001
0100
0000
1000
0001
0100
0000
,  // measure 59
0001
1000
0100
0000
1000
0001
0100
0000
1000
0000
0001
0010
0100
1000
0010
0000
,  // measure 60
1000
0010
0100
0000
0010
0100
0001
0000
1000
0000
0100
0010
0001
0010
0100
0000
,  // measure 61
1000
0000
1010
0000
1010
0000
0010
1000
0000
0010
1000
0000
0000
0000
0000
0000
,  // measure 62
0001
0000
1001
0000
1001
0000
1000
0001
0000
1000
0001
0000
0000
0000
0000
0000
,  // measure 63
0100
0000
0110
0000
0110
0000
0010
0100
0001
0010
0001
0010
0001
0000
0011
0000
,  // measure 64
1010
0000
0000
0000
;
