#TITLE:Put 'Em Up;
#SUBTITLE:;
#ARTIST:Edun;
#TITLETRANSLIT:;
#SUBTITLETRANSLIT:;
#ARTISTTRANSLIT:;
#GENRE:;
#CREDIT:;
#BANNER:Put 'Em Up.png;
#BACKGROUND:Put 'Em Up-bg.png;
#LYRICSPATH:;
#CDTITLE:;
#MUSIC:Put 'Em Up.ogg;
#OFFSET:0.000000;
#SAMPLESTART:47.090000;
#SAMPLELENGTH:15.000000;
#SELECTABLE:YES;
#DISPLAYBPM:130.000000;
#BPMS:0.000000=130.434998
,4.000000=129.992004
;
#STOPS:
;
#BGCHANGES:0.000=Put 'Em Up.avi=1.000=0=0=0=StretchNoLoop====,
99999=-nosongbg-=1.000=0=0=0 // don't automatically add -songbackground-
;
#KEYSOUNDS:;
#ATTACKS:;

//---------------dance-single - ----------------
#NOTES:
     dance-single:
     :
     Beginner:
     1:
     0.089603,0.130228,0.000000,0.000000,0.000000,59.000000,59.000000,0.000000,0.000000,0.000000,0.000000,0.089603,0.130228,0.000000,0.000000,0.000000,59.000000,59.000000,0.000000,0.000000,0.000000,0.000000:
0000
0000
0000
0000
,
0000
0000
0000
0000
,
0000
0000
0000
0000
,
0000
0000
0000
0000
,
0000
0000
0000
0000
,
0000
0000
0000
0000
,
0001
0000
0000
0000
,
0001
0000
0000
0000
,
1000
0000
0000
0000
,
1000
0000
0000
0000
,
0100
0000
0100
0000
,
0000
0000
0000
0000
,
0010
0000
0010
0000
,
0000
0000
0000
0000
,
0001
0000
0000
0000
,
1000
0000
0000
0000
,
0001
0000
0000
0000
,
1000
0000
0000
0000
,
0001
0000
0000
0000
,
0010
0000
0000
0000
,
1000
0000
0000
0000
,
0010
0000
0000
0000
,
0001
0000
0001
0000
,
0100
0000
0000
0000
,
1000
0000
1000
0000
,
0100
0000
0000
0000
,
0001
0001
0000
0000
,
1000
1000
0000
0000
,
1000
0000
0001
0000
,
1000
0000
0000
0000
,
1000
0000
1000
0000
,
0001
0000
0000
0000
,
0001
0000
1000
0000
,
0001
0000
0000
0000
,
1000
1000
0000
0000
,
0001
0001
0000
0000
,
0001
0000
0010
0000
,
1000
0000
0010
0000
,
1000
0000
0000
0000
,
0001
0000
0000
0000
,
0100
0000
0000
0000
,
0010
0000
0000
0000
,
1000
0000
0001
0000
,
1000
0000
1000
0000
,
0001
0000
1000
0000
,
0001
0000
0001
0000
,
0100
0000
0000
0000
,
0010
0000
0000
0000
,
0100
0000
0000
0000
,
0010
0000
0000
0000
,
0000
0000
0000
0000
;

//---------------dance-single - ----------------
#NOTES:
     dance-single:
     :
     Easy:
     4:
     0.159462,0.208364,0.000000,0.021262,0.000000,105.000000,105.000000,0.000000,2.000000,0.000000,0.000000,0.159462,0.208364,0.000000,0.021262,0.000000,105.000000,105.000000,0.000000,2.000000,0.000000,0.000000:
0000
0000
0000
0000
,
0000
0000
0000
0000
,
0000
0000
0000
0000
,
0000
0000
0000
0000
,
0000
0000
0000
0000
,
0000
0000
0000
0000
,
0001
0001
1000
0000
,
1000
1000
0001
0000
,
0001
0000
1000
0000
,
0002
0000
0000
0003
,
0100
0000
1000
0000
,
0010
0000
0010
0000
,
0010
0000
0001
0000
,
0100
0000
0100
0000
,
1000
1000
0001
0000
,
0001
0001
1000
0000
,
1000
0000
0100
0000
,
0001
0000
0000
0000
,
1000
0010
1000
0000
,
0010
0000
0010
0000
,
0001
0010
0001
0000
,
0010
0000
0010
0000
,
1000
0000
0010
0000
,
0100
0000
1000
0000
,
0001
0000
0010
0000
,
0200
0000
0000
0300
,
1000
0001
1000
1000
,
0001
1000
0001
0000
,
1000
1000
0001
0000
,
0001
0001
1000
0000
,
0001
0000
0100
0000
,
0001
0000
0100
0000
,
1000
0000
0100
0000
,
1000
0000
0000
0000
,
0001
1000
0001
0001
,
1000
0001
1000
0000
,
0001
0001
1000
0000
,
1000
1000
0001
0000
,
1000
0000
0010
0000
,
1000
0000
0010
0000
,
0001
0000
0010
0000
,
0001
0000
0010
0000
,
0001
0001
1000
1000
,
0001
0001
0001
0000
,
1000
1000
0001
0001
,
1000
1000
1000
0000
,
0100
0000
0010
0000
,
0100
0000
0010
0000
,
0001
0000
1000
0000
,
0001
0000
0000
0000
,
0000
0000
0000
0000
;

//---------------dance-single - ----------------
#NOTES:
     dance-single:
     :
     Medium:
     6:
     0.268808,0.312547,0.191355,0.074416,0.000000,177.000000,159.000000,18.000000,7.000000,0.000000,0.000000,0.268808,0.312547,0.191355,0.074416,0.000000,177.000000,159.000000,18.000000,7.000000,0.000000,0.000000:
0000
0000
0000
0000
,
0000
0000
0000
0000
,
0000
0000
0000
0000
,
0000
0000
0000
0000
,
0000
0000
0000
0000
,
0000
0000
0000
0000
,
0001
0010
0100
1000
,
0001
0100
0010
1000
,
0001
0100
1000
0100
,
2002
0000
0000
3003
,
0010
0100
0001
0010
,
1100
0000
0100
0100
,
0010
0100
1000
0010
,
0101
0000
0100
0100
,
0001
0100
1000
0100
,
1001
0000
0001
0001
,
1000
0100
0001
0100
,
1000
0001
0110
0000
,
0010
0001
0100
0001
,
0010
1000
0100
1000
,
0002
0010
1000
0103
,
2000
0010
0001
3100
,
0001
0100
0100
0000
0010
0000
0000
0000
,
1000
0100
0100
0000
0010
0000
0000
0000
,
0001
1000
0010
0100
,
2002
0000
0000
3003
,
0110
0110
0001
1000
,
1001
0000
0000
0000
0010
0100
0100
0000
,
0010
1000
0100
0001
,
0100
1000
1010
0000
,
0100
0001
0100
1000
,
0100
0001
0010
1000
,
0100
0001
0100
1000
,
0010
0010
0200
0300
,
0110
0110
1000
0001
,
1001
0000
0000
0000
0010
0100
0100
0000
,
0010
0001
0100
1000
,
0100
0001
0011
0000
,
0100
1000
0100
0001
,
0100
1000
0010
0001
,
0100
1000
0100
0001
,
0010
0010
1001
0000
,
1000
0010
1000
0100
,
0001
0000
0000
0000
0010
0010
0100
0000
,
0001
0010
0001
0100
,
1000
0000
0000
0000
0010
0010
0100
0000
,
1000
0100
1000
1100
,
0001
0100
0001
0101
,
1000
0010
0001
0100
,
1001
0000
0000
0000
,
0000
0000
0000
0000
;

//---------------dance-single - ----------------
#NOTES:
     dance-single:
     :
     Hard:
     9:
     0.416121,0.467624,0.467757,0.138201,0.063785,274.000000,230.000000,44.000000,13.000000,0.000000,0.000000,0.416121,0.467624,0.467757,0.138201,0.063785,274.000000,230.000000,44.000000,13.000000,0.000000,0.000000:
0000
0000
0000
0000
,
0000
0000
0000
0000
,
0000
0000
0000
0000
,
0000
0000
0000
0000
,
0000
0000
0000
0000
,
0000
0000
0000
0000
,
0001
0000
1000
0000
0100
0000
0000
0000
0010
0000
0000
0010
0000
0000
0010
0000
,
0001
0000
0100
0000
1000
0000
0000
0000
0001
0000
0000
0001
0000
0000
0001
0000
,
1000
0000
0010
0000
0100
0000
0000
0000
0010
0000
0000
0010
0000
0000
0010
0000
,
0200
0000
0000
0300
,
0010
1000
0010
0000
0101
0000
1100
0000
,
0010
0001
0010
0000
1100
0000
0101
0000
,
0010
0100
0001
0010
0100
1000
0010
0100
,
0020
0000
0100
0130
,
0001
0100
0001
0000
1010
0000
1100
0000
,
0001
0010
0001
0000
1100
0000
0101
0000
,
1000
0001
0100
0100
0001
1000
0100
0010
,
0001
0100
2002
3003
,
2010
0000
0000
0000
0100
0000
0000
0000
0001
0000
0000
0001
3000
0000
0001
0000
,
0210
0000
0000
0000
0001
0000
0000
0000
1000
0000
0000
1000
0300
0000
1000
0000
,
0102
0000
0000
0000
0010
0000
0000
0000
1000
0000
0000
1000
0003
0000
1000
0000
,
0120
0000
0000
0000
1000
0000
0000
0000
0001
0000
0000
0001
0030
0000
0001
0000
,
0010
0000
1000
0000
0100
0000
0010
0000
0100
0000
0000
0100
0000
0000
0100
0000
,
0010
0000
0001
0000
0100
0000
0010
0000
0100
0000
0000
0100
0000
0000
0100
0000
,
0010
1000
0100
0000
0010
0001
0100
0010
,
2002
0000
0000
3003
,
1100
1100
0011
1100
,
0001
0100
1000
0000
1000
0100
0001
0000
,
0010
0100
1000
0000
0010
0100
0001
0000
,
1000
0100
0001
0001
0100
1000
0010
0000
,
0101
0000
1100
0000
0011
0100
0100
0000
,
1001
0000
0110
0000
1010
0001
0010
0000
,
0100
0001
0100
1000
0100
0100
0001
0100
,
0010
0010
0200
0300
,
0101
0101
1010
0101
,
1000
0100
0001
0000
0001
0100
1000
0000
,
0010
0100
0001
0000
0010
0100
1000
0000
,
0001
0100
1000
1000
0100
0001
0010
0000
,
1100
0000
0101
0000
1010
0100
0100
0000
,
1001
0000
0110
0000
0011
1000
0010
0000
,
0100
1000
0100
0001
0100
0100
1000
0100
,
0010
0100
0220
0330
,
0100
1000
0001
0000
0100
0001
1000
0000
,
0010
0001
0100
0000
0010
1000
0100
0000
,
0001
0100
1000
0100
0010
0000
0001
0000
,
1000
0100
0001
0100
0010
0000
1000
0000
,
0010
0000
0000
0000
0001
0000
0000
0000
0101
0000
0000
0101
0000
0000
1100
0000
,
0000
0000
0010
0000
0001
0000
0000
0000
1010
0000
0000
1010
0000
0000
0101
0000
,
0000
0000
0010
0000
0100
0000
0000
0000
1001
0000
0000
1001
0000
0000
0110
0000
,
0000
0000
0000
0000
;

//---------------dance-double - ----------------
#NOTES:
     dance-double:
     :
     Easy:
     3:
     0.141238,0.208364,0.000000,0.021262,0.000000,93.000000,93.000000,0.000000,2.000000,0.000000,0.000000,0.141238,0.208364,0.000000,0.021262,0.000000,93.000000,93.000000,0.000000,2.000000,0.000000,0.000000:
00000000
00000000
00000000
00000000
,
00000000
00000000
00000000
00000000
,
00000000
00000000
00000000
00000000
,
00000000
00000000
00000000
00000000
,
00000000
00000000
00000000
00000000
,
00000000
00000000
00000000
00000000
,
00001000
00000000
00000001
00000000
,
00000001
00000000
00001000
00000000
,
00001000
00000000
00010000
00000000
,
00002000
00000000
00000000
00003000
,
01000000
00000000
10000000
00000000
,
00100000
00000000
00000000
00000000
,
00100000
00000000
00010000
00000000
,
00001000
00000000
00000000
00000000
,
00000001
00000001
00000100
00000000
,
00001000
00001000
00000100
00000000
,
00001000
00000000
00010000
00000000
,
00001000
00000000
00000000
00000000
,
00010000
01000000
10000000
00000000
,
01000000
00000000
00010000
00000000
,
00001000
00000010
00000001
00000000
,
00000010
00000000
00001000
00000000
,
00000001
00000000
00000010
00000000
,
00000100
00000000
00010000
00000000
,
00001000
00000000
00100000
00000000
,
02000000
00000000
00000000
03000000
,
10000000
10000000
01000000
00000000
,
00010000
00010000
01000000
00000000
,
00010000
00000000
00001000
00000000
,
00000010
00000000
00000001
00000000
,
00001000
00000000
00000100
00000000
,
00000001
00000000
00000100
00000000
,
00000001
00000000
00001000
00000000
,
00010000
00000000
00000000
00000000
,
00100000
00100000
00010000
00000000
,
10000000
10000000
01000000
00000000
,
00010000
00000000
01000000
00000000
,
10000000
00000000
01000000
00000000
,
00010000
00000000
00001000
00000000
,
00000010
00000000
00000001
00000000
,
00001000
00000000
00000010
00000000
,
00000100
00000000
00000000
00000000
,
00000100
00001000
00010000
00000000
,
00001000
00010000
00100000
00000000
,
10000000
10000000
00010000
00010000
,
10000000
00010000
10000000
00000000
,
01000000
00000000
00100000
00000000
,
00001000
00000000
00010000
00000000
,
00000100
00000000
00000010
00000000
,
00001000
00000000
00000000
00000000
,
00000000
00000000
00000000
00000000
;

//---------------dance-double - ----------------
#NOTES:
     dance-double:
     :
     Medium:
     6:
     0.262733,0.312547,0.201986,0.191355,0.000000,173.000000,154.000000,19.000000,18.000000,0.000000,0.000000,0.262733,0.312547,0.201986,0.191355,0.000000,173.000000,154.000000,19.000000,18.000000,0.000000,0.000000:
00000000
00000000
00000000
00000000
,
00000000
00000000
00000000
00000000
,
00000000
00000000
00000000
00000000
,
00000000
00000000
00000000
00000000
,
00000000
00000000
00000000
00000000
,
00000000
00000000
00000000
00000000
,
10000000
01000000
00010000
00001000
,
00100000
00010000
00001000
00000010
,
00000001
00000100
00001000
00000100
,
00002002
00000000
00000000
00003003
,
00000100
00000010
00010000
00001000
,
00110000
00000000
01000000
00100000
,
10000000
00100000
00010000
00001000
,
00011000
00000000
00000100
00000001
,
00000010
00000100
00010000
00001000
,
01010000
00000000
00100000
01000000
,
10000000
01000000
00010000
00001000
,
00000100
00000010
00001001
00000000
,
00000002
00000103
00002000
00013000
,
00200000
10300000
02000000
03010000
,
00002000
00003010
00000002
00000103
,
00002000
00023000
00031000
00000000
,
00020000
00100000
00001000
00130000
,
00002000
00000010
00010000
00003010
,
00000001
00000100
00001000
00010000
,
00022000
00000000
00000000
00033000
,
01100000
01100000
10000000
00010000
,
10010000
00000000
01000000
01000000
,
00010000
00001000
00000100
00000001
,
00000010
00001000
00001001
00000000
,
00000010
00001000
00000010
00001000
,
00100000
00010000
00100000
00010000
,
00100000
10000000
00100000
00010000
,
00001000
00010000
00022000
00033000
,
00000110
00000110
00000001
00001000
,
00001001
00000000
00000010
00000010
,
00001000
00010000
00100000
10000000
,
01000000
00010000
10010000
00000000
,
01000000
00010000
01000000
00010000
,
00000100
00001000
00000100
00001000
,
00000100
00000001
00000100
00001000
,
00010000
00001000
00022000
00033000
,
00010000
01000000
00010000
00100000
,
10000000
00000000
00010000
00010000
,
00001000
00000100
00000001
00000010
,
00000100
00000000
00000010
00000010
,
00001000
00010000
00001000
00110000
,
10000000
00100000
01000000
10010000
,
01000000
00010000
00001000
00000100
,
00001001
00000000
00000000
00000000
,
00000000
00000000
00000000
00000000
;

//---------------dance-double - ----------------
#NOTES:
     dance-double:
     :
     Hard:
     10:
     0.414603,0.467624,0.637850,0.042523,0.090362,273.000000,213.000000,60.000000,4.000000,0.000000,0.000000,0.414603,0.467624,0.637850,0.042523,0.090362,273.000000,213.000000,60.000000,4.000000,0.000000,0.000000:
00000000
00000000
00000000
00000000
,
00000000
00000000
00000000
00000000
,
00000000
00000000
00000000
00000000
,
00000000
00000000
00000000
00000000
,
00000000
00000000
00000000
00000000
,
00000000
00000000
00000000
00000000
,
00001000
00000000
00000001
00000000
00000010
00000000
00000000
00000000
00000100
00000000
00000000
00010000
00000000
00000000
00011000
00000000
,
00000000
00000000
00100000
00000000
10000000
00000000
00000000
00000000
00010000
00000000
00000000
01000000
00000000
00000000
01010000
00000000
,
00000000
00000000
10000000
00000000
01000000
00000000
00000000
00000000
00100000
00000000
00000000
01000000
00000000
00000000
01100000
00000000
,
00020000
00000000
00000000
00030000
,
00001000
00000000
00000100
00000000
00000001
00000000
00000000
00000000
00000010
00000000
00000000
00000010
00000000
00000000
00000010
00000000
,
00000100
00010000
00000010
00000000
00000011
00000000
00001010
00000000
,
00000100
00000000
00000010
00000000
00010000
00000000
00000000
00000000
00001000
00000000
00000000
00100000
00000000
00000000
01000000
00000000
,
20000000
00000000
00010000
30010000
,
00010000
00000000
00100000
00000000
10000000
00000000
00000000
00000000
01000000
00000000
00000000
01000000
00000000
00000000
01000000
00000000
,
00100000
00001000
01000000
00000000
11000000
00000000
01010000
00000000
,
00100000
00000000
01000000
00000000
00001000
00000000
00000000
00000000
00010000
00000000
00000000
00000100
00000000
00000000
00000010
00000000
,
00000001
00000100
00001001
00000000
,
00000000
00000000
00000100
00000000
00000010
00000000
00000000
00000000
00010010
00000000
00000000
00011000
00000000
00000000
00101000
00000000
,
00000000
00000000
00010000
00000000
10000000
00000000
00000000
00000000
00110000
00000000
00000000
01100000
00000000
00000000
11000000
00000000
,
00000000
00000000
00010000
00000000
01000000
00000000
00000000
00000000
00011000
00000000
00000000
00001100
00000000
00000000
00000101
00000000
,
00000000
00000000
00000010
00000000
00000001
00000000
00000000
00000000
00001010
00000000
00000000
00011000
00000000
00000000
00001100
00000000
,
00000000
00000000
00000001
00000000
00000010
00000000
00000000
00000000
00010100
00000000
00000000
00101000
00000000
00000000
10010000
00000000
,
00000000
00000000
01000000
00000000
10000000
00000000
00000000
00000000
10100000
00000000
00000000
00101000
00000000
00000000
01010000
00000000
,
00000000
00000000
00001000
00000000
00010000
00000000
00000000
00000000
00001010
00000000
00000000
00000101
00000000
00000000
00001100
00000000
,
00002002
00000000
00000000
00003003
,
00000110
00000110
00011000
01100000
,
00010000
00001000
00000010
00000000
00001000
00010000
00100000
00000000
,
01000000
10000000
00100000
00000000
00010000
00000000
00001000
00000000
,
00000010
00000100
00001000
00000010
00010000
00001000
00000100
00000000
,
00001010
00000000
00000011
00000000
00001100
00010000
00001000
00000000
,
01100000
00000000
10010000
00000000
01100000
00010000
10000000
00000000
,
00100000
10000000
01000000
00000000
00010000
00000100
00000001
00000000
,
00000010
00000000
00000100
00000100
,
00000110
00000110
00011000
01100000
,
00010000
00001000
00000100
00000000
00001000
00010000
01000000
00000000
,
00100000
10000000
01000000
00000000
00010000
00000000
00001000
00000000
,
00000100
00000010
00001000
00000100
00010000
00001000
00000010
00000000
,
00001100
00000000
00000101
00000000
00001010
00010000
00001000
00000000
,
10100000
00000000
00110000
00000000
11000000
00010000
01000000
00000000
,
01000000
10000000
00100000
00000000
00010000
00000010
00000001
00000000
,
00000100
00000010
00001001
00000000
,
00000001
00000100
00001000
00000000
00010000
01000000
10000000
00000000
,
10000000
00100000
00010000
00000000
00001000
00000010
00000001
00000000
,
00000100
00000010
00010000
00000000
00001000
01000000
00100000
00000000
,
10000000
01000000
00010000
00000000
00001000
00000000
00000001
00000000
,
00000000
00000000
00000100
00000000
00001000
00000000
00000000
00000000
00001010
00000000
00000000
00001100
00000000
00000000
00000011
00000000
,
00000000
00000000
00001000
00000000
00010000
00000000
00000000
00000000
00110000
00000000
00000000
11000000
00000000
00000000
01010000
00000000
,
00000000
00000000
01000000
00000000
00100000
00000000
00000000
00000000
01100000
00000000
00000000
00011000
00000000
00000000
00000110
00000000
,
00000000
00000000
00000000
00000000
;

//---------------dance-single - ----------------
#NOTES:
     dance-single:
     :
     Challenge:
     14:
     0.622663,0.744158,0.393341,0.233878,0.696320,410.000000,373.000000,37.000000,22.000000,100.000000,0.000000,0.622663,0.744158,0.393341,0.233878,0.696320,410.000000,373.000000,37.000000,22.000000,100.000000,0.000000:
// measure 0
0000
0000
0000
0000
,  // measure 1
0000
0000
0000
0000
,  // measure 2
0000
0000
0000
0000
,  // measure 3
0000
0000
0000
0000
,  // measure 4
0000
0000
0000
0000
,  // measure 5
0000
0000
0000
0000
,  // measure 6
1000
0000
0001
1000
0100
0000
MMMM
0000
0110
0000
0001
0010
0000
1000
0010
0000
,  // measure 7
0101
0000
1000
0100
0010
0000
MMMM
0000
0011
0000
1000
0010
0000
0100
0001
0000
,  // measure 8
0110
0000
0001
0010
1000
0000
MMMM
0000
1010
0000
0100
0001
0000
1000
0100
0000
,  // measure 9
0200
0000
0000
0000
0010
0000
0000
0000
0001
0000
0000
0310
0000
0000
MMMM
0000
,  // measure 10
1001
0000
0100
0001
0000
1000
0100
0000
0011
0000
1000
0010
0000
0100
0001
0000
,  // measure 11
0011
0000
0000
0000
MMMM
0000
0000
0000
0110
0000
0000
1010
0000
0000
0101
0000
,  // measure 12
1100
0000
0001
0010
0000
0100
1000
0000
0110
0000
1000
0001
0000
0010
0100
0000
,  // measure 13
0210
0000
0000
0000
0000
0000
0001
0000
0010
0000
0000
1300
0000
0000
MMMM
0000
,  // measure 14
1010
0000
0001
0100
0000
1000
0100
0001
0100
0000
0001
0010
0000
0100
1000
0000
,  // measure 15
1100
0000
0000
0000
MMMM
0000
0000
0000
0110
0000
0000
0011
0000
0000
1010
0000
,  // measure 16
0101
0000
1000
0100
0000
0010
0001
0000
0110
0000
0001
1000
0000
0010
0100
0000
,  // measure 17
1200
0000
0000
0000
0001
0000
0000
0000
0010
0000
0000
1300
0000
0000
MMMM
0000
,  // measure 18
0002
0000
0000
0010
0000
0000
0103
0000
MMMM
0000
1000
0001
0000
0100
0001
0000
,  // measure 19
0020
0000
0000
0000
0130
0000
0001
0010
0100
0000
1000
0100
0000
0010
0001
0000
,  // measure 20
2000
0000
0000
0010
0000
0000
3100
0000
MMMM
0000
0001
0010
0000
1000
0010
0000
,  // measure 21
0200
0000
0000
0000
0310
0000
1000
0010
0100
0000
0001
0100
0000
0010
1000
0000
,  // measure 22
0200
0000
0000
0001
0000
0000
0310
0000
MMMM
0000
0010
1000
0000
0001
0100
0000
,  // measure 23
0020
0000
0100
0000
0031
0000
1000
0100
0001
0000
0010
0001
0000
0100
0010
0000
,  // measure 24
0020
0000
0000
1000
0000
0000
0130
0000
MMMM
0000
0010
0001
0000
1000
0010
0000
,  // measure 25
0210
0001
1300
MMMM
,  // measure 26
1000
0010
1000
0000
1000
0100
1000
0000
1000
0001
1000
0000
0100
0010
1000
0001
,  // measure 27
0010
0000
0100
0000
0001
0000
1000
0000
MMMM
0000
0000
0010
0100
0000
1001
0000
,  // measure 28
0010
0000
0001
0010
0100
0000
1100
0000
0101
0000
0000
0000
1000
0100
0010
0001
,  // measure 29
0200
0000
0310
0000
2000
0000
3001
0010
0100
1000
0100
1000
0100
1000
0100
1000
,  // measure 30
0100
1000
0100
1000
0100
1000
0100
0000
MMMM
0000
0000
0100
0010
0000
1001
0000
,  // measure 31
0010
0000
1000
0100
0010
0000
0010
0001
1000
0010
1000
0010
1000
0010
1000
0010
,  // measure 32
1000
0010
1000
0010
1000
0010
1000
0000
MMMM
0000
0001
0010
0000
0010
1000
0000
,  // measure 33
1010
0000
0000
0101
0000
0000
1000
0000
0200
0000
0300
0000
MMMM
0000
0000
0000
,  // measure 34
0010
0001
1000
0000
0010
1000
0100
0000
0010
0001
0100
0000
0001
0100
0010
1000
,  // measure 35
0200
0000
2300
0000
3200
0000
0310
0000
MMMM
0000
0000
0010
0100
0000
0011
0000
,  // measure 36
0100
0000
1000
0100
0010
0000
1001
0000
MMMM
0000
0000
0100
0010
0000
1001
0000
,  // measure 37
0100
0000
0010
1000
0100
0000
0100
0001
0010
0001
0010
0001
0010
0001
0010
0001
,  // measure 38
0010
0001
0010
0001
0010
0001
0010
0000
MMMM
0000
0000
0010
0100
0000
1010
0000
,  // measure 39
0100
0001
0010
0001
0100
0000
1000
0100
0010
0100
1000
0100
0010
0100
1000
0100
,  // measure 40
0010
0100
1000
0100
0010
0000
FFFF
0000
1001
0000
0000
0110
0000
0000
1001
0000
,  // measure 41
0200
0000
0000
0000
0320
0000
0000
0000
0230
0000
0000
0000
0301
0010
1000
0010
,  // measure 42
0100
0000
0000
0000
MMMM
0000
0000
0000
1000
0100
0010
0000
0001
0010
1000
0100
,  // measure 43
0010
0000
0001
0000
0100
0000
1000
0000
MMMM
0000
0000
1000
0010
0000
0101
0000
,  // measure 44
1000
0000
0010
0001
0100
0000
0010
0000
1000
0000
0001
0100
0000
1000
0100
0000
,  // measure 45
0001
0000
0010
0001
0100
0000
0010
0000
MMMM
0000
0001
0100
0000
1000
0100
0000
,  // measure 46
0010
0000
1000
0010
0100
0000
0001
0000
MMMM
0000
0100
0001
0000
1000
0100
0000
,  // measure 47
0010
0000
1000
0001
0010
0000
0100
0000
MMMM
0000
0010
1000
0000
0100
1000
0000
,  // measure 48
0100
0000
0001
0010
1000
0000
0100
0000
0010
0000
1000
0001
0000
0200
0002
0000
,  // measure 49
0000
0000
0000
0000
,  // measure 50
0303
0000
0000
0000
;
