#TITLE:ポリリズム;
#SUBTITLE:;
#ARTIST:Pink Lemonade;
#TITLETRANSLIT:PORIRIZUMU;
#SUBTITLETRANSLIT:;
#ARTISTTRANSLIT:;
#GENRE:;
#CREDIT:;
#BANNER:PORIRIZUMU.png;
#BACKGROUND:PORIRIZUMU-bg.png;
#LYRICSPATH:;
#CDTITLE:;
#MUSIC:PORIRIZUMU.ogg;
#OFFSET:0.000000;
#SAMPLESTART:33.758999;
#SAMPLELENGTH:15.000000;
#SELECTABLE:YES;
#BPMS:0.000000=128.113998
,4.000000=128.000000
;
#STOPS:
;
#BGCHANGES:;
#KEYSOUNDS:;
#ATTACKS:;

//---------------dance-single - ----------------
#NOTES:
     dance-single:
     :
     Beginner:
     1:
     0.098482,0.149939,0.025852,0.000000,0.000000,80.000000,77.000000,3.000000,0.000000,0.000000,0.000000,0.098482,0.149939,0.025852,0.000000,0.000000,80.000000,77.000000,3.000000,0.000000,0.000000,0.000000:
0000
0000
0000
0000
,
0000
0000
0000
0000
,
0000
0000
0000
0000
,
0000
0000
0000
0000
,
0000
0000
0000
0000
,
0000
0000
0000
0000
,
0001
0000
0000
0000
,
0000
0000
0000
0000
,
1000
0000
0000
0000
,
0000
0000
0000
0000
,
0001
0000
0000
0000
,
0001
0000
0000
0000
,
1000
0000
0000
0000
,
1000
0000
0000
0000
,
0001
0000
0000
0000
,
1000
0000
0000
0000
,
1001
0000
0000
0000
,
0000
0000
0000
0000
,
0001
0000
0001
0000
,
0001
0000
0000
0000
,
1000
0000
1000
0000
,
1000
0000
0000
0000
,
0001
0000
0001
0000
,
0001
0000
0000
0000
,
1000
0000
1000
0000
,
1000
0000
0000
0000
,
0001
0000
1000
0000
,
0001
0000
0000
0000
,
1000
0000
0001
0000
,
1000
0000
0000
0000
,
1000
0000
0001
0000
,
1000
0000
0001
0000
,
1000
0000
1000
0000
,
0001
0000
0001
0000
,
1001
0000
0000
0000
,
0000
0000
0000
0000
,
0001
0000
1000
0000
,
0001
0000
0001
0001
,
0001
0000
0000
0000
,
0001
0000
0000
0000
,
1000
0000
0001
0000
,
1000
0000
1000
1000
,
1000
0000
0000
0000
,
0000
0000
0000
0000
,
0001
0000
1000
0000
,
0001
0000
0001
0001
,
0001
0000
0000
0000
,
0001
0000
0000
0000
,
1000
0000
0001
0000
,
1000
0000
1000
0000
,
0001
0000
0001
0000
,
1000
0000
1000
0000
,
0001
0000
0001
0000
,
1000
0000
1000
0000
,
0001
0000
1000
0000
,
0001
0000
1000
0000
,
0001
0000
1000
0000
,
0001
0000
1000
0000
,
1001
0000
0000
0000
,
0000
0000
0000
0000
;

//---------------dance-single - ----------------
#NOTES:
     dance-single:
     :
     Easy:
     4:
     0.157572,0.249899,0.103406,0.094789,0.000000,128.000000,116.000000,12.000000,11.000000,0.000000,0.000000,0.157572,0.249899,0.103406,0.094789,0.000000,128.000000,116.000000,12.000000,11.000000,0.000000,0.000000:
0000
0000
0000
0000
,
0000
0000
0000
0000
,
0000
0000
0000
0000
,
0000
0000
0000
0000
,
0000
0000
0000
0000
,
0000
0000
0000
0000
,
0100
0000
0000
0000
,
0001
0000
0000
0000
,
1000
0000
0000
0000
,
1001
0000
0000
0000
,
2000
0000
3000
0000
,
0002
0000
0003
0000
,
2000
0000
3000
0000
,
0010
0000
0100
0000
,
0020
0000
0030
0000
,
0100
0010
0010
0200
,
0000
0000
0000
0300
,
0000
0000
0000
1001
,
0000
0001
0000
1000
,
0000
0001
0000
1000
,
0020
0000
0030
0000
,
1001
0000
0000
0000
,
1000
0100
0001
0000
,
1000
0100
0001
0000
,
0001
0001
1000
1000
,
1001
0000
1001
0000
,
0000
0001
0000
1000
,
0000
0001
0000
1000
,
0020
0000
0030
0000
,
1001
0000
0000
0000
,
1000
0100
0001
0000
,
1000
0100
0001
0000
,
0001
0001
1000
1000
,
0100
0000
0000
1001
,
0001
2000
0000
3000
,
0000
0000
0000
0000
,
0001
1000
0001
1000
,
0001
0000
0000
1001
,
1000
0002
0000
0003
,
0000
0000
0000
0000
,
1000
0001
1000
0001
,
1000
0000
0000
1001
,
0010
0200
0000
0300
,
0000
0000
0000
0000
,
0010
0100
0010
0100
,
0010
0000
0000
0110
,
0100
0020
0000
0030
,
0000
0000
0000
0000
,
0100
0010
0100
0010
,
0100
0000
0000
1001
,
1000
1000
1000
0001
,
0001
1000
1000
1000
,
0010
0010
1000
1000
,
1000
0100
0100
1000
,
1000
1000
0001
0001
,
1000
1000
1000
0001
,
0001
1000
1000
0001
,
0001
0100
0100
0100
,
1001
0000
0000
0000
,
0000
0000
0000
0000
;

//---------------dance-single - ----------------
#NOTES:
     dance-single:
     :
     Medium:
     8:
     0.305295,0.352120,0.103406,0.206813,0.000000,248.000000,236.000000,12.000000,24.000000,0.000000,0.000000,0.305295,0.352120,0.103406,0.206813,0.000000,248.000000,236.000000,12.000000,24.000000,0.000000,0.000000:
0000
0000
0000
0000
,
0000
0000
0000
0000
,
0000
0000
0000
0000
,
0000
0000
0000
0000
,
0000
0000
0000
0000
,
0000
0000
0000
0000
,
2000
0010
0100
0010
,
3002
0010
0100
0010
,
2003
0010
3200
0010
,
2300
0010
3200
0310
,
1002
0010
0100
0010
,
2003
0010
0100
0010
,
3001
0001
1000
1000
,
0002
0000
2003
0000
,
3002
0010
0203
0010
,
0302
0010
0203
0310
,
2002
0000
0000
3003
,
0000
0000
0000
1001
,
0010
0000
0100
0000
0010
0000
0100
1000
,
0100
0000
0010
0000
0100
0000
0010
0001
,
0010
1000
0100
0001
,
0010
0000
0100
0000
0010
0100
0010
0100
,
0010
0000
0100
0000
0010
0000
0001
0100
,
0001
0000
0010
0000
0100
0000
1000
0010
,
1000
0001
0010
1000
,
0100
0000
0001
0000
1000
0001
1000
0001
,
1000
1100
0001
0101
,
0010
0000
0010
0000
0001
0100
1000
0000
,
0020
0000
0100
0130
,
0001
0000
1000
0000
0001
0010
0100
1000
,
0001
0011
1000
1010
,
0100
0000
0100
0000
0001
0100
1000
0000
,
0020
0000
0100
0130
,
0001
0000
1000
0000
1000
0100
0010
0001
,
1000
0100
0010
0100
,
0001
0100
0010
0100
,
2000
0100
3020
0100
,
2030
0000
0100
0000
3010
0100
0010
0100
,
0001
0100
0010
0100
,
1000
0100
0010
0100
,
0002
0100
0023
0100
,
0032
0000
0100
0000
0013
0100
0010
0100
,
0010
0000
0110
0000
0000
1000
0000
1000
,
0000
0010
0001
0000
0000
0100
0000
0100
,
0000
1000
0010
0000
0000
0001
0000
0001
,
0000
0010
0100
0000
1000
0000
0001
0000
,
1000
0000
1001
0000
0000
0001
0000
0010
,
0000
0010
0100
0000
0000
1000
0000
0100
,
0000
0100
0001
0000
0000
0010
0000
1000
,
0000
0001
0010
0000
0110
0000
1001
0000
,
1000
0000
1000
0100
0010
0001
0000
0001
,
0010
0100
1000
0000
1000
0010
0100
0001
,
0000
0001
0100
0010
1000
0000
1000
0100
,
0010
0001
0000
0001
0010
0100
1000
0000
,
1000
0010
0100
0001
0000
0001
0100
0010
,
1000
0000
1000
0100
0010
0001
0100
0000
,
0100
1000
0000
1000
0010
0000
0010
0001
,
0000
0001
0100
0000
0100
1000
0000
1000
,
0000
0100
0010
0110
0000
0000
0000
0000
,
0000
0000
0000
0000
;

//---------------dance-single - ----------------
#NOTES:
     dance-single:
     :
     Hard:
     10:
     0.455480,0.452726,0.405008,0.120641,0.000000,370.000000,323.000000,47.000000,14.000000,0.000000,0.000000,0.455480,0.452726,0.405008,0.120641,0.000000,370.000000,323.000000,47.000000,14.000000,0.000000,0.000000:
0000
0000
0000
0000
,
0000
0000
0000
0000
,
0000
0000
0000
0000
,
0000
0000
0000
0000
,
0000
0000
0000
0000
,
0000
0000
0000
0000
,
2100
0000
0001
0000
3010
1000
0100
0000
,
0012
0000
1000
0000
0103
0001
0010
0000
,
2100
0010
3002
0100
,
1003
0100
0001
0010
,
1000
0100
1000
0000
0100
0001
0100
0000
,
0001
0010
0001
0000
0010
1000
0010
0000
,
1000
0100
0010
0000
0101
0010
1000
0000
,
0001
0010
0100
0000
1010
0100
0001
0000
,
1100
0000
0101
0000
0010
1000
0100
0000
,
0101
0000
0011
0000
1000
0100
0001
0000
,
2002
0000
0000
3003
,
0110
0000
1001
0000
0010
1001
1001
0000
,
1001
0000
0001
0100
1000
0000
0011
0000
,
1000
0100
0001
0000
0010
0100
0100
0010
,
1100
0000
1000
0100
0001
0000
1100
0000
,
0001
0010
1000
0000
0010
0100
0100
0010
,
0101
0000
0001
0010
0100
0000
1010
0000
,
1000
0010
0100
0000
0010
0100
0100
0010
,
0011
0000
0001
0100
0010
0000
0101
0000
,
1000
0100
0010
0000
0010
0100
0100
0010
,
1001
0000
0100
0100
0010
1000
0100
0001
,
0100
1000
0001
1000
0010
0100
0010
0100
,
0110
0000
0001
0001
1000
0100
0010
0001
,
0100
0010
1000
0100
0001
1000
0010
0100
,
0110
0000
1000
0100
0010
0100
0001
0100
,
1000
0001
0010
1000
0001
0100
0010
0100
,
0110
0000
1000
0001
0010
0010
0100
1000
,
2002
0000
3003
0110
,
1100
0000
0010
0000
0001
0100
0010
0001
,
0001
0000
1010
0000
0100
1000
0010
0100
,
0100
0000
0011
0000
1000
0010
0100
1000
,
1000
0000
1001
0000
0010
0001
0100
0001
,
0010
0000
0110
0000
0001
0100
0010
0001
,
0001
0000
1010
0000
0100
1000
0010
0100
,
0100
0000
0011
0000
1000
0010
0100
1000
,
1000
0000
1001
0000
0010
0001
0101
0000
,
1000
0000
0201
0000
0310
0001
1000
0010
,
1000
0000
0021
0000
0130
0001
0100
1000
,
0001
0000
2100
0000
3010
0001
1000
0100
,
0001
1000
1000
0001
0100
0010
0100
0010
,
0001
0000
2010
0000
3100
0010
0001
0100
,
0001
0000
0210
0000
1300
0010
0100
0001
,
1000
0000
0021
0000
0130
1000
0001
0010
,
1000
0101
1010
1001
,
1000
0100
0001
0100
1000
1000
0010
0001
,
0010
1000
0001
0100
1000
0100
0001
0001
,
0010
1000
0010
0001
1000
0100
0001
0100
,
1000
1000
0010
0001
0010
1000
0001
0100
,
1000
0100
0001
0001
0010
1000
0010
0001
,
1000
0100
0001
0100
1000
1000
0100
0010
,
1000
0100
0010
1000
0100
0010
1000
0100
,
0010
1000
0100
0010
1000
0100
0010
1000
,
0100
0010
0001
1001
0000
0000
0000
0000
,
0000
0000
0000
0000
;

//---------------dance-double - ----------------
#NOTES:
     dance-double:
     :
     Easy:
     4:
     0.146492,0.199919,0.068938,0.180961,0.000000,119.000000,111.000000,8.000000,21.000000,0.000000,0.000000,0.146492,0.199919,0.068938,0.180961,0.000000,119.000000,111.000000,8.000000,21.000000,0.000000,0.000000:
00000000
00000000
00000000
00000000
,
00000000
00000000
00000000
00000000
,
00000000
00000000
00000000
00000000
,
00000000
00000000
00000000
00000000
,
00000000
00000000
00000000
00000000
,
00000000
00000000
00000000
00000000
,
00000010
00000000
00000000
00000000
,
00010000
00000000
00000000
00000000
,
00001000
00000000
00000000
00000000
,
00100000
00000000
00000000
00000000
,
00002000
00000000
00003000
00000000
,
00000200
00000000
00000300
00000000
,
00020000
00000000
00030000
00000000
,
00200000
00300000
02000000
03000000
,
00002000
00000000
00003000
00000000
,
00010000
00001000
00000100
00020000
,
00000000
00000000
00000000
00030000
,
00000000
00000000
00000000
00011000
,
00000000
00001000
00000000
00010000
,
00000000
00001000
00000000
00020000
,
00002000
00000000
00033000
00000000
,
00011000
00000000
01000000
00000000
,
10000000
01000000
00010000
00000000
,
10000000
01000000
00010000
00000000
,
00001000
00001000
00010000
00010000
,
00002000
00000000
00103000
00000000
,
00000000
00001000
00000000
00010000
,
00000000
00001000
00000000
00020000
,
00002000
00000000
00033000
00000000
,
00011000
00000000
00000100
00000000
,
00001000
00000100
00000001
00000000
,
00001000
00000100
00000001
00000000
,
00001000
00001000
00010000
00010000
,
00002000
00000000
00000000
00013000
,
00010000
02000000
00000000
03000000
,
00100000
20000000
00000000
30000000
,
00010000
10000000
00010000
10000000
,
00010000
00000000
00000000
00011000
,
00001000
00000200
00000000
00000300
,
00000010
00000002
00000000
00000003
,
00001000
00000001
00001000
00000001
,
00001000
00000000
00000000
00011000
,
00100000
02000000
00000000
03000000
,
10000000
00020000
00000000
00030000
,
00100000
00001000
00100000
00001000
,
00100000
00000000
00000000
00011000
,
00000100
00000020
00000000
00000030
,
00000001
00002000
00000000
00003000
,
00000100
00010000
00000100
00010000
,
00000100
00000000
00000000
00011000
,
00100000
00000000
01000000
00000000
,
10000000
00000000
00100000
00000000
,
00010000
00000000
00001000
00000000
,
00000100
00000000
00000001
00000000
,
00000010
00000000
00001000
00000000
,
00010000
00000000
00100000
00000000
,
10000000
00000000
00010000
00000000
,
00001000
00000000
00000010
00000010
,
00001001
00000000
00000000
00000000
,
00000000
00000000
00000000
00000000
;

//---------------dance-double - ----------------
#NOTES:
     dance-double:
     :
     Medium:
     9:
     0.288061,0.326269,0.112024,0.198196,0.000000,234.000000,221.000000,13.000000,23.000000,0.000000,0.000000,0.288061,0.326269,0.112024,0.198196,0.000000,234.000000,221.000000,13.000000,23.000000,0.000000,0.000000:
00000000
00000000
00000000
00000000
,
00000000
00000000
00000000
00000000
,
00000000
00000000
00000000
00000000
,
00000000
00000000
00000000
00000000
,
00000000
00000000
00000000
00000000
,
00000000
00000000
00000000
00000000
,
00000020
00000001
00000100
00001030
,
00200000
00010000
01000000
10300000
,
02000000
10000000
00100000
03010000
,
00000200
00001000
00000010
00000301
,
00000020
00010000
00002030
00010000
,
00003020
00010000
00002030
00010000
,
00003010
00001000
00010000
00100000
,
10000000
01000000
00010000
10010000
,
02000000
00001000
03020000
00001000
,
02030000
00001000
03020000
00031000
,
00022000
00000000
00000000
00033000
,
00000000
00000000
00000000
00011000
,
00011000
00001000
00000100
00000010
,
00000001
00000010
00000100
00001100
,
00001000
00010000
00100000
01000000
,
10000000
00000000
01000000
00000000
00100000
01000000
00010000
00000000
,
00001000
00010000
00001000
00000100
,
00000010
00000100
00000010
00000011
,
00000010
00000100
00010000
00001000
,
00010000
00001000
00100000
01100000
,
10010000
00000000
00100000
00000000
00001000
00000000
00100000
00010000
,
00000000
00010000
00100000
00000000
10000000
00000000
11000000
00000000
,
01000000
00000000
00010000
00000000
00001000
00000000
00000010
00000001
,
00000000
00000001
00000010
00000000
00000001
00000100
00000001
00000000
,
00000100
00000000
00001000
00000000
00010000
00000000
00001000
00010000
,
00000000
00010000
00001000
00000000
00100000
00000000
01100000
00000000
,
01000000
10000000
01000000
00100000
,
02000000
00000000
00100000
03100000
,
01100000
00000000
00010000
00000000
00001000
00010000
00001000
00000000
,
00000100
00000001
00000010
00001000
,
00000100
00000000
00001000
00000000
00010000
00001000
00010000
00000000
,
01000000
10000000
00100000
00010000
,
01000000
00000000
00100000
00000000
00001000
00010000
00001000
00000000
,
00000010
00000001
00000100
00001000
,
00000010
00000000
00001000
00000000
00010000
00001000
00010000
00000000
,
00100000
10000000
01000000
00010000
,
00200000
00001000
00320000
00001000
,
00230000
00001000
00320000
00001000
,
00130000
10000000
01000000
00010000
,
00001000
00000000
00000001
00000000
00000010
00000100
00000010
00000000
,
00000200
00010000
00002300
00010000
,
00003200
00010000
00002300
00010000
,
00003100
00000001
00000010
00001000
,
00010000
10000000
00100000
01100000
,
00100000
00000000
10000000
00000000
01000000
00010000
00000000
00100000
,
00000000
10000000
01000000
00000000
00010000
00000000
00001000
00000010
,
00000000
00000001
00000000
00000100
00001000
00000000
00000010
00000000
,
00000001
00000100
00000000
00001000
00000000
00010000
00100000
00000000
,
10000000
00000000
01000000
00010000
00000000
00100000
00000000
10000000
,
01000000
00000000
00010000
00000000
00001000
00010000
00001000
00000000
,
00000100
00000001
00000000
00000001
00000010
00000000
00000010
00001000
,
00000000
00001000
00010000
00000000
00010000
01000000
00000000
01000000
,
10000000
10010000
00000000
00000000
,
00000000
00000000
00000000
00000000
;

//---------------dance-double - ----------------
#NOTES:
     dance-double:
     :
     Hard:
     11:
     0.441939,0.452726,0.370540,0.163727,0.000000,359.000000,316.000000,43.000000,19.000000,0.000000,0.000000,0.441939,0.452726,0.370540,0.163727,0.000000,359.000000,316.000000,43.000000,19.000000,0.000000,0.000000:
00000000
00000000
00000000
00000000
,
00000000
00000000
00000000
00000000
,
00000000
00000000
00000000
00000000
,
00000000
00000000
00000000
00000000
,
00000000
00000000
00000000
00000000
,
00000000
00000000
00000000
00000000
,
00102000
00000000
00010000
00000000
01003000
00010000
00100000
00000000
,
11000000
00000000
00100000
00000000
00001000
00010000
00000100
00000000
,
00000012
00000000
00001000
00000000
00000103
00000001
00000010
00000000
,
00001100
00000000
00000010
00000000
00000001
00000100
00001000
00000000
,
00010000
00001000
00010000
00001000
00100000
00010000
01000000
00000000
,
00100000
10000000
00100000
10000000
01000000
00010000
00001000
00000000
,
00000100
00000001
00000100
00000001
00000010
00000100
00010000
00000000
,
00011000
00001100
00011000
00110000
,
01000000
10000000
00100000
00000000
00010000
00001000
00000100
00000000
,
00000001
00000010
00000100
00000000
00010000
00001000
00101000
00000000
,
02200000
00000000
00000000
03300000
,
10010000
00000000
00011000
00000000
00001000
00000001
00001001
00000000
,
00000110
00000000
00000001
00000010
00010000
00000000
00010000
00001000
,
00100000
00000000
01100000
00000000
10000000
01000000
00100000
00000000
,
00011000
00000000
00001000
00000010
00000001
00000000
00000100
00000001
,
00000010
00000000
00000110
00000000
00000001
00000100
00001000
00010000
,
00011000
00000000
01000000
10000000
00100000
00000000
01000000
00010000
,
00100000
00000000
00011000
00000000
00000100
00000010
00000001
00000000
,
00000110
00000000
00001000
00010000
00001000
00000000
00100000
10000000
,
01000000
00000000
01100000
00000000
00010000
00001000
00000100
00000010
,
00000110
00000000
00000100
00001000
00020000
00000000
00001000
00230000
,
00001000
00000000
01300000
10000000
01000000
00010000
01000000
10000000
,
01000000
00000000
00010000
00100000
00002000
00000000
00010000
00003200
,
00010000
00000000
00000301
00000010
00001000
00000010
00000001
00000010
,
00001000
00000000
00010000
00001000
00020000
00000000
00100000
00032000
,
00100000
00000000
00013000
00001000
00000100
00001000
00010000
01000000
,
10000000
00000000
00100000
01000000
00100000
00000000
01100000
00000000
,
20020000
00000000
00000000
00000000
00030000
30010000
10010000
00100000
,
02100000
00000000
10000000
00000000
03100000
10000000
01000000
00010000
,
00001000
00000000
00012000
00000000
00003100
00000001
00000010
00000100
,
00000010
00000000
00001002
00000000
00000103
00000001
00000100
00001000
,
00010000
00000000
00021000
00000000
00030100
00010000
00001000
00100000
,
01000000
00000000
01200000
00000000
10300000
00100000
00010000
01000000
,
00100000
00000000
20100000
00000000
31000000
00100000
00001000
00010000
,
00000100
00000000
00000210
00000000
00001300
00000100
00000010
00000001
,
00001000
00000100
00000100
00001000
00000100
00010000
00000100
00010000
,
00011000
00000000
00101000
00000000
01000000
00000000
10000000
01000000
,
00010000
00000000
00010100
00000000
00001000
00000000
00000001
00000010
,
00000100
00000000
00011000
00000000
00100000
00000000
10000000
00010000
,
01000000
00000000
10100000
00000000
00001000
00000100
00000010
00000001
,
00000100
00000000
00000011
00000000
00001000
00000000
00000100
00010000
,
00100000
00000000
11000000
00000000
00010000
00000000
00000010
00000100
,
00000001
00000000
00001100
00000000
00000010
00000000
00010000
01000000
,
00100000
00000000
11000000
00000000
00010000
00001000
00011000
00000000
,
00001000
00010000
00100000
00010000
00001000
00001000
00000100
00000010
,
00000100
00001000
00010000
01000000
00100000
01000000
00010000
00010000
,
00001000
00000010
00001000
00010000
00001000
00000100
00000001
00000100
,
00001000
00001000
00010000
01000000
00010000
00001000
00010000
00100000
,
10000000
00100000
00010000
00010000
00001000
00000010
00001000
00010000
,
00001000
01000000
10000000
01000000
00001000
00001000
00010000
00010000
,
00001000
00100000
00100000
00010000
00001000
00001000
00010000
00000100
,
00000100
00001000
00000010
00000010
00001000
00010000
00010000
10000000
,
00010000
00001000
00000001
00001001
00000000
00000000
00000000
00000000
,
00000000
00000000
00000000
00000000
;

//---------------dance-single - ----------------
#NOTES:
     dance-single:
     :
     Challenge:
     15:
     0.677066,0.849548,0.310219,0.318836,0.659216,550.000000,514.000000,36.000000,37.000000,128.000000,0.000000,0.677066,0.849548,0.310219,0.318836,0.659216,550.000000,514.000000,36.000000,37.000000,128.000000,0.000000:
// measure 0
0000
0000
0000
0000
,  // measure 1
0000
0000
0000
0000
,  // measure 2
0000
0000
0000
0000
,  // measure 3
0000
0000
0000
0000
,  // measure 4
0000
0000
0000
0000
,  // measure 5
0000
0000
0000
0000
,  // measure 6
2100
0000
0000
0000
3010
0000
0100
0000
0001
0000
MMMM
0000
0010
0001
1000
0000
,  // measure 7
1020
0000
0000
0000
0031
0000
0010
0000
0001
0000
MMMM
0000
1000
0100
0010
0000
,  // measure 8
0012
0000
0000
0000
1003
0000
0100
0000
1000
0000
MMMM
0000
0100
0010
1000
0000
,  // measure 9
1100
0000
MMMM
0000
0011
0000
MMMM
0000
0101
0000
MMMM
0000
1010
0000
0010
0001
,  // measure 10
1000
0100
0001
0100
1000
0100
0001
MMMM
,  // measure 11
1000
0010
0001
0010
1000
0010
0001
MMMM
,  // measure 12
0001
0100
1000
0100
0001
0100
1000
MMMM
,  // measure 13
1001
MMMM
1010
MMMM
1100
MMMM
0101
0000
,  // measure 14
0210
0000
0000
0000
0301
0000
0010
0000
1000
0000
MMMM
0000
0010
0100
0001
0000
,  // measure 15
0120
0000
0000
0000
1030
0000
0100
0000
0010
0000
MMMM
0000
0100
0010
0100
0000
,  // measure 16
2002
0000
3003
MMMM
,  // measure 17
1001
0000
0000
0000
1001
0000
0000
0000
1001
0000
0001
0000
0010
0001
0100
0001
,  // measure 18
2000
0000
3001
0100
0001
0000
0010
0000
0100
0000
1000
0100
MMMM
1000
0100
0000
,  // measure 19
0010
0000
0001
0010
0001
0000
0100
0000
0001
0000
1000
0100
0020
0000
0100
0000
,  // measure 20
0230
0000
0310
0001
0010
0000
1000
0000
0100
0000
0010
0001
MMMM
0010
0001
0000
,  // measure 21
0100
0000
0010
1000
0010
0000
0100
0000
0010
0000
0001
0100
0020
0000
1000
0000
,  // measure 22
2030
0000
3001
0010
0001
0000
0010
0000
0100
0000
1000
0001
MMMM
1000
0001
0000
,  // measure 23
0010
0000
0100
0010
0100
0000
0010
0000
1000
0000
0100
0010
0002
0000
0100
0000
,  // measure 24
0203
0000
0310
1000
0010
0000
0100
0000
0010
0000
0001
0100
MMMM
0001
0100
0000
,  // measure 25
0010
0000
1000
0010
0100
0001
1000
0100
0010
0000
0110
0000
1000
0001
1000
0001
,  // measure 26
0020
0000
0000
0130
0010
0000
0001
0000
0100
0000
0000
0101
0000
0000
1100
0000
,  // measure 27
1000
0000
0001
0100
0001
0000
0010
0000
1000
0000
0010
1000
0200
0000
0001
0000
,  // measure 28
0302
0000
0000
1003
0001
0000
0010
0000
0100
0000
0000
1010
0000
0000
0011
0000
,  // measure 29
0001
0000
0100
0000
2000
0000
3100
0000
0002
0000
0013
0000
2000
0001
3010
0001
,  // measure 30
2000
0000
0000
3010
0100
0000
0010
0000
0001
0000
0000
0101
0000
0000
1001
0000
,  // measure 31
1000
0000
0001
0100
0001
0000
0010
0000
1000
0000
0010
1000
0020
0000
0001
0000
,  // measure 32
0032
0000
0000
1003
0100
0000
0010
0000
1000
0000
0000
1100
0000
0000
0101
0000
,  // measure 33
0100
0000
0010
0000
1000
0000
0001
0000
0010
0001
0100
0001
1000
0000
MMMM
0000
,  // measure 34
0100
0001
0100
0001
0100
0001
0100
0000
0010
0000
1000
0001
0100
0000
MMMM
0000
,  // measure 35
0001
1000
0001
1000
0001
1000
0001
0000
0010
0000
0100
0010
1000
0000
MMMM
0000
,  // measure 36
1000
0100
1000
0100
1000
0100
1000
0000
0100
0000
0010
0100
0001
0000
MMMM
0000
,  // measure 37
0010
0000
1000
0100
1000
0000
0001
0010
0001
0000
1000
0010
0001
0100
1000
0000
,  // measure 38
0010
0100
0010
0100
0010
0100
0010
0000
0100
0000
0001
0010
1000
0000
MMMM
0000
,  // measure 39
0001
0010
0001
0010
0001
0010
0001
0000
0010
0000
0100
0001
1000
0000
MMMM
0000
,  // measure 40
1000
0010
1000
0010
1000
0010
1000
0000
0100
0000
0001
0100
1000
0000
MMMM
0000
,  // measure 41
0100
0000
0001
0100
0001
0000
1000
0010
1000
0000
0001
0100
1000
0010
0001
0000
,  // measure 42
0100
0000
0101
0000
0001
0000
1001
0000
MMMM
0000
1000
0010
0100
0001
0010
0000
,  // measure 43
0001
0000
0101
0000
0100
0000
1100
0000
MMMM
0000
1000
0100
0010
0001
0100
0000
,  // measure 44
0001
0000
0011
0000
0010
0000
1010
0000
MMMM
0000
1001
0011
0000
0110
0101
0000
,  // measure 45
0100
1000
0100
0001
0100
1000
0100
0000
0001
0000
0010
0001
0100
0010
1000
0000
,  // measure 46
0020
0000
1030
0000
0020
0000
0031
0000
MMMM
0000
0002
0010
0103
0000
0020
0000
,  // measure 47
2030
0000
3100
0000
0020
0000
0031
0000
MMMM
0000
0200
0001
0310
0000
0002
0000
,  // measure 48
2003
0000
3010
0000
0200
0000
0301
0000
MMMM
0000
0020
0100
1030
0000
0002
0000
,  // measure 49
0103
0010
1000
0100
0010
0001
0100
0010
1000
0100
1000
0100
0010
0001
0010
0001
,  // measure 50
1000
0100
0010
0100
1000
0100
0010
0100
1000
0000
0100
0010
0001
0010
0100
0010
,  // measure 51
0001
0010
0100
0000
1000
0100
0001
0100
1000
0100
0001
0100
1000
0000
0001
0010
,  // measure 52
1000
0010
0001
0010
1000
0010
0001
0000
1000
0010
0100
0010
1000
0010
0100
0010
,  // measure 53
1000
0000
0001
0100
0010
0100
0001
0100
0010
0100
0001
0000
1000
0010
0100
0010
,  // measure 54
0001
0010
0100
0010
1000
0000
0001
0100
0010
0100
1000
0100
0010
0100
0001
0000
,  // measure 55
1000
0100
0001
0100
1000
0010
0001
0010
1000
0000
0001
0000
0010
0000
0100
0000
,  // measure 56
1000
0010
0001
0100
1000
0100
0001
0010
1000
0010
0001
0100
1000
0100
0001
0010
,  // measure 57
1000
0010
0001
0100
1000
0100
0001
0010
1000
0010
0001
0100
1000
0100
0001
0010
,  // measure 58
0100
1000
0200
0002
0000
0000
0000
0000
,  // measure 59
0000
0000
0000
0303
;
