#TITLE:Polovtsian Dances And Chorus;
#SUBTITLE:;
#ARTIST:Naoto Suzuki feat. Martha;
#TITLETRANSLIT:;
#SUBTITLETRANSLIT:;
#ARTISTTRANSLIT:;
#GENRE:;
#CREDIT:;
#BANNER:Polovtsian Dances And Chorus.png;
#BACKGROUND:Polovtsian Dances And Chorus-bg.png;
#LYRICSPATH:;
#CDTITLE:;
#MUSIC:Polovtsian Dances And Chorus.ogg;
#OFFSET:0.000000;
#SAMPLESTART:69.019997;
#SAMPLELENGTH:15.000000;
#SELECTABLE:YES;
#BPMS:0.000000=146.000000
;
#STOPS:
;
#BGCHANGES:0.000=Polovtsian Dances And Chorus.avi=1.000=0=0=0=StretchNoLoop====,
99999=-nosongbg-=1.000=0=0=0 // don't automatically add -songbackground-
;
#KEYSOUNDS:;
#ATTACKS:;

//---------------dance-single - ----------------
#NOTES:
     dance-single:
     :
     Beginner:
     3:
     0.144834,0.196008,0.009656,0.038622,0.000000,105.000000,104.000000,1.000000,4.000000,0.000000,0.000000,0.144834,0.196008,0.009656,0.038622,0.000000,105.000000,104.000000,1.000000,4.000000,0.000000,0.000000:
0000
0000
0000
0000
,
0000
0000
0000
0000
,
0000
0000
0000
0000
,
0000
0000
0000
0000
,
0000
0000
0000
0000
,
0000
0000
0000
0000
,
1000
0000
1000
0000
,
0001
0000
0001
0000
,
0100
0000
0100
0000
,
0010
0000
0010
0000
,
0001
0000
0000
0000
,
1000
0000
0000
0000
,
1000
1000
0000
0000
,
1000
0000
0001
0000
,
0001
0001
0000
0000
,
0001
0000
1000
0000
,
0001
0000
0001
0000
,
0100
0000
0100
0000
,
0010
0010
0000
0000
,
1000
1000
0000
0000
,
0001
0001
0000
0000
,
0100
0100
0000
0000
,
1000
1000
0000
0000
,
0001
0001
0000
0000
,
0010
0000
0010
0000
,
0100
0000
0100
0000
,
2000
0000
0000
3000
,
0000
1000
1000
0000
,
0002
0000
0000
0003
,
0000
0001
0001
0000
,
0200
0000
0000
0300
,
0000
0100
0100
0000
,
0020
0000
0000
0030
,
0000
0010
0010
0000
,
1000
0000
0001
0000
,
0100
0000
1000
0000
,
0001
0000
1000
0000
,
0100
0000
0001
0000
,
1000
0000
0001
0000
,
0100
0000
0010
0000
,
0100
0100
0100
0000
,
0100
0000
0010
0000
,
1000
1000
0000
0000
,
1000
0000
1000
0000
,
0010
0010
0000
0000
,
0010
0000
0010
0000
,
0100
0100
0000
0000
,
0100
0000
0100
0000
,
0001
0001
0000
0000
,
0001
0000
0001
0000
,
1000
1000
1000
0000
,
0001
0001
0001
0000
,
0100
0100
0100
0000
,
0010
0010
0010
0000
,
0100
0000
0100
0000
,
0010
0000
0010
0000
,
1000
0000
0001
0000
,
0001
0000
1000
0000
,
1001
0000
0000
0000
,
0000
0000
0000
0000
;

//---------------dance-single - ----------------
#NOTES:
     dance-single:
     :
     Easy:
     4:
     0.208285,0.252011,0.019311,0.086900,0.000000,151.000000,149.000000,2.000000,9.000000,0.000000,0.000000,0.208285,0.252011,0.019311,0.086900,0.000000,151.000000,149.000000,2.000000,9.000000,0.000000,0.000000:
0000
0000
0000
0000
,
0000
0000
0000
0000
,
0000
0000
0000
0000
,
0000
0000
0000
0000
,
0000
0000
0000
0000
,
0000
0000
0000
0000
,
0001
0001
1000
0000
,
1000
1000
0001
0000
,
1000
0001
1000
0000
,
0100
0100
0010
0010
,
0100
0001
0010
0000
,
0010
1000
0010
0000
,
1000
0100
1000
0000
,
0001
0100
0001
0000
,
1000
1000
0001
0000
,
0001
0001
1000
0000
,
0010
0100
1000
0000
,
0000
0000
1000
1000
,
0100
1000
0010
0000
,
0010
0001
0010
0000
,
0001
0100
0001
0000
,
1000
0100
1000
0000
,
0001
0010
0001
0000
,
1000
0010
1000
0000
,
0010
0100
0001
0000
,
0000
0000
0000
0000
,
1001
0000
0001
0001
,
0010
0000
1000
1000
,
0010
0000
0001
0000
,
1000
0001
1000
0000
,
0001
0001
0100
0000
,
1000
1000
0100
0000
,
0010
0100
0001
0100
,
0010
0100
0100
0000
,
2000
0000
3200
0000
,
0320
0000
0031
0010
,
0002
0000
0203
0000
,
0320
0000
1030
0010
,
2000
0000
3002
0000
,
0023
0000
0031
0001
,
0100
0000
1000
0000
,
0010
0000
0001
0000
,
1000
0001
1000
0000
,
0001
1000
0001
0000
,
0010
0100
0010
0000
,
0100
0010
0100
0000
,
0001
0100
0001
0000
,
1000
0100
1000
0000
,
0001
0010
0100
0000
,
0000
0000
0010
0010
,
0001
0010
0001
0000
,
1000
0010
1000
0000
,
0010
0100
0010
0000
,
0100
0001
0100
0000
,
0010
0001
0010
0000
,
0001
1000
0001
0000
,
0010
0100
1000
0000
,
0010
1000
0100
0001
,
1001
0000
0000
0000
,
0000
0000
0000
0000
;

//---------------dance-single - ----------------
#NOTES:
     dance-single:
     :
     Medium:
     9:
     0.325531,0.392017,0.077245,0.366912,0.000000,236.000000,228.000000,8.000000,38.000000,0.000000,0.000000,0.325531,0.392017,0.077245,0.366912,0.000000,236.000000,228.000000,8.000000,38.000000,0.000000,0.000000:
0000
0000
0000
0000
,
0000
0000
0000
0000
,
0000
0000
0000
0000
,
0000
0000
0000
0000
,
0000
0000
0000
0000
,
0000
0000
0000
0000
,
0001
0000
0010
0000
0100
1000
0100
0000
,
1000
0000
0001
0000
0100
0001
0100
0000
,
0010
1000
0001
0100
,
0010
0100
0010
0000
1000
0001
1000
0000
,
0200
2300
3002
0000
,
0000
0000
1003
0000
0100
1000
0100
0000
,
0010
0001
0100
0000
0010
1000
0010
0000
,
1000
0001
0010
0001
,
0200
0302
2003
0000
,
0000
0000
3001
0000
1000
0001
0100
0000
,
0001
0100
0001
0000
1000
0010
1000
0000
,
1000
0001
0010
0000
0100
0000
1000
0000
,
0200
0320
0032
0000
,
0000
0000
0013
0000
0001
0010
0001
0000
,
1000
0010
1000
0000
0001
0100
0001
0000
,
0010
0001
1000
0001
,
0200
0320
2030
0000
,
0000
3100
0001
1000
,
0001
0100
1000
0000
0100
0000
0001
0000
,
1000
0001
1000
0000
,
0002
0100
0203
0001
,
1000
0302
0023
0230
,
1300
0001
1000
0000
0001
1000
0010
0000
,
0010
1000
0002
0000
2003
0000
3020
0000
,
0230
0001
1300
0100
,
0001
0020
2030
3002
,
0103
1000
0010
0000
1000
0001
0010
0000
,
1000
1000
0001
0010
,
0002
0010
2003
0010
,
0001
3200
0320
0031
,
0010
0001
0010
0000
0100
1000
0100
0000
,
1000
0001
1000
0000
0001
0100
0001
0000
,
0200
0001
0301
0020
,
1000
2030
3002
0103
,
0010
1000
0001
0000
0010
0000
1000
0000
,
0100
0001
1000
0010
,
1000
0001
0102
0000
,
1003
0000
0001
0100
0010
0000
0010
0000
,
1000
0100
0020
0000
0000
0000
0000
0000
,
0031
1000
0010
0001
,
1000
0001
2010
0000
,
0000
0000
3001
0100
0010
0000
0010
0000
,
1000
0010
0200
0000
0000
0000
0000
0000
,
0301
1000
0100
0001
,
0100
1000
0012
0000
,
0103
0000
0001
0100
0010
0000
0010
0000
,
1000
0100
0010
0000
0001
0010
1000
0000
,
1000
1100
1010
1001
,
0100
0010
2001
0000
,
3010
0000
0100
1000
0001
0000
0100
0000
,
0001
0100
0010
0000
0010
1000
0100
0000
,
0100
1000
0001
0000
0100
0001
0010
0000
,
1001
0000
0000
0000
,
0000
0000
0000
0000
;

//---------------dance-single - ----------------
#NOTES:
     dance-single:
     :
     Hard:
     11:
     0.470365,0.476020,0.125523,0.038622,0.082072,341.000000,328.000000,13.000000,4.000000,0.000000,0.000000,0.470365,0.476020,0.125523,0.038622,0.082072,341.000000,328.000000,13.000000,4.000000,0.000000,0.000000:
0000
0000
0000
0000
,
0000
0000
0000
0000
,
0000
0000
0000
0000
,
0000
0000
0000
0000
,
0000
0000
0000
0000
,
0000
0000
0000
0000
,
0010
0000
0000
0000
0001
0000
0000
1000
0000
0000
0100
0000
0001
0000
0000
1000
,
0000
0000
0010
0000
0001
0000
0000
0100
0000
0000
0010
0000
1000
0000
0000
0000
,
0010
0000
0000
0000
0100
0000
0000
1000
0000
0000
0100
0000
0001
0000
0000
0010
,
0000
0000
0100
0000
1000
0000
0000
0100
0000
0000
0010
0000
0001
0000
0000
0000
,
1100
1001
0102
0000
,
1003
0001
0100
0000
0001
0000
1000
0000
,
0010
0100
0010
0000
0010
1000
0010
0000
,
0100
0001
0100
0000
0100
0010
0100
0000
,
0011
1001
2100
0000
,
3010
1000
0001
0000
1000
0000
0001
0000
,
0100
0010
0100
0000
0100
0001
0100
0000
,
0010
1000
0010
0000
0010
0100
0010
0000
,
1010
0011
1200
0000
,
0310
0001
1000
0000
0001
0000
0100
0001
,
1000
0001
1000
0000
0001
1000
0001
0000
,
1000
0100
1000
0000
0001
0100
0001
0000
,
1100
0101
2010
0000
,
3100
1000
0001
0000
0010
0000
0001
1000
,
0100
0010
0100
0000
0010
0100
0010
0000
,
1000
0010
1000
0000
0001
0010
0001
0000
,
1000
0010
0100
0001
0010
0100
1000
0000
,
0001
0010
0100
1000
0010
0100
0001
0000
,
0100
0010
1000
0100
1000
0001
0100
0000
,
0010
0100
0001
0010
0001
1000
0100
0000
,
0010
0001
1000
0001
0100
1000
0100
0010
,
1000
0100
0010
0001
0100
0001
0100
0010
,
1000
0001
0100
0000
1000
0100
1000
0000
,
0100
0001
0100
0000
0001
0010
0001
0000
,
1000
0000
0100
1000
0100
0000
0000
0000
0010
0000
0001
0010
0001
0000
0000
0000
,
0100
0000
0010
0100
0010
0000
0000
0000
1000
0000
0100
0000
0100
0000
0000
0000
,
0001
0000
0100
0001
0100
0000
0000
0000
0010
0000
1000
0010
1000
0000
0000
0000
,
0100
0000
0010
0100
0010
0000
0000
0000
0001
0000
0100
0000
0100
0000
0000
0000
,
0100
0000
0001
0010
0001
0000
0000
0000
0100
0000
0010
1000
0010
0000
0000
0000
,
0100
0000
0001
1000
0001
0000
0000
0000
0010
0000
0100
0000
0100
0000
0000
0000
,
0100
1000
0000
0001
0000
0100
0000
0010
,
1000
0000
0000
0000
,
0001
1000
0100
0001
0100
0010
0001
1000
,
0100
0010
0100
1000
0010
0100
0001
0000
,
0100
0001
0010
1000
0010
0100
1000
0001
,
0010
0100
0010
0001
0100
0010
1000
0000
,
0100
1000
0010
0100
0001
0010
1000
0010
,
0001
0100
0010
1000
0001
0100
0010
0000
,
1000
0100
0010
0000
0001
0100
0010
0000
,
0010
0100
1000
0100
0001
0100
1000
0000
,
0001
1000
0010
0001
1000
0100
0001
0010
,
1000
0001
0100
1000
0010
0100
0001
0010
,
0100
1000
0010
0001
0010
0100
1000
0100
,
0001
0010
0100
1000
0001
0000
1000
0000
,
0100
1000
0001
0000
0100
0001
1000
0000
,
0001
0000
0010
0001
0010
0000
0001
0000
1000
0000
0010
0000
1000
0000
0000
0000
,
0001
0100
0010
0000
1000
0100
0010
0000
,
0001
0000
0100
0010
0100
0000
0010
0000
1000
0000
0100
0000
0010
0000
0000
0000
,
1001
0000
0000
0000
,
0000
0000
0000
0000
;

//---------------dance-double - ----------------
#NOTES:
     dance-double:
     :
     Easy:
     5:
     0.208285,0.252011,0.019311,0.086900,0.000000,151.000000,149.000000,2.000000,9.000000,0.000000,0.000000,0.208285,0.252011,0.019311,0.086900,0.000000,151.000000,149.000000,2.000000,9.000000,0.000000,0.000000:
00000000
00000000
00000000
00000000
,
00000000
00000000
00000000
00000000
,
00000000
00000000
00000000
00000000
,
00000000
00000000
00000000
00000000
,
00000000
00000000
00000000
00000000
,
00000000
00000000
00000000
00000000
,
00000010
00000010
00000001
00000000
,
00000100
00000100
00001000
00000000
,
00010000
00010000
00100000
00000000
,
00100000
00100000
10000000
10000000
,
01000000
00010000
00001000
00000000
,
00010000
00001000
00010000
00000000
,
00000010
00001000
00000010
00000000
,
00000100
00000001
00000100
00000000
,
00000001
00001000
00000010
00000000
,
00000010
00010000
00001000
00000000
,
00001000
00100000
00010000
00000000
,
00000000
00000000
01000000
01000000
,
10000000
01000000
10000000
00000000
,
01000000
00100000
01000000
00000000
,
00010000
00001000
00010000
00000000
,
00001000
00010000
00001000
00000000
,
00000100
00001000
00000100
00000000
,
00000001
00000010
00000001
00000000
,
00000100
00000010
00000010
00000000
,
00000000
00000000
00000000
00000000
,
00000110
00000000
00001000
00001000
,
00010000
00000000
00010000
00010000
,
00100000
00000000
01000000
00000000
,
10000000
00010000
10000000
00000000
,
00010000
00010000
00100000
00000000
,
10000000
10000000
01000000
00000000
,
01000000
00010000
00001000
00010000
,
00001000
00001000
00000100
00000000
,
00000002
00000000
00000023
00000000
,
00000230
00000000
00001300
00000010
,
00000200
00000000
00002300
00000000
,
00023000
00000000
00031000
01000000
,
00200000
00000000
20300000
00000000
,
32000000
00000000
13000000
10000000
,
01000000
00000000
00100000
00000000
,
01000000
00000000
00010000
00000000
,
00010000
00010000
00001000
00000000
,
00000010
00000100
00000010
00000000
,
00000001
00000100
00000001
00000000
,
00001000
00000010
00001000
00000000
,
00000010
00010000
00001000
00000000
,
00010000
00001000
00010000
00000000
,
00001000
00001000
00010000
00000000
,
00000000
00000000
00100000
00100000
,
10000000
00100000
10000000
00000000
,
01000000
10000000
01000000
00000000
,
00010000
00001000
00010000
00000000
,
00001000
00010000
00001000
00000000
,
00000100
00001000
00000100
00000000
,
00000010
00000100
00000010
00000000
,
00001000
00000010
00001000
00000000
,
00001000
00000001
00000100
00000001
,
00001001
00000000
00000000
00000000
,
00000000
00000000
00000000
00000000
;

//---------------dance-double - ----------------
#NOTES:
     dance-double:
     :
     Medium:
     9:
     0.337945,0.448019,0.115867,0.376568,0.000000,245.000000,233.000000,12.000000,39.000000,0.000000,0.000000,0.337945,0.448019,0.115867,0.376568,0.000000,245.000000,233.000000,12.000000,39.000000,0.000000,0.000000:
00000000
00000000
00000000
00000000
,
00000000
00000000
00000000
00000000
,
00000000
00000000
00000000
00000000
,
00000000
00000000
00000000
00000000
,
00000000
00000000
00000000
00000000
,
00000000
00000000
00000000
00000000
,
10000000
00000000
01000000
00000000
00100000
00010000
00100000
00000000
,
00001000
00000000
00010000
00000000
00000010
00001000
00000010
00000000
,
00000100
00000001
00001000
00000010
,
00000100
00000010
00000100
00000000
00000001
00001000
00000001
00000000
,
00000020
00002030
00023000
00000000
,
00031000
00010000
00100000
00000000
10000000
00000000
00100000
00000000
,
01000000
00010000
00100000
00000000
01000000
00000000
10000000
00000000
,
01000000
10000000
00100000
00010000
,
00002000
00003020
00000230
00000000
,
00000000
00001300
00000001
00000100
,
00001000
00010000
00001000
00000000
00100000
00001000
00100000
00000000
,
00010000
10000000
01000000
00000000
00100000
00000000
00010000
00000000
,
00200000
02300000
23000000
00000000
,
00000000
00000000
31000000
10000000
01000000
00000000
00010000
00000000
,
00001000
00010000
00001000
00000000
00010000
00001000
00000010
00000000
,
00000001
00000010
00000100
00000000
00001000
00000000
00000001
00000000
,
00000200
00002300
00023000
00000000
,
00031000
00000000
00100000
00001000
00010000
00000000
00010000
01000000
,
10000000
01000000
10000000
00000000
10000000
01000000
00010000
00000000
,
00001000
00001000
00010000
00000000
,
00002000
00000010
00003020
00001000
,
00000001
00000032
00000203
00002300
,
00013000
00001000
00010000
00000000
00001000
00010000
01000000
00000000
,
01000000
10000000
00020000
00000000
20030000
00000000
30200000
00000000
,
20300000
00100000
30020000
00100000
,
10000000
02030000
03020000
20030000
,
30100000
10000000
01000000
00000000
00010000
00001000
00000100
00000000
,
00000010
00001000
00000001
00000100
,
00000002
00000010
00002003
00000010
,
00000001
00003200
00000320
00000031
,
00000100
00000001
00000100
00000000
00000100
00001000
00000100
00000000
,
00001000
00010000
00001000
00000000
00010000
00100000
00010000
00000000
,
00200000
10000000
10300000
02000000
,
00010000
03020000
00032000
00103000
,
01000000
00010000
00001000
00000000
00000100
00000000
00000001
00000000
,
00000010
00001000
00010000
01000000
,
10000000
00010000
20100000
00000000
,
30010000
00000000
10000000
00100000
01000000
00000000
01000000
00000000
,
00010000
00100000
02000000
00000000
00000000
00000000
00000000
00000000
,
03010000
00001000
00000010
00000001
,
00000100
00000001
00000012
00000000
,
00001003
00000000
00000001
00000100
00000010
00000000
00000010
00000000
,
00001000
00000010
00000200
00000000
00000000
00000000
00000000
00000000
,
00001300
00010000
00100000
10000000
,
00110000
10010000
21000000
00000000
,
30100000
00000000
10000000
00100000
01000000
00000000
01000000
00000000
,
00010000
00100000
01000000
00000000
10000000
01000000
00010000
00000000
,
00010000
00110000
00101000
00011000
,
00010010
00001010
00001200
00000000
,
00000310
00000000
00000100
00001000
00000001
00000000
00000100
00000000
,
00001000
00010000
01000000
00000000
01000000
10000000
00100000
00000000
,
00100000
00010000
00001000
00000000
00001000
00010000
00001000
00000000
,
00011000
00000000
00000000
00000000
,
00000000
00000000
00000000
00000000
;

//---------------dance-double - ----------------
#NOTES:
     dance-double:
     :
     Hard:
     11:
     0.471744,0.476020,0.019311,0.000000,0.028967,342.000000,340.000000,2.000000,0.000000,0.000000,0.000000,0.471744,0.476020,0.019311,0.000000,0.028967,342.000000,340.000000,2.000000,0.000000,0.000000,0.000000:
00000000
00000000
00000000
00000000
,
00000000
00000000
00000000
00000000
,
00000000
00000000
00000000
00000000
,
00000000
00000000
00000000
00000000
,
00000000
00000000
00000000
00000000
,
00000000
00000000
00000000
00000000
,
00010000
00000000
00000000
00000000
00001000
00000000
00000000
00010000
00000000
00000000
00001000
00000000
00000010
00000000
00000000
00000100
,
00000000
00000000
00010000
00000000
00001000
00000000
00000000
00000100
00000000
00000000
00000001
00000000
00000010
00000000
00000000
00000000
,
00001000
00000000
00000000
00000000
00010000
00000000
00000000
01000000
00000000
00000000
00010000
00000000
00001000
00000000
00000000
00010000
,
00000000
00000000
00100000
00000000
10000000
00000000
00000000
01000000
00000000
00000000
00010000
00000000
00001000
00000000
00000000
00000000
,
00010000
00000000
00001000
00010000
00000100
00001000
00000010
00000100
,
00000001
00000000
00000010
00000001
00001000
00000100
00010000
00001000
,
01000000
00100000
10000000
00000000
00100000
01000000
00010000
00000000
,
10000000
00000000
01000000
00010000
00000000
00010000
00001000
00000000
,
00010000
01000000
00100000
10000000
00100000
00010000
01000000
00001000
,
00010000
00000000
00000010
00001000
00000100
00000001
00000100
00000010
,
00001000
00010000
00001000
00000000
00000010
00001000
00000010
00000000
,
00000001
00000000
00000100
00001000
00000000
00001000
00010000
00000000
,
00001000
00010000
00100000
10000000
00100000
01000000
10000000
00000000
,
01000000
00010000
10000000
00000000
01000000
00010000
00001000
00000000
,
00010000
00001000
00000010
00000001
00000010
00000100
00000001
00000000
,
00000100
00001000
00000001
00000000
00000100
00001000
00010000
00000000
,
00001000
00010000
00100000
00010000
00001000
00100000
00010000
00000000
,
10000000
01000000
00100000
00001000
00010000
00000100
00010000
00000000
,
00001000
01000000
00001000
00000000
00010000
00000010
00010000
00000000
,
00000010
00000000
00001000
00000100
00000000
00000100
00000010
00000000
,
00000011
00000000
00000010
00000001
00000100
00001000
00010000
00000100
,
00010000
00000000
00001000
01000000
00001000
00010000
00100000
10000000
,
01000000
00100000
00010000
00000000
01000000
00001000
01000000
00000000
,
00100000
00000000
10000000
01000000
00000000
01000000
00100000
00000000
,
00010000
10000000
01000000
00000000
00100000
00001000
00010000
00000000
,
00000010
00010000
00001000
00000000
00000100
00000000
00000010
00000000
,
00010000
00001000
00000100
00000001
00001000
00000100
00010000
00000000
,
00001000
00010000
01000000
10000000
00010000
01000000
00001000
00000000
,
00010000
00001000
00000010
00000000
00000010
00001000
00010000
00000000
,
00001000
00010000
01000000
10000000
01000000
00100000
10000000
00000000
,
00100000
00010000
10000000
00000000
00100000
00010000
00001000
00000000
,
00010000
00001000
00000100
00001000
00010000
00000100
00001000
00000000
,
00000010
00000100
00000010
00001000
00000001
00000010
00000100
00001000
,
00000010
00010000
00001000
00010000
01000000
00010000
00001000
00010000
,
00100000
10000000
01000000
00000000
00010000
00001000
00000010
00000000
,
00000001
00000100
00001000
00000000
00010000
00100000
00010000
00001000
,
00100000
00000000
00010000
00000000
10000000
00100000
00010000
00001000
,
00010000
01000000
00100000
01000000
00010000
00001000
00000100
00000010
,
00000100
00001000
00010000
00000000
00001000
00000000
00010000
00100000
,
01000000
00000000
00001000
00100000
00010000
00100000
00001000
00000000
,
00010000
00001000
00010000
00000100
00001000
00000010
00000001
00000010
,
00000100
00000000
00001000
00000100
00000001
00001000
00000100
00000010
,
00001000
00010000
00000100
00000000
00010000
00001000
00100000
00000000
,
00010000
10000000
01000000
00000000
00100000
00010000
01000000
00100000
,
00010000
00001000
00100000
00010000
00100000
01000000
00010000
00001000
,
00010000
00000000
00001000
00010000
00000100
00001000
00000001
00000100
,
00001000
00010000
00000100
00000000
00010000
00001000
01000000
00000000
,
00001000
00010000
00000010
00000000
00010000
00001000
00100000
00010000
,
01000000
00100000
00010000
00100000
10000000
01000000
00010000
00001000
,
00100000
00001000
00010000
00000100
00001000
00000001
00000010
00001000
,
00000010
00000100
00001000
00000000
00000010
00000100
00001000
00000000
,
00010000
00100000
01000000
00000000
00010000
00100000
01000000
00000000
,
10010000
00000000
00000000
00000000
,
00000000
00000000
00000000
00000000
;

//---------------dance-single - ----------------
#NOTES:
     dance-single:
     :
     Challenge:
     18:
     1.164188,1.064046,0.096556,0.096556,2.013190,844.000000,834.000000,10.000000,10.000000,0.000000,0.000000,1.164188,1.064046,0.096556,0.096556,2.013190,844.000000,834.000000,10.000000,10.000000,0.000000,0.000000:
// measure 0
0000
0000
0000
0000
,  // measure 1
0000
0000
0000
0000
,  // measure 2
0000
0000
0000
0000
,  // measure 3
0000
0000
0000
0000
,  // measure 4
0000
0000
0000
0000
,  // measure 5
0000
0000
0000
0000
,  // measure 6
1000
0100
0010
0001
1000
0010
0100
0001
1000
0100
0010
0001
1000
0010
0100
0001
,  // measure 7
1000
0100
0010
0100
1000
0001
0100
0001
1000
0100
0010
0100
1000
0001
0010
0001
,  // measure 8
0100
0010
1000
0010
0100
0001
0010
0001
0100
0010
1000
0001
0010
0001
0100
0010
,  // measure 9
1000
0001
0100
0010
1000
0100
0010
0001
1000
0010
0100
0001
0010
0001
0100
0010
,  // measure 10
1000
0001
0010
0100
1000
0001
0100
0010
1000
0100
0010
0001
1000
0010
0100
0001
,  // measure 11
1000
0100
0010
0001
0010
0100
1000
0001
0100
0010
1000
0001
0010
1000
0010
0001
,  // measure 12
0100
0010
1000
0001
0100
0010
1000
0001
0010
1000
0010
0001
0100
0010
1000
0010
,  // measure 13
0100
0001
1000
0100
0010
0001
0100
0010
1000
0001
0100
0010
1000
0100
0010
0001
,  // measure 14
0100
0010
1000
0001
0010
0100
0001
1000
0100
0010
1000
0001
0100
0010
0001
1000
,  // measure 15
0010
0100
0001
0010
1000
0100
0010
0001
1000
0010
0100
0001
1000
0100
0010
0001
,  // measure 16
0100
0010
1000
0001
0010
0001
0100
0010
1000
0001
0010
1000
0001
0100
0010
1000
,  // measure 17
0001
0100
0010
1000
0001
0010
1000
0100
0001
1000
0010
0100
0001
0010
1000
0001
,  // measure 18
0100
0010
1000
0001
0010
0001
1000
0010
0001
0100
1000
0001
0100
1000
0001
1000
,  // measure 19
0100
0010
0001
1000
0010
0100
0001
1000
0010
0001
0100
0010
1000
0001
0100
0010
,  // measure 20
1000
0001
0100
0010
1000
0001
0010
0100
1000
0010
0100
0001
1000
0100
0010
0001
,  // measure 21
1000
0010
0001
0100
0010
0001
1000
0010
0100
0001
0010
0001
0100
1000
0010
0100
,  // measure 22
0001
0010
0001
0100
0010
1000
0001
0010
1000
0100
0010
0001
1000
0010
0100
0001
,  // measure 23
1000
0100
0010
0001
0100
0010
1000
0001
0010
0100
1000
0001
0100
0010
1000
0001
,  // measure 24
0010
0001
0100
0010
1000
0001
0100
0010
1000
0001
0010
0001
0100
0010
1000
0001
,  // measure 25
0010
1000
0100
0001
1000
0010
0100
0001
1000
0010
0100
0001
1000
0100
0010
0001
,  // measure 26
2000
3010
0100
0001
0010
1000
0100
0010
0002
1003
0100
0010
0001
0100
0010
1000
,  // measure 27
0002
0103
0010
1000
0100
0010
1000
0001
0200
0310
1000
0100
0010
0001
0100
0010
,  // measure 28
2000
3010
0100
0001
1000
0100
0010
0001
0020
0031
0100
1000
0001
0100
0010
1000
,  // measure 29
0200
0310
0001
1010
0200
0310
1000
0100
0020
0031
0100
0010
2000
3010
0100
0001
,  // measure 30
1001
1000
0010
0100
0001
1000
0100
0010
0011
0100
0010
1000
0001
0010
0100
0001
,  // measure 31
1001
1000
0001
0100
0010
1000
0100
0001
1001
1000
0010
0100
0001
0010
0001
0100
,  // measure 32
0110
0010
1000
0010
0001
0100
0010
1000
1010
0010
0100
0001
1000
0100
0010
0001
,  // measure 33
0101
0010
1000
0001
0010
0100
0001
1000
0110
0010
0001
1000
0010
0100
0001
0010
,  // measure 34
0110
1000
0010
0100
0001
1000
0010
0001
0010
0100
1000
0010
0100
0001
1000
0100
,  // measure 35
0010
0001
1000
0010
0001
0100
1000
0001
0100
1000
0010
0100
0001
1000
0100
0010
,  // measure 36
0001
0010
0100
1000
0001
0010
1000
0100
0010
0001
0100
0010
1000
0001
0010
0100
,  // measure 37
1000
0001
0100
0010
1000
0100
0010
0001
1000
0010
0001
0100
1000
0010
0100
0001
,  // measure 38
1000
0100
0010
0001
0100
0010
1000
0001
0010
0100
0001
1000
0100
0010
0001
1000
,  // measure 39
0010
0001
0100
0010
1000
0100
0010
0001
1000
0010
0100
0001
1000
0100
0010
0001
,  // measure 40
1000
0010
0100
0001
1000
0100
0010
0001
1000
0010
0001
0100
1000
0010
0001
1000
,  // measure 41
0010
0001
1000
0001
0010
1000
0001
0010
1000
0001
0100
1000
0001
0100
1000
0100
,  // measure 42
0010
0001
1000
0001
0010
0001
1000
0001
0100
0001
1000
0001
0100
0001
1000
0001
,  // measure 43
0010
1000
0100
1000
0010
1000
0100
1000
0001
1000
0100
1000
0001
1000
0100
1000
,  // measure 44
0001
0010
1000
0010
0001
0010
1000
0010
0001
0100
0010
0100
0001
0100
0010
0100
,  // measure 45
1000
0100
0001
0100
1000
0100
0001
0100
1000
0100
0010
0100
1000
0100
0010
0100
,  // measure 46
1000
0010
0100
0001
1000
0001
0100
0010
1000
0001
0010
0001
0100
0010
1000
0001
,  // measure 47
0010
1000
0100
0010
0001
1000
0010
0100
0001
0010
0001
0100
0010
1000
0001
0010
,  // measure 48
0100
1000
0010
0100
0001
1000
0100
0010
0001
0100
0010
1000
0001
0010
1000
0100
,  // measure 49
0010
0001
1000
0010
0100
0001
1000
0010
0100
0001
1000
0010
0001
0100
0010
1000
,  // measure 50
0001
0010
0100
0001
0010
0100
0001
0010
0100
1000
0010
0100
1000
0010
0100
1000
,  // measure 51
0010
0100
0001
0010
0100
0001
0010
0100
0001
1000
0100
0001
1000
0100
0001
1000
,  // measure 52
0100
0010
0001
1000
0010
0001
1000
0100
0001
1000
0100
0001
0010
0100
1000
0001
,  // measure 53
0100
0010
1000
0001
0010
0100
1000
0001
0100
0010
1000
0001
0010
0100
0001
1000
,  // measure 54
0010
0001
0100
0010
1000
0010
0001
0100
1000
0100
0001
0010
0100
0001
1000
0010
,  // measure 55
0100
0001
0010
1000
0001
0010
0100
1000
0001
0100
1000
0010
0001
0100
0010
1000
,  // measure 56
0001
0100
0010
1000
0001
0100
0010
1000
0100
0010
0001
0100
0010
1000
0001
0100
,  // measure 57
0010
0000
1000
0000
0100
0000
0010
0000
0001
0000
0100
0000
0010
0000
1000
0000
0001
0000
0010
0000
1000
0000
0100
0000
0010
0000
0001
0000
0100
0010
1000
0000
,  // measure 58
0100
0000
0000
0000
;
