#TITLE:Pocketful Of Sunshine;
#SUBTITLE:;
#ARTIST:Natasha Bedingfield;
#TITLETRANSLIT:;
#SUBTITLETRANSLIT:;
#ARTISTTRANSLIT:;
#GENRE:;
#CREDIT:;
#BANNER:Pocketful Of Sunshine.png;
#BACKGROUND:Pocketful Of Sunshine-bg.png;
#LYRICSPATH:;
#CDTITLE:;
#MUSIC:Pocketful Of Sunshine.ogg;
#OFFSET:0.000000;
#SAMPLESTART:62.455002;
#SAMPLELENGTH:15.000000;
#SELECTABLE:YES;
#DISPLAYBPM:110.000000;
#BPMS:0.000000=109.599998
,4.000000=110.000000
;
#STOPS:
;
#BGCHANGES:0.000=Pocketful Of Sunshine.avi=1.000=0=0=0=StretchNoLoop====,
99999=-nosongbg-=1.000=0=0=0 // don't automatically add -songbackground-
;
#KEYSOUNDS:;
#ATTACKS:;

//---------------dance-single - ----------------
#NOTES:
     dance-single:
     :
     Beginner:
     1:
     0.074290,0.107972,0.000000,0.000000,0.000000,59.000000,59.000000,0.000000,0.000000,0.000000,0.000000,0.074290,0.107972,0.000000,0.000000,0.000000,59.000000,59.000000,0.000000,0.000000,0.000000,0.000000:
0000
0000
0000
0000
,
0000
0000
0000
0000
,
0000
0000
0000
0000
,
0000
0000
0000
0000
,
0000
0000
0000
0000
,
1000
0000
0000
0000
,
0010
0000
0000
0000
,
1000
0000
0000
0000
,
0000
0000
0000
0000
,
0001
0000
0000
0000
,
0010
0000
0000
0000
,
0001
0000
0000
0000
,
0000
0000
0000
0000
,
1000
0000
0000
0000
,
1000
0000
0000
0000
,
0100
0000
0000
0000
,
0100
0000
0000
0000
,
0001
0000
0000
0000
,
0001
0000
0000
0000
,
0100
0000
0000
0000
,
0100
0000
0000
0000
,
1000
0000
0000
0000
,
0100
0000
0000
0000
,
1000
0000
0000
0000
,
0100
0000
0000
0000
,
0001
0000
0000
0000
,
0100
0000
0000
0000
,
0001
0000
0000
0000
,
0100
0000
0000
0000
,
1000
0000
1000
0000
,
1000
0000
1000
0000
,
0100
0000
0100
0000
,
0100
0000
0100
0000
,
0001
0000
0001
0000
,
0001
0000
0001
0000
,
0100
0000
0100
0000
,
0100
0000
0100
0000
,
0000
0000
0000
0000
,
1000
0000
0001
0000
,
0000
0000
0000
0000
,
1000
0000
0001
0000
,
0000
1000
0000
1000
,
0000
0001
0000
0001
,
0000
0010
0000
0010
,
0000
1000
0000
0001
,
0000
0001
0000
0001
,
0000
1000
0000
1000
,
0000
0010
0000
0010
,
0000
0001
0000
1000
,
1000
0000
0000
0000
;

//---------------dance-single - ----------------
#NOTES:
     dance-single:
     :
     Easy:
     3:
     0.107028,0.152704,0.017628,0.237980,0.000000,85.000000,83.000000,2.000000,27.000000,0.000000,0.000000,0.107028,0.152704,0.017628,0.237980,0.000000,85.000000,83.000000,2.000000,27.000000,0.000000,0.000000:
0000
0000
0000
0000
,
0000
0000
0000
0000
,
0000
0000
0000
0000
,
0000
0000
0000
0000
,
0000
0000
0000
0000
,
1000
0000
0010
0000
,
1000
0000
0010
0000
,
2000
3000
0000
0000
,
1001
0000
0000
0000
,
0001
0000
0100
0000
,
0001
0000
0010
0000
,
0001
0000
0000
0000
,
1001
0000
0000
0000
,
2000
0000
3000
0000
,
0200
0000
0300
0000
,
0002
0000
0003
0000
,
0200
0000
0300
0000
,
2000
0000
3000
0000
,
0200
0000
0300
0000
,
0002
0000
0003
0000
,
0200
0000
0300
0000
,
0002
0000
1003
0000
,
2000
0000
3001
0000
,
0020
0000
0130
0000
,
0200
0000
0310
0000
,
2000
0000
3001
0000
,
0002
0000
1003
0000
,
0020
0000
0130
0000
,
0200
0000
0310
0000
,
2000
0100
3100
0000
,
0020
0001
0031
0000
,
0200
0010
0310
0000
,
0020
1000
1030
0000
,
0002
0100
0103
0000
,
0020
1000
1030
0000
,
0200
0010
0310
0000
,
0020
0001
0031
0000
,
0000
0000
0000
0000
,
1000
0000
0100
0000
,
0000
0000
0000
0000
,
0001
0000
0100
0000
,
1000
0000
0000
0000
,
1000
0010
0100
0000
,
0001
0000
0010
0000
,
0000
0100
0001
0100
,
0001
0000
0000
0000
,
0001
0010
0100
0000
,
1000
0000
0010
0000
,
0000
1000
0001
2000
,
0002
0000
3003
0000
;

//---------------dance-single - ----------------
#NOTES:
     dance-single:
     :
     Medium:
     5:
     0.166208,0.239963,0.017628,0.317306,0.000000,132.000000,130.000000,2.000000,36.000000,0.000000,0.000000,0.166208,0.239963,0.017628,0.317306,0.000000,132.000000,130.000000,2.000000,36.000000,0.000000,0.000000:
0000
0000
0000
0000
,
0000
0000
0000
0000
,
0000
0000
0000
0000
,
0000
0000
0000
0000
,
0000
0000
0000
0000
,
2000
3001
0200
0310
,
2000
3100
0020
0031
,
2000
3000
0001
1000
,
1001
0000
0000
0000
,
0002
1003
0200
0310
,
0002
0103
0020
1030
,
0002
0003
1000
0001
,
1001
0000
0000
0000
,
2000
0000
3000
0100
,
0200
0000
0300
0001
,
0002
0000
0003
0100
,
0200
0000
0300
0000
,
2000
0000
3000
0100
,
0200
0000
0300
0001
,
0002
0000
0003
0100
,
0200
0000
0300
0000
,
0002
0100
0003
0100
,
2000
0100
3000
0100
,
0020
1000
0030
1000
,
0200
0010
0310
0000
,
2000
0100
3000
0100
,
0002
0100
0003
0100
,
0020
0001
0030
0001
,
0200
0010
0310
0000
,
2000
0010
3100
0010
,
0020
0100
1030
0100
,
0020
0100
0130
0000
,
0200
0001
0301
0000
,
0002
0010
0103
0010
,
0020
0100
0031
0100
,
0020
0100
0130
0000
,
0200
1000
1300
0000
,
0000
0000
0000
0000
,
1000
0010
0100
0001
,
0000
0000
0000
0000
,
1000
0001
0100
0010
,
1000
0000
1000
0000
,
1000
0100
1000
0000
1000
0000
0000
0000
,
0001
0000
0010
0000
0010
0100
0010
0000
,
0000
0000
1000
0000
1000
0001
1000
0000
,
0001
0000
0001
0000
,
0001
0100
0001
0000
0001
0000
0000
0000
,
1000
0000
0010
0000
0010
0100
0010
0000
,
0000
0000
0001
0000
0001
1000
0001
2000
,
0002
0000
3003
0000
;

//---------------dance-single - ----------------
#NOTES:
     dance-single:
     :
     Hard:
     8:
     0.248053,0.283593,0.017628,0.317306,0.000000,197.000000,195.000000,2.000000,36.000000,0.000000,0.000000,0.248053,0.283593,0.017628,0.317306,0.000000,197.000000,195.000000,2.000000,36.000000,0.000000,0.000000:
0000
0000
0000
0000
,
0000
0000
0000
0000
,
0000
0000
0000
0000
,
0000
0000
0000
0000
,
0000
0000
0000
0000
,
2000
0000
3001
0100
0020
0000
1030
0100
,
0020
0000
0031
0100
0002
0000
1003
0100
,
2000
0000
3000
0000
0000
0001
1000
0001
,
1001
0000
0000
0000
,
0002
0000
1003
0100
0020
0000
0031
0100
,
0020
0000
1030
0100
2000
0000
3001
0100
,
0002
0000
0003
0000
0000
1000
0001
1000
,
1001
0000
0000
0000
,
2000
0000
0100
0000
3000
0000
0100
1000
,
0200
0000
0010
0000
0300
0000
0010
0001
,
0200
0000
0010
0000
0300
0000
1000
0100
,
0020
0000
0001
0001
0030
0000
0000
0000
,
0002
0000
0100
0000
0003
0000
0100
0001
,
0200
0000
0010
0000
0300
0000
0010
1000
,
0200
0000
0010
0000
0300
0000
0001
0100
,
0020
0000
1000
1000
0030
0000
0000
0000
,
0002
0000
0100
0000
0103
0000
0100
0010
,
2000
0000
0100
0000
3100
0000
0100
1000
,
0020
0000
1000
0000
1030
0000
1000
0001
,
0200
0000
0010
0010
0310
0000
0000
0000
,
2000
0000
0100
0000
3100
0000
0100
0010
,
0002
0000
0100
0000
0103
0000
0100
0001
,
0020
0000
0001
0000
0031
0000
0001
1000
,
0200
0000
0010
0010
0310
0000
0000
0000
,
2000
0000
0010
0010
3010
0000
0010
1000
,
0020
0000
0100
0100
0130
0000
0100
0001
,
0020
0000
0100
0100
0130
0000
1000
0010
,
0200
0000
0001
0001
0301
0000
0000
0000
,
0002
0000
0010
0010
0013
0000
0010
0001
,
0020
0000
0100
0100
0130
0000
0100
1000
,
0020
0000
0100
0100
0130
0000
0001
0010
,
0200
0000
1000
1000
1300
0000
0000
0000
,
0000
0000
0000
0000
,
1000
0100
0010
0001
0000
0100
0010
0000
,
0000
0000
0000
0000
,
1000
0100
1000
0010
0000
0100
0001
0000
,
1000
0100
1000
0000
,
1000
0100
0000
0100
1000
0100
0010
0000
,
0001
0000
0100
0000
0010
0100
0010
0000
,
0000
0000
0001
0000
1000
0001
1000
0000
,
0001
0100
0001
0000
,
0001
0100
0000
0100
0001
0100
0010
0000
,
1000
0000
0100
0000
0010
0100
0010
0000
,
0000
0000
1000
0000
0001
1000
0002
0000
,
2000
0000
3003
0000
;

//---------------dance-double - ----------------
#NOTES:
     dance-double:
     :
     Easy:
     3:
     0.108287,0.174519,0.008814,0.264422,0.000000,86.000000,85.000000,1.000000,30.000000,0.000000,0.000000,0.108287,0.174519,0.008814,0.264422,0.000000,86.000000,85.000000,1.000000,30.000000,0.000000,0.000000:
00000000
00000000
00000000
00000000
,
00000000
00000000
00000000
00000000
,
00000000
00000000
00000000
00000000
,
00000000
00000000
00000000
00000000
,
00000000
00000000
00000000
00000000
,
00010000
00000000
00001000
00000000
,
01000000
00000000
00010000
00000000
,
20000000
30000000
00000000
00000000
,
00020000
00030000
00000000
00000000
,
00001000
00000000
00010000
00000000
,
00000100
00000000
00001000
00000000
,
00000002
00000003
00000000
00000000
,
00002000
00003000
00000000
00000000
,
00000200
00000000
00000300
00000000
,
00020000
00000000
00030000
00000000
,
00002000
00000000
00003000
00000000
,
00200000
00000000
00300000
00000000
,
02000000
00000000
03000000
00000000
,
00020000
00000000
00030000
00000000
,
00002000
00000000
00003000
00000000
,
00000020
00000000
00000030
00000000
,
00000002
00000000
00000103
00000000
,
00000020
00000000
00010030
00000000
,
00002000
00000000
01003000
00000000
,
00200000
00000000
10300000
00000000
,
20000000
00000000
31000000
00000000
,
00200000
00000000
00301000
00000000
,
00020000
00000000
00030100
00000000
,
00000020
00000000
00000031
00000000
,
00002000
00000000
00003100
00001000
,
00000020
00000000
00010030
00000010
,
00020000
00000000
00031000
00010000
,
02000000
00100000
03100000
00000000
,
00020000
00000000
01030000
00010000
,
00200000
00000000
00301000
00100000
,
00002000
00000000
00013000
00001000
,
00000200
00000010
00000310
00000000
,
00000100
00000000
00000000
00000000
,
00001000
00000000
00000000
00000000
,
00010000
00000000
00000000
00000000
,
01000000
00000000
00000000
00000000
,
10000000
00000000
01000000
00000000
,
00100000
00000000
00010000
00000000
,
00100000
00001000
00010000
00000000
,
00000100
00000010
00000001
00000000
,
00000001
00000000
00000100
00000000
,
00000010
00000000
00001000
00000000
,
00000010
00010000
00001000
00000000
,
01000000
00100000
10000000
00000000
,
20020000
00000000
30030000
00000000
;

//---------------dance-double - ----------------
#NOTES:
     dance-double:
     :
     Medium:
     5:
     0.167467,0.218148,0.017628,0.317306,0.000000,133.000000,131.000000,2.000000,36.000000,0.000000,0.000000,0.167467,0.218148,0.017628,0.317306,0.000000,133.000000,131.000000,2.000000,36.000000,0.000000,0.000000:
00000000
00000000
00000000
00000000
,
00000000
00000000
00000000
00000000
,
00000000
00000000
00000000
00000000
,
00000000
00000000
00000000
00000000
,
00000000
00000000
00000000
00000000
,
00200000
00301000
00020000
00030100
,
00200000
00301000
00020000
00030100
,
00002000
00003000
00000001
00000100
,
00001001
00000000
00000000
00000000
,
00000020
00010030
00002000
01003000
,
00000020
00010030
00002000
01003000
,
00020000
00030000
10000000
01000000
,
10010000
00000000
00000000
00000000
,
00020000
00000000
00030000
01000000
,
00002000
00000000
00003000
00010000
,
00000200
00000000
00000300
00000010
,
00000002
00000000
00000003
00000000
,
00002000
00000000
00003000
00000100
,
00020000
00000000
00030000
00001000
,
02000000
00000000
03000000
00100000
,
20000000
00000000
30000000
00000000
,
00020000
01000000
00030000
01000000
,
00002000
00010000
00003000
00010000
,
00000200
00000010
00000300
00000010
,
00000002
00001000
00001003
00000000
,
00002000
00000100
00003000
00000100
,
00020000
00001000
00030000
00001000
,
02000000
00100000
03000000
00100000
,
20000000
00010000
30010000
00000000
,
00200000
00000000
00000000
00000000
00301000
00010000
00000100
00000000
,
00002000
00000000
00000000
00000000
00003010
00010000
00001000
00000000
,
02000000
00000000
00000000
00000000
03010000
00100000
00001000
00000000
,
00020000
00000000
00000000
00001000
00031000
00000000
00000000
00000000
,
00000020
00000000
00000000
00000000
00010030
00001000
01000000
00000000
,
00020000
00000000
00000000
00000000
00130000
00001000
00010000
00000000
,
00000200
00000000
00000000
00000000
00001300
00000010
00010000
00000000
,
00002000
00000000
00000000
00010000
00013000
00000000
00000000
00000000
,
00000000
01000000
00000000
00010000
,
00000000
00100000
00000000
00001000
,
00000000
00010000
00000000
00000100
,
00000000
00001000
00000000
00000010
,
00001000
00000000
00000001
00000000
,
00001000
00000010
00010000
00000000
00001000
00000000
00000000
00000000
,
00010000
00000000
00100000
00000000
10000000
01000000
10000000
00000000
,
00000000
00000000
00010000
00000000
00100000
00001000
01000000
00000000
,
00010000
00000000
10000000
00000000
,
00010000
00100000
00001000
00000000
00010000
00000000
00000000
00000000
,
00001000
00000000
00000010
00000000
00000001
00000100
00000001
00000000
,
00000000
00000000
00001000
00000000
00000010
00010000
00000200
00000000
,
00020000
00000000
00030300
00000000
;

//---------------dance-double - ----------------
#NOTES:
     dance-double:
     :
     Hard:
     8:
     0.249312,0.327222,0.026442,0.299678,0.000000,198.000000,195.000000,3.000000,34.000000,0.000000,0.000000,0.249312,0.327222,0.026442,0.299678,0.000000,198.000000,195.000000,3.000000,34.000000,0.000000,0.000000:
00000000
00000000
00000000
00000000
,
00000000
00000000
00000000
00000000
,
00000000
00000000
00000000
00000000
,
00000000
00000000
00000000
00000000
,
00000000
00000000
00000000
00000000
,
00100000
00000000
00001000
00020000
00000100
00030000
00010000
00002000
,
00100000
00003000
00001000
00020000
00000100
00030000
00010000
00002000
,
00100000
00003000
01000000
10000000
00000000
10000000
00010000
01000000
,
01010000
00000000
00001000
00010000
00000000
00000000
00000000
00000000
,
00000010
00000000
00010000
00002000
01000000
00003000
00001000
00020000
,
00000010
00030000
00010000
00002000
01000000
00003000
00001000
00020000
,
00000010
00030000
00000100
00000001
00000000
00000001
00001000
00000100
,
00001100
00000000
00001001
00000100
00000000
00000000
00000000
00000000
,
00000002
00000000
00000100
00000000
00000003
00000000
00000010
00001000
,
00000200
00000000
00010000
00000000
00000300
00000000
00001000
00010000
,
02000000
00000000
00100000
00000000
03000000
00000000
10000000
01000000
,
00200000
00000000
01000000
01000000
00300000
00000000
00000000
00000000
,
20000000
00000000
01000000
00000000
30000000
00000000
00100000
00010000
,
02000000
00000000
00001000
00000000
03000000
00000000
00010000
00001000
,
00000200
00000000
00000010
00000000
00000300
00000000
00000001
00000100
,
00000020
00000000
00000100
00000100
00000030
00000000
00000000
00000000
,
00000002
00000000
00000100
00000000
00000013
00000000
00000100
00001000
,
00020000
00000000
00001000
00000000
01000000
00030000
00001000
00100000
,
02000000
00000000
10000000
00000000
03100000
00000000
10000000
00010000
,
02000000
00000000
00100000
00100000
03100000
00000000
00000000
00000000
,
20000000
00000000
01000000
00000000
30100000
00000000
01000000
00010000
,
00002000
00000000
00010000
00000000
00000100
00003000
00010000
00000010
,
00000200
00000000
00000001
00000000
00000310
00000000
00000001
00001000
,
00000200
00000000
00000010
00000010
00000310
00000000
00000000
00000000
,
00002000
00000000
00000010
00000000
00003100
00000000
00010000
00001000
,
00020000
00000000
00001000
00000000
01030000
00000000
00100000
01000000
,
00200000
00000000
00010000
00000000
01300000
00000000
10000000
00010000
,
02000000
00000000
00010000
00010000
03010000
00000000
00000000
00000000
,
00020000
00000000
00100000
00000000
01030000
00000000
00001000
00010000
,
00002000
00000000
00010000
00000000
00003100
00000000
00000010
00000100
,
00000020
00000000
00001000
00000000
00000130
00000000
00000001
00001000
,
00000200
00000000
00000010
00000010
00000310
00000000
00000000
00000000
,
00000000
00000000
00000100
00000000
00000000
00010000
00001000
00000000
,
00000000
00000000
01000000
00000000
00000000
00100000
10000000
00000000
,
00000000
00000000
01000000
00000000
00000000
00001000
00010000
00000000
,
00000000
00000000
00000100
00000000
00000000
00000010
00000001
00000000
,
00001000
00000100
00010000
00000000
,
00001000
01000000
00000000
01000000
00010000
00000000
00100000
00000000
,
00001000
00000000
00010000
00000000
00000100
00001000
00000100
00000000
,
00000000
00000000
00010000
00000000
00001000
01000000
00100000
00000000
,
00010000
01000000
00001000
00000000
,
00010000
00000100
00000000
00000100
00001000
00000000
00000010
00000000
,
00010000
00000000
00001000
00000000
01000000
00010000
01000000
00000000
,
00000000
00000000
00001000
00000000
00010000
00000100
00000020
00000000
,
00000002
00000000
00000033
00000000
;

//---------------dance-single - ----------------
#NOTES:
     dance-single:
     :
     Challenge:
     14:
     0.576692,0.719889,0.176281,0.352563,0.528844,458.000000,438.000000,20.000000,40.000000,0.000000,0.000000,0.576692,0.719889,0.176281,0.352563,0.528844,458.000000,438.000000,20.000000,40.000000,0.000000,0.000000:
// measure 0
0000
0000
0000
0000
,  // measure 1
0000
0000
0000
0000
,  // measure 2
0000
0000
0000
0000
,  // measure 3
0000
0000
0000
0000
,  // measure 4
0000
0000
0000
0000
,  // measure 5
0100
0000
0010
1000
0010
0100
0010
0001
0100
0010
1000
0100
0010
0000
0001
0000
,  // measure 6
1000
0000
0001
0010
0100
0000
0010
1000
0100
0000
0010
0001
0100
0010
1000
0000
,  // measure 7
0200
0000
0310
0000
0100
0001
2000
0010
,  // measure 8
3200
0000
0000
0000
0310
0000
0100
0000
0010
0000
1000
0000
0100
0010
0001
0000
,  // measure 9
0100
0000
0001
1000
0001
0010
0001
0100
0010
1000
0100
0010
0001
0000
0100
0000
,  // measure 10
0010
0000
1000
0010
0100
0000
0010
0001
0100
0000
0010
1000
0100
0010
0001
0000
,  // measure 11
0020
0000
0130
0000
1000
0010
0002
0100
,  // measure 12
0023
0000
0000
0000
0031
0000
0100
0000
0010
0000
1000
0010
1000
0000
0100
0000
,  // measure 13
0020
0100
0031
0100
0010
2000
0100
3010
,  // measure 14
0002
0100
0013
1000
0100
0020
1000
0130
,  // measure 15
0002
1000
0013
0100
0001
0200
0001
1300
,  // measure 16
0020
0100
1030
0100
0001
2000
0010
3001
,  // measure 17
0200
0010
1300
0010
0001
0200
0010
1300
,  // measure 18
0020
1000
0130
0001
0100
0020
0001
1030
,  // measure 19
0002
0010
1003
0100
0010
0002
1000
0103
,  // measure 20
2000
0010
3100
0010
0001
2000
0010
3100
,  // measure 21
0001
0100
0001
0100
0010
1000
0010
1000
0100
0000
0010
0001
0010
0001
0100
0000
,  // measure 22
1000
0100
1000
0100
0010
0001
0010
0001
0100
0000
0010
0100
0010
0100
0001
0000
,  // measure 23
1000
0010
0100
0010
1000
0010
0100
0010
1000
0000
0100
0010
0001
0010
0100
0000
,  // measure 24
0001
0100
0010
0100
0001
0100
0010
0100
0001
0000
1000
0010
0001
0010
1000
0000
,  // measure 25
0200
0001
0310
1000
0100
0020
1000
0130
,  // measure 26
0002
0010
0103
1000
0001
2000
0001
3100
,  // measure 27
0020
1000
0130
0010
0001
2000
0010
3001
,  // measure 28
0200
0010
1300
0010
0100
0002
0010
1003
,  // measure 29
0001
0100
0010
1000
0001
0010
0100
1000
0100
0010
0001
0100
0010
0100
0001
0010
,  // measure 30
0100
1000
0010
0100
0010
1000
0100
0010
0001
0100
0010
0100
1000
0010
0100
0001
,  // measure 31
0010
0000
1001
0010
0100
1000
0110
0001
,  // measure 32
1000
0010
0100
0002
0100
0013
1000
0100
,  // measure 33
1000
0010
0100
0001
1000
0100
0010
0001
1000
0100
0010
0001
1000
0010
0100
0001
,  // measure 34
1000
0100
0010
0001
0100
0010
0100
0001
0010
0100
1000
0010
0100
0010
0001
0100
,  // measure 35
0010
1000
0100
0010
0100
0001
0010
0100
1000
0100
0010
0001
0100
0010
0100
1000
,  // measure 36
0001
0100
0110
1000
0100
0010
1001
0010
,  // measure 37
0100
0000
0000
1001
0000
1010
0000
0000
,  // measure 38
2000
0000
0000
3001
1000
0000
2000
0000
0010
0000
0001
0000
3100
0000
0010
0000
,  // measure 39
0100
0000
0000
0110
0000
0000
0000
0000
,  // measure 40
0020
0000
0000
0130
0010
0000
0020
0000
1000
0000
0100
0000
0031
0000
0100
0000
,  // measure 41
0110
0000
0010
1000
0001
0000
0100
0010
0000
1001
0000
0101
0000
0010
1000
0000
,  // measure 42
1100
0000
0100
0010
0001
0000
0100
0010
0000
1000
0100
0000
0010
0001
0100
0010
,  // measure 43
2000
0000
0100
0000
0001
0000
3100
0000
0001
0000
0020
0100
0000
0130
0010
1000
,  // measure 44
0001
0000
0101
0000
0100
0000
1000
0100
0000
0110
0000
0011
0000
0100
0010
0000
,  // measure 45
1010
0000
1000
0100
0010
0000
0001
0100
0000
0110
0000
1010
0000
0010
0100
0000
,  // measure 46
0101
0000
0001
0010
1000
0000
0010
0100
0000
0100
0010
0000
1000
0100
0010
0001
,  // measure 47
0100
0000
0010
0000
1000
0000
0001
0010
0000
1010
0000
0011
0000
0010
0001
0010
,  // measure 48
0200
0000
0010
0000
0001
0000
0310
0000
1000
0010
0100
0001
0020
0000
0100
0000
,  // measure 49
0200
0000
0330
0000
;
