#TITLE:PINK DINOSAUR;
#SUBTITLE:;
#ARTIST:PAPAYA;
#TITLETRANSLIT:;
#SUBTITLETRANSLIT:;
#ARTISTTRANSLIT:;
#GENRE:;
#CREDIT:;
#BANNER:PINK DINOSAUR.png;
#BACKGROUND:PINK DINOSAUR-bg.png;
#LYRICSPATH:;
#CDTITLE:;
#MUSIC:PINK DINOSAUR.ogg;
#OFFSET:0.000000;
#SAMPLESTART:58.209999;
#SAMPLELENGTH:15.000000;
#SELECTABLE:YES;
#DISPLAYBPM:136.000000;
#BPMS:0.000000=136.059006
;
#STOPS:
;
#BGCHANGES:;
#KEYSOUNDS:;
#ATTACKS:;

//---------------dance-single - ----------------
#NOTES:
     dance-single:
     :
     Easy:
     5:
     0.244522,0.320527,0.119925,0.000000,0.000000,157.000000,146.000000,11.000000,0.000000,0.000000,0.000000,0.244522,0.320527,0.119925,0.000000,0.000000,157.000000,146.000000,11.000000,0.000000,0.000000,0.000000:
0000
0000
0000
0000
,
0000
0000
0000
0000
,
0000
0000
0000
0000
,
0000
0000
0000
0000
,
0000
0000
0000
0000
,
0000
0000
0000
0000
,
0000
0000
0000
0000
,
0000
0000
0000
0000
,
0000
0000
0000
0000
,
0001
0001
0001
0001
,
1000
1000
1000
1000
,
0010
0100
0001
0100
,
0010
0100
1000
0100
,
0010
0000
0010
0000
,
0010
0100
0010
1001
,
0100
0000
0100
0000
,
0010
0100
0010
1001
,
0010
0100
0001
0100
,
1001
0100
1001
0100
,
1000
1000
1000
1000
,
0001
0001
0001
0001
,
0010
0100
1000
0100
,
0001
0000
0001
0000
,
1000
1000
1000
1000
,
0001
0001
0001
0001
,
0010
0100
0001
0100
,
1000
0000
1000
0000
,
0001
0010
0100
1000
,
1000
0100
0010
0001
,
0010
0100
1000
0100
,
0001
0000
0001
0000
,
1000
1000
0001
0001
,
0010
0100
0000
1001
,
0010
0100
1001
0100
,
1000
0100
1001
0100
,
0001
0001
0010
0100
,
1000
1000
1000
1000
,
0010
0100
1001
0100
,
0001
0100
1001
0100
,
1000
1000
0010
0100
,
0001
0001
0001
0001
,
1000
1000
1000
1000
,
0001
0001
0001
0001
,
0010
0100
0001
0100
,
0010
0100
1000
0100
,
0010
0000
0010
0000
,
0010
0100
0010
1001
,
0100
0000
0100
0000
,
0010
0100
0010
0100
,
1001
0000
0000
0000
;

//---------------dance-single - ----------------
#NOTES:
     dance-single:
     :
     Medium:
     7:
     0.302149,0.320527,0.109023,0.000000,0.000000,194.000000,184.000000,10.000000,0.000000,0.000000,0.000000,0.302149,0.320527,0.109023,0.000000,0.000000,194.000000,184.000000,10.000000,0.000000,0.000000,0.000000:
0000
0000
0000
0000
,
0000
0000
0000
0000
,
0000
0000
0000
0000
,
0000
0000
0000
0000
,
0000
0000
0000
0000
,
0000
0000
0000
0000
,
0000
0000
0000
0000
,
0000
0000
0000
0000
,
0000
0000
0000
0000
,
0001
0000
0001
0000
1000
0100
0001
0000
,
1000
0000
1000
0000
0001
0100
1000
0000
,
0010
0100
0010
1001
,
0100
0010
0100
1001
,
1000
0000
1000
0000
0001
0100
1000
0000
,
0001
0000
0001
0000
1000
0100
0001
0000
,
0010
0100
0010
1001
,
0001
1000
0001
0110
,
1000
0000
0100
0000
0001
0100
0100
0000
,
0001
0000
0100
0000
1000
0100
0100
0000
,
1000
0000
1000
0000
1000
0001
1000
0000
,
0001
0000
0001
0000
0001
1000
0001
0000
,
0010
0000
0100
0000
1000
0100
0100
0000
,
0010
0000
0100
0000
0001
0100
0100
0000
,
1000
0000
1000
0000
1000
0001
1000
0000
,
0001
0000
0001
0000
0001
1000
0001
0000
,
1000
0000
0100
0000
0010
0100
0010
0000
,
1000
0000
1000
1000
0000
0000
0000
0000
,
0010
0010
0100
0100
,
0010
1000
0001
0100
,
0001
0000
0100
0000
0010
0100
0010
0000
,
0001
0000
0001
0001
0000
0000
0000
0000
,
1000
1000
0001
0001
,
0010
0000
0010
0000
0010
0100
1001
0000
,
0001
0010
1001
0100
,
0010
0000
0000
0000
0001
0100
0010
0000
,
0001
0001
0010
0100
,
1000
0010
0001
0000
0001
0100
1000
0000
,
1000
0010
1001
0100
,
0010
0000
0000
0000
1000
0100
0010
0000
,
1000
1000
0010
0100
,
0001
0010
1000
0000
1000
0100
0001
0000
,
0001
0000
0001
0000
1000
0100
0001
0000
,
1000
0000
1000
0000
0001
0100
1000
0000
,
0010
0100
0010
1001
,
0010
0100
0010
1001
,
1000
0000
1000
0000
0001
0100
1000
0000
,
0001
0000
0001
0000
1000
0100
0001
0000
,
0010
0000
0100
0000
0010
0001
0100
0000
,
0001
0000
1000
0000
0010
1000
0100
0000
,
1001
0000
0000
0000
;

//---------------dance-single - ----------------
#NOTES:
     dance-single:
     :
     Hard:
     9:
     0.305264,0.381580,0.109023,0.010902,0.076316,196.000000,186.000000,10.000000,1.000000,0.000000,0.000000,0.305264,0.381580,0.109023,0.010902,0.076316,196.000000,186.000000,10.000000,1.000000,0.000000,0.000000:
0000
0000
0000
0000
,
0000
0000
0000
0000
,
0000
0000
0000
0000
,
0000
0000
0000
0000
,
0000
0000
0000
0000
,
0000
0000
0000
0000
,
0000
0000
0000
0000
,
0000
0000
0000
0000
,
0000
0000
0000
0000
,
0001
0000
0000
0000
0001
0000
0000
0000
1000
0000
0000
1000
0000
0000
1000
0000
,
0010
0000
0000
0000
1000
0000
0000
0000
0001
0000
0000
0001
0000
0000
0001
0000
,
0010
0000
0000
0000
0001
0000
0000
0000
1000
0000
0000
1000
0000
0000
1000
0000
,
0100
0000
0000
0000
1000
0000
0000
0000
0001
0000
0000
0001
0000
0000
0001
0000
,
0010
0000
0000
0000
0100
0000
0000
0000
0001
0000
0000
1000
0000
0000
0001
0000
,
1000
0000
0000
0000
1000
0000
0000
0000
0010
0000
0000
1000
0000
0000
0100
0000
,
0010
0000
0000
0000
0010
0000
0000
0000
1000
0000
0000
0001
0000
0000
0100
0000
,
0010
0000
0010
1001
,
0100
0000
0100
0000
,
1000
0100
1000
0000
0010
0001
0100
0000
,
1000
0000
1000
0000
0001
0001
0100
0000
,
0001
0000
0001
0000
1000
1000
0100
0000
,
0010
0000
0100
0000
,
0001
0100
0001
0000
0010
1000
0100
0000
,
0001
0000
0101
0000
1000
1000
0100
0000
,
1000
0000
1100
0000
0001
0001
0100
0000
,
0010
0000
0010
0000
,
0001
0000
0001
0001
0000
0000
0000
0000
,
1000
0000
1100
0000
0010
0001
0100
0000
,
0001
0000
0101
0000
0010
1000
0100
0000
,
0010
0000
0010
0000
,
1000
0000
1000
1000
0000
0000
0000
0000
,
0001
0100
1000
0100
0001
0010
1000
0100
,
0010
0000
0010
1001
,
0010
0101
0010
1100
,
1000
0100
0010
0000
0001
0010
0100
0000
,
1000
0000
1000
0000
1000
0100
0001
0000
,
1000
0000
1000
0000
0001
0010
1000
0000
,
0010
1100
0010
0101
,
0001
0010
0100
0000
1000
0100
0010
0000
,
0001
0000
0001
0000
0001
0100
1000
0000
,
0001
0000
0001
0000
1000
0010
0001
0000
,
0001
0000
0000
0000
0001
0000
0000
0000
1000
0000
0000
1000
0000
0000
1000
0000
,
0010
0000
0000
0000
1000
0000
0000
0000
0001
0000
0000
0001
0000
0000
0001
0000
,
0010
0000
0000
0000
0001
0000
0000
0000
1000
0000
0000
1000
0000
0000
1000
0000
,
0100
0000
0000
0000
1000
0000
0000
0000
0001
0000
0000
0001
0000
0000
0001
0000
,
0010
0000
0000
0000
0100
0000
0000
0000
0001
0000
0000
1000
0000
0000
0001
0000
,
1000
0000
0000
0000
1000
0000
0000
0000
0010
0000
0000
1000
0000
0000
0100
0000
,
0010
0000
0000
0000
0010
0000
0000
0000
1000
0000
0000
0001
0000
0000
0100
0000
,
0010
0000
0000
0000
0010
1000
0100
0010
,
0002
0000
0000
0000
,
0003
0000
0000
0000
;

//---------------dance-double - ----------------
#NOTES:
     dance-double:
     :
     Easy:
     4:
     0.267884,0.320527,0.119925,0.000000,0.000000,172.000000,161.000000,11.000000,0.000000,0.000000,0.000000,0.267884,0.320527,0.119925,0.000000,0.000000,172.000000,161.000000,11.000000,0.000000,0.000000,0.000000:
00000000
00000000
00000000
00000000
,
00000000
00000000
00000000
00000000
,
00000000
00000000
00000000
00000000
,
00000000
00000000
00000000
00000000
,
00000000
00000000
00000000
00000000
,
00000000
00000000
00000000
00000000
,
00000000
00000000
00000000
00000000
,
00000000
00000000
00000000
00000000
,
00000000
00000000
00000000
00000000
,
10000000
10000000
10000000
01000000
,
00010000
00010000
00001000
00010000
,
00001000
00001000
00001000
00000010
,
00000100
00000100
00000100
00000001
,
00000010
00001000
00000100
00001001
,
00000010
00000100
00001000
00011000
,
00010000
00010000
00100000
01100000
,
00100000
10000000
01000000
10010000
,
00100000
00100000
10000000
01000000
,
00100000
00100000
00010000
01000000
,
00010000
00001000
00000100
00000010
,
00000001
00000001
00001000
00001000
,
00000010
00000010
00000001
00000100
,
00000010
00000010
00001000
00000100
,
00001000
00010000
00100000
01000000
,
10000000
10000000
00010000
00010000
,
01000000
00100000
00010000
00010000
,
01000000
00010000
00001000
00000010
,
00000100
00000100
00000001
00000001
,
00001000
00000100
00001000
00010000
,
01000000
00100000
00010000
00010000
,
01000000
00010000
00001000
00000010
,
00000100
00000001
00000010
00000100
,
00001000
00010000
00001000
00011000
,
10000000
10000000
00010000
00100000
,
01000000
01000000
00010000
00001000
,
00010000
00010000
00001000
00001000
,
00000010
00000010
00000100
00000110
,
00000001
00000001
00001000
00000010
,
00000100
00000100
00001000
00010000
,
00001000
00001000
00010000
00010000
,
00100000
00100000
01000000
01100000
,
10000000
10000000
10000000
01000000
,
00010000
00010000
00001000
00010000
,
00001000
00001000
00001000
00000010
,
00000100
00000100
00000100
00000001
,
00000010
00001000
00000100
00001001
,
00000010
00000100
00001000
00011000
,
00010000
00010000
00100000
01100000
,
00100000
01000000
00100000
01000000
,
10010000
00000000
00000000
00000000
;

//---------------dance-double - ----------------
#NOTES:
     dance-double:
     :
     Medium:
     5:
     0.317723,0.373948,0.207143,0.000000,0.000000,204.000000,185.000000,19.000000,0.000000,0.000000,0.000000,0.317723,0.373948,0.207143,0.000000,0.000000,204.000000,185.000000,19.000000,0.000000,0.000000,0.000000:
00000000
00000000
00000000
00000000
,
00000000
00000000
00000000
00000000
,
00000000
00000000
00000000
00000000
,
00000000
00000000
00000000
00000000
,
00000000
00000000
00000000
00000000
,
00000000
00000000
00000000
00000000
,
00000000
00000000
00000000
00000000
,
00000000
00000000
00000000
00000000
,
00000000
00000000
00000000
00000000
,
10000000
00010000
10000000
00000000
00100000
00000000
10010000
00000000
,
00010000
01000000
00010000
00000000
10000000
00000000
01100000
00000000
,
00100000
00010000
01000000
00000000
00010000
00000000
00011000
00000000
,
00100000
00010000
00001000
00000000
00000010
00000000
00001001
00000000
,
00000001
00001000
00000001
00000000
00000010
00000000
00001001
00000000
,
00001000
00000100
00001000
00000000
00000001
00000000
00000110
00000000
,
00000010
00001000
00000100
00000000
00001000
00000000
00011000
00000000
,
00000010
00001000
00010000
00000000
00100000
00000000
10010000
00000000
,
00100000
00000000
10010000
00000000
,
00100000
00000000
10000000
00010000
01000000
00010000
10000000
00000000
,
10000000
00000000
00100000
00000000
01000000
00010000
00001000
00000000
,
00001000
00000000
00000100
00000000
00000010
00000100
00000001
00000000
,
00000010
00000000
00001001
00000000
,
00000010
00000000
00000001
00001000
00000100
00001000
00000001
00000000
,
00000001
00000000
00000010
00000000
00000100
00001000
00010000
00000000
,
00010000
00000000
01000000
00000000
00100000
01000000
10000000
00000000
,
10000000
00000000
10000000
00000000
,
00100000
00000000
01000000
00000000
00010000
00010000
01000000
00000000
,
01000000
00000000
00010000
00000000
00010000
00001000
00000100
00000000
,
00000001
00000000
00000100
00000000
00001000
00010000
01000000
00000000
,
10000000
00000000
10000000
00000000
,
00100000
00000000
01000000
00000000
00010000
00010000
01000000
00000000
,
01000000
00000000
00010000
00000000
00010000
00001000
00000100
00000000
,
00000001
00000000
00001000
00000000
00000010
00000100
00000010
00000000
,
00000001
00000001
00001000
00001000
,
00000010
00000000
00000010
00000000
00000001
00000100
00001000
00000000
,
00000100
00001000
00010000
00100000
,
00100000
00010000
00001000
00000100
,
00000010
00000100
00000010
00001001
,
00000010
00000000
00000010
00000000
00000001
00000100
00001000
00000000
,
00000100
00001000
00010000
00100000
,
00100000
00010000
00001000
00000100
,
00000001
00001000
00000001
00000000
00000010
00000000
00001001
00000000
,
00001000
00000100
00001000
00000000
00000001
00000000
00000110
00000000
,
00000010
00001000
00000100
00000000
00001000
00000000
00011000
00000000
,
00000010
00001000
00010000
00000000
00100000
00000000
10010000
00000000
,
10000000
00010000
10000000
00000000
00100000
00000000
10010000
00000000
,
00010000
01000000
00010000
00000000
10000000
00000000
01100000
00000000
,
00100000
00010000
01000000
00000000
00010000
00000000
00011000
00000000
,
00100000
00010000
00001000
00000000
00000010
00000000
00000100
00000000
,
00001001
00000000
00000000
00000000
;

//---------------dance-double - ----------------
#NOTES:
     dance-double:
     :
     Hard:
     6:
     0.370677,0.373948,0.392482,0.000000,0.000000,238.000000,202.000000,36.000000,0.000000,0.000000,0.000000,0.370677,0.373948,0.392482,0.000000,0.000000,238.000000,202.000000,36.000000,0.000000,0.000000,0.000000:
00000000
00000000
00000000
00000000
,
00000000
00000000
00000000
00000000
,
00000000
00000000
00000000
00000000
,
00000000
00000000
00000000
00000000
,
00000000
00000000
00000000
00000000
,
00000000
00000000
00000000
00000000
,
00000000
00000000
00000000
00000000
,
00000000
00000000
00000000
00000000
,
00000000
00000000
00000000
00000000
,
10000000
01000000
00100000
00000000
01000000
00000000
00110000
00000000
,
00100000
00010000
00001000
00000000
00010000
00000000
00001100
00000000
,
00000001
00000010
00000100
00000000
00000010
00000000
00001100
00000000
,
00000100
00001000
00010000
00000000
00001000
00000000
00000101
00000000
,
00001000
00000100
00000010
00000000
00000100
00000000
00001010
00000000
,
00000010
00001000
00010000
00000000
00001000
00000000
01010000
00000000
,
00100000
01000000
10000000
00000000
01000000
00000000
00110000
00000000
,
00100000
00100000
00010000
00000000
10000000
10000000
01000000
00000000
,
00100000
01000000
10010000
11000000
,
10000000
00100000
00100000
00000000
00010000
00010000
01000000
00000000
,
10010000
00000000
01000000
00000000
00100000
00010000
00001000
00000000
,
01010000
00000000
00001000
00000000
00010000
00001000
00000100
00000000
,
00000010
00000100
00001001
00000011
,
00000001
00000010
00000010
00000000
00001000
00001000
00000100
00000000
,
00001001
00000000
00000100
00000000
00000010
00001000
00010000
00000000
,
00001100
00000000
00010000
00000000
00001000
00010000
01000000
00000000
,
00100000
00000000
10010000
00000000
01000000
00100000
01000000
00000000
,
10010000
00000000
01000000
01000000
00000000
00000000
00000000
00000000
,
01000000
00000000
01010000
00000000
00100000
00010000
00001000
00000000
,
00010000
00000000
00001010
00000000
00000010
00001000
00000100
00000000
,
00000010
00000000
00001001
00000000
00000100
00000010
00000100
00000000
,
00001001
00000000
00000100
00000100
00000000
00000000
00000000
00000000
,
00000100
00000000
00001100
00000000
00000010
00001000
00010000
00000000
,
00001000
00000000
00110000
00000000
00100000
00010000
01000000
00000000
,
00100000
01000000
00100000
00000000
10000000
01000000
00100000
00000000
,
10000000
00000000
00110000
00000000
01000000
00100000
00010000
00000000
,
00100000
00000000
01010000
00000000
00100000
00010000
00001000
00000000
,
00010000
00000000
00011000
00000000
00000100
00000010
00000001
00000000
,
00000010
00000100
00000010
00000000
00000001
00000100
00000010
00000000
,
00000001
00000000
00001010
00000000
00000100
00000010
00001000
00000000
,
00000010
00000000
00001100
00000000
00000010
00001000
00010000
00000000
,
00001000
00000000
00011000
00000000
01000000
00100000
10000000
00000000
,
10000000
01000000
00100000
00000000
01000000
00000000
00110000
00000000
,
00100000
00010000
00001000
00000000
00010000
00000000
00001100
00000000
,
00000001
00000010
00000100
00000000
00000010
00000000
00001100
00000000
,
00000100
00001000
00010000
00000000
00001000
00000000
00000101
00000000
,
00001000
00000100
00000010
00000000
00000100
00000000
00001010
00000000
,
00000010
00001000
00010000
00000000
00001000
00000000
01010000
00000000
,
00100000
01000000
10000000
00000000
01000000
00000000
00110000
00000000
,
00100000
01000000
00010000
00000000
10000000
01000000
00100000
00010000
,
10000000
00000000
00000000
00000000
;

//---------------dance-couple - ----------------
#NOTES:
     dance-couple:
     :
     Challenge:
     2:
     0.190011,0.320527,0.065414,0.000000,0.027256,122.000000,116.000000,6.000000,0.000000,0.000000,0.000000,0.190011,0.347237,0.065414,0.000000,0.027256,122.000000,116.000000,6.000000,0.000000,0.000000,0.000000:
00000000
00000000
00000000
00000000
,
00000000
00000000
00000000
00000000
,
00000000
00000000
00000000
00000000
,
00000000
00000000
00000000
00000000
,
00000000
00000000
00000000
00000000
,
00000000
00000000
00000000
00000000
,
00000000
00000000
00000000
00000000
,
00000000
00000000
00000000
00000000
,
00000000
00000000
00000000
00000000
,
00011000
00000000
00010000
00000000
10000000
01000000
00010000
00000000
,
10001000
00000000
10000000
00000000
00010000
01000000
10000000
00000000
,
00101000
10010000
01000000
01000000
,
00001000
00100000
00000000
10010000
,
00010001
00000000
00000001
00000000
00001000
00000100
00000001
00000000
,
00011000
00000000
00001000
00000000
00000001
00000100
00001000
00000000
,
00010010
00001001
00000100
00000100
,
00010000
00000010
00000000
00001001
,
00001000
00000000
00000101
00000000
00000001
00000100
00000100
00000000
,
00000001
00000000
00000100
00000000
00001000
00000100
00000100
00000000
,
10000000
00000000
01010000
00000000
00010000
01000000
01000000
00000000
,
00010000
00000000
01000000
00000000
10000000
01000000
01000000
00000000
,
00000100
00000000
00000100
00000000
,
00001000
00000100
00001000
00000000
00000010
00000001
00000100
00000000
,
01000000
00000000
01000000
00000000
,
10000000
01000000
10000000
00000000
00100000
00010000
01000000
00000000
,
00011000
00000000
01000100
00000000
00100010
01000100
00100010
00000000
,
00011000
00000000
00011000
00011000
00000000
00000000
00000000
00000000
,
10000010
00000010
10000100
00000100
,
10000010
00001000
10000001
00000100
,
10000001
00000000
01000100
00000000
00100010
01000100
00100010
00000000
,
10000001
00000000
10000001
10000001
00000000
00000000
00000000
00000000
,
00100001
00100000
01000001
01000000
,
00100001
10000000
00010001
01000000
,
00000010
00001100
00000010
00000101
,
00000001
00000100
00000010
00000000
00001000
00000010
00000100
00000000
,
00100000
11000000
00100000
01010000
,
00010000
01000000
00100000
00000000
10000000
00100000
01000000
00000000
,
00001000
00000000
00001000
00000000
00001000
00000100
00000001
00000000
,
00001000
00000000
00001000
00000000
00000001
00000010
00001000
00000000
,
00010000
00000000
00010000
00000000
00010000
01000000
10000000
00000000
,
00010000
00000000
00010000
00000000
10000000
00100000
00010000
00000000
,
00010001
00000000
00000000
00000000
00010000
00000000
00000000
00000000
10000001
00000000
00000000
10000000
00000000
00000000
10000000
00000000
,
00100001
00000000
00000000
00000000
10000000
00000000
00000000
00000000
00010001
00000000
00000000
00010000
00000000
00000000
00010000
00000000
,
10000001
00000000
00000000
00000000
00000001
00000000
00000000
00000000
10001000
00000000
00000000
00001000
00000000
00000000
00001000
00000000
,
10000010
00000000
00000000
00000000
00001000
00000000
00000000
00000000
10000001
00000000
00000000
00000001
00000000
00000000
00000001
00000000
,
00010000
00000000
00000000
00000000
00010000
00000000
00000000
00000000
10000000
00000000
00000000
10000000
00000000
00000000
10000000
00000000
,
00000001
00000000
00000000
00000000
00000001
00000000
00000000
00000000
00001000
00000000
00000000
00001000
00000000
00000000
00001000
00000000
,
00100010
00000000
00000000
00000000
00010001
00000000
00000000
00000000
10001000
00000000
00000000
10001000
00000000
00000000
10001000
00000000
,
01000100
00000000
00000000
00000000
10001000
00000000
00000000
00000000
00010001
00000000
00000000
00010001
00000000
00000000
00010001
00000000
,
10011001
00000000
00000000
00000000
;

//---------------dance-solo - ----------------
#NOTES:
     dance-solo:
     :
     Easy:
     4:
     0.238293,0.293816,0.130827,0.000000,0.000000,153.000000,141.000000,12.000000,0.000000,0.000000,0.000000,0.238293,0.293816,0.130827,0.000000,0.000000,153.000000,141.000000,12.000000,0.000000,0.000000,0.000000:
000000
000000
000000
000000
,
000000
000000
000000
000000
,
000000
000000
000000
000000
,
000000
000000
000000
000000
,
000000
000000
000000
000000
,
000000
000000
000000
000000
,
000000
000000
000000
000000
,
000000
000000
000000
000000
,
000000
000000
000000
000000
,
100000
000000
000001
000000
,
000100
000100
001000
100001
,
010000
100000
000010
000001
,
010000
010000
000010
000010
,
000001
000000
100000
000000
,
000100
000100
001000
010010
,
010000
100000
000010
000001
,
010000
010000
000010
000010
,
000100
000000
000100
000000
,
000100
100001
001000
010010
,
100000
100000
100000
100000
,
000001
000001
000001
000001
,
001000
000000
001000
000000
,
001000
010010
000100
100001
,
010000
010000
010000
010000
,
000010
000010
000010
000010
,
000100
001000
010000
001000
,
000100
000000
000010
000000
,
010000
100000
001000
001000
,
000010
000001
001000
001000
,
000100
001000
000010
001000
,
000100
000000
010000
000000
,
010000
100000
000010
000001
,
000010
000100
001000
100001
,
010000
000000
000010
000000
,
000100
001000
000010
100001
,
010000
010000
010000
010000
,
000001
000001
000001
000001
,
000010
000000
010000
000000
,
000100
001000
010000
100001
,
000010
000010
000010
000010
,
100000
100000
100000
100000
,
000001
000000
100000
000000
,
000100
000100
001000
100001
,
010000
100000
000010
000001
,
010000
010000
000010
000010
,
100000
000000
000001
000000
,
000100
000100
001000
010010
,
010000
100000
000010
000001
,
010000
010000
000010
000010
,
100001
000000
000000
000000
;

//---------------dance-solo - ----------------
#NOTES:
     dance-solo:
     :
     Medium:
     5:
     0.308379,0.320527,0.119925,0.000000,0.000000,198.000000,187.000000,11.000000,0.000000,0.000000,0.000000,0.308379,0.320527,0.119925,0.000000,0.000000,198.000000,187.000000,11.000000,0.000000,0.000000,0.000000:
000000
000000
000000
000000
,
000000
000000
000000
000000
,
000000
000000
000000
000000
,
000000
000000
000000
000000
,
000000
000000
000000
000000
,
000000
000000
000000
000000
,
000000
000000
000000
000000
,
000000
000000
000000
000000
,
000000
000000
000000
000000
,
010000
000000
010000
000000
000010
100000
001000
000000
,
000010
000000
000010
000000
010000
000001
001000
000000
,
000100
001000
000100
100001
,
000100
001000
000100
010010
,
010000
000000
010000
000000
000010
100000
001000
000000
,
000010
000000
000010
000000
010000
000001
001000
000000
,
000100
001000
000100
100001
,
000100
001000
000100
010010
,
100000
000000
010000
000000
000001
001000
001000
000000
,
000001
000000
000010
000000
100000
001000
001000
000000
,
100000
000000
010000
000000
010000
000001
100000
000000
,
000001
000000
000010
000000
000010
100000
000001
000000
,
100000
000000
010000
000000
000001
001000
001000
000000
,
000001
000000
000010
000000
100000
001000
001000
000000
,
100000
000000
010000
000000
010000
000001
100000
000000
,
000001
000000
000010
000000
000010
100000
000001
000000
,
010000
000000
001000
000000
000100
000010
000001
000000
,
010000
000000
001000
000000
000001
000100
001000
000000
,
000001
000001
100000
100000
,
000010
000001
100000
001000
,
000010
000000
001000
000000
000100
010000
100000
000000
,
000010
000000
001000
000000
100000
000100
001000
000000
,
100000
100000
000001
000001
,
010000
100000
000001
001000
,
000100
010000
001000
100001
,
000100
000000
001000
000000
000001
000010
001000
000000
,
000001
000000
000010
000000
000100
010000
001000
000000
,
100000
000000
010000
000000
000100
000010
001000
000000
,
000100
000010
001000
100001
,
000100
000000
001000
000000
100000
010000
001000
000000
,
100000
000000
010000
000000
000100
000010
001000
000000
,
000001
000000
000010
000000
000100
010000
001000
000000
,
010000
000000
010000
000000
000010
100000
001000
000000
,
000010
000000
000010
000000
010000
000001
001000
000000
,
000100
001000
000100
100001
,
000100
001000
000100
010010
,
010000
000000
010000
000000
000010
100000
001000
000000
,
000010
000000
000010
000000
010000
000001
001000
000000
,
000100
001000
000100
100001
,
000100
001000
000100
010010
,
001100
000000
000000
000000
;

//---------------dance-solo - ----------------
#NOTES:
     dance-solo:
     :
     Hard:
     7:
     0.305264,0.373948,0.141730,0.000000,0.076316,196.000000,183.000000,13.000000,0.000000,0.000000,0.000000,0.305264,0.373948,0.141730,0.000000,0.076316,196.000000,183.000000,13.000000,0.000000,0.000000,0.000000:
000000
000000
000000
000000
,
000000
000000
000000
000000
,
000000
000000
000000
000000
,
000000
000000
000000
000000
,
000000
000000
000000
000000
,
000000
000000
000000
000000
,
000000
000000
000000
000000
,
000000
000000
000000
000000
,
000000
000000
000000
000000
,
000100
000000
000000
000000
000010
000000
000000
000000
010000
000000
000000
000001
000000
000000
001000
000000
,
000100
000000
000000
000000
010000
000000
000000
000000
000010
000000
000000
100000
000000
000000
001000
000000
,
000001
000000
000000
000000
000001
000000
000000
000000
010000
000000
000000
000001
000000
000000
001000
000000
,
100000
000000
000000
000000
100000
000000
000000
000000
000010
000000
000000
100000
000000
000000
001000
000000
,
000100
000000
000000
000000
000010
000000
000000
000000
010000
000000
000000
000001
000000
000000
001000
000000
,
000100
000000
000000
000000
010000
000000
000000
000000
000010
000000
000000
100000
000000
000000
001000
000000
,
000001
000000
000000
000000
000001
000000
000000
000000
010000
000000
000000
000001
000000
000000
001000
000000
,
000100
000000
000100
100001
,
011000
000000
001010
000000
,
010000
000001
001000
000000
000010
100000
001000
000000
,
100000
000000
100000
000000
010000
000001
001000
000000
,
000001
000000
000001
000000
000010
100000
001000
000000
,
001010
000000
011000
000000
,
000010
100000
001000
000000
010000
000001
001000
000000
,
000001
000000
000001
000000
000010
100000
001000
000000
,
100000
000000
100000
000000
010000
000001
001000
000000
,
000100
000000
000100
000000
,
000010
000000
100000
001000
000000
000000
000000
000000
,
010000
000000
011000
000000
000100
000010
001000
000000
,
000010
000000
001010
000000
000100
000010
001000
000000
,
000100
000000
000100
000000
,
010000
000000
000001
001000
000000
000000
000000
000000
,
000010
000000
001010
000000
000100
010000
001000
000000
,
000100
000000
001000
100001
,
000010
101000
010000
001001
,
010000
000001
001000
000000
000010
100000
001000
000000
,
010000
000000
010000
000000
001000
000100
000001
000000
,
000010
000000
000010
000000
001000
000100
100000
000000
,
010000
001001
000010
101000
,
000010
100000
001000
000000
010000
000001
001000
000000
,
000010
000000
000010
000000
001000
000100
100000
000000
,
010000
000000
010000
000000
001000
000100
000001
000000
,
000100
000000
000000
000000
000010
000000
000000
000000
010000
000000
000000
000001
000000
000000
001000
000000
,
000100
000000
000000
000000
010000
000000
000000
000000
000010
000000
000000
100000
000000
000000
001000
000000
,
000001
000000
000000
000000
000001
000000
000000
000000
010000
000000
000000
000001
000000
000000
001000
000000
,
100000
000000
000000
000000
100000
000000
000000
000000
000010
000000
000000
100000
000000
000000
001000
000000
,
000100
000000
000000
000000
000010
000000
000000
000000
010000
000000
000000
000001
000000
000000
001000
000000
,
000100
000000
000000
000000
010000
000000
000000
000000
000010
000000
000000
100000
000000
000000
001000
000000
,
000001
000000
000000
000000
000001
000000
000000
000000
010000
000000
000000
000001
000000
000000
001000
000000
,
000100
000000
000000
000000
010000
001000
000010
100000
,
001000
000000
000000
000000
;

//---------------dance-single - ----------------
#NOTES:
     dance-single:
     :
     Beginner:
     4:
     0.169764,0.272557,0.098120,0.054511,0.000000,109.000000,100.000000,9.000000,5.000000,0.000000,0.000000,0.169764,0.272557,0.098120,0.054511,0.000000,109.000000,100.000000,9.000000,5.000000,0.000000,0.000000:
0000
0000
0000
0000
,
0000
0000
0000
0000
,
0000
0000
0000
0000
,
0000
0000
0000
0000
,
0000
0000
0000
0000
,
0000
0000
0000
0000
,
0000
0000
0000
0000
,
0000
0000
0000
0000
,
0000
0000
0000
0000
,
0100
0010
0100
0000
,
0100
0000
0100
0000
,
1000
0001
1000
0000
,
1000
0000
1000
0000
,
0001
1000
0001
0000
,
0001
0000
0001
0000
,
0010
0100
0010
0000
,
0010
0000
0010
0000
,
0020
0000
0000
0000
,
0030
0000
0000
0000
,
0100
0000
0100
0000
,
0001
1000
0001
0000
,
1000
1000
0001
0001
,
0001
1000
0001
0000
,
1001
0000
1001
0000
,
0010
0100
0010
0000
,
0100
0100
0001
0100
,
1000
0000
1000
0000
,
0001
0010
0100
1000
,
0002
0000
0003
0000
,
1000
0010
0100
0001
,
1000
0000
1000
0000
,
0001
0010
1000
0100
,
0001
0000
0000
0000
,
0000
0001
0000
0001
,
0100
0110
0110
0000
,
0000
1000
0000
1000
,
0100
0110
0110
0000
,
0000
1000
0000
0001
,
0000
0010
0110
0110
,
0000
0100
0010
1000
,
2002
0000
3003
0000
,
0001
1000
0001
0000
,
0100
0000
0100
0000
,
1000
0001
1000
0000
,
0100
0000
0100
0000
,
0010
1000
0001
0000
,
0010
0000
0010
0000
,
0001
1000
0100
0000
,
0001
0000
1000
0000
,
0200
0000
0000
0000
,
0300
0000
0000
0000
;

//---------------dance-single - ----------------
#NOTES:
     dance-single:
     :
     Challenge:
     13:
     0.627659,0.817670,0.337970,0.185339,0.632332,403.000000,372.000000,31.000000,17.000000,0.000000,0.000000,0.627659,0.817670,0.337970,0.185339,0.632332,403.000000,372.000000,31.000000,17.000000,0.000000,0.000000:
// measure 0
0000
0000
0000
0000
,  // measure 1
0000
0000
0000
0000
,  // measure 2
0000
0000
0000
0000
,  // measure 3
0000
0000
0000
0000
,  // measure 4
0000
0000
0000
0000
,  // measure 5
0000
0000
0000
0000
,  // measure 6
0000
0000
0000
0000
,  // measure 7
0000
0000
0000
0000
,  // measure 8
0000
0000
0000
0000
,  // measure 9
1000
0000
0100
0000
0001
0000
0100
0000
1000
0000
1000
0100
0000
1000
0100
1000
,  // measure 10
0001
0000
0010
0000
1000
0000
0010
0000
0001
0000
0001
0010
0000
0001
0010
0001
,  // measure 11
1000
0000
0010
0000
0001
0000
0010
0000
1000
0000
1000
0010
0000
1000
0010
1000
,  // measure 12
0001
0000
0100
0000
1000
0000
0100
0000
0001
0000
0000
0101
0000
0000
1001
0000
,  // measure 13
0001
0000
0100
0000
1000
0000
0100
0000
0001
0000
0001
0100
0000
0001
0100
0001
,  // measure 14
1000
0000
0010
0000
0001
0000
0010
0000
1000
0000
1000
0010
0000
1000
0010
1000
,  // measure 15
0001
0000
0010
0000
1000
0000
0010
0000
0001
0000
0001
0010
0000
0001
0010
0001
,  // measure 16
1000
0000
0100
0000
0001
0000
0100
0000
2000
0000
0000
0000
3100
1000
0100
0010
,  // measure 17
0100
0000
0000
0100
0010
0000
0000
0010
0001
0000
0000
0001
0100
0000
0000
0100
,  // measure 18
0010
0000
0000
0010
1000
0000
0001
0000
1001
0000
0011
0000
0101
0000
0000
0000
,  // measure 19
0001
1000
0100
0000
1000
0000
0010
0000
1000
0010
0100
0000
0010
0000
0100
0000
,  // measure 20
0002
0000
0023
0000
0230
0000
2300
0000
3001
1000
0001
1000
0010
1000
0010
1000
,  // measure 21
0100
0000
0000
0100
1000
0000
0000
1000
0001
0000
0000
0001
0100
0000
0000
0100
,  // measure 22
0010
0000
0000
0010
0100
0000
0001
0000
1001
0000
1010
0000
0011
0000
0000
0000
,  // measure 23
0001
0010
0001
0010
0200
0000
0000
0000
1300
0010
1000
0010
0200
0000
0000
0000
,  // measure 24
0301
0000
0000
0001
1000
0000
0001
0000
0101
0000
1100
0000
0101
0000
0000
0000
,  // measure 25
0010
0000
0000
0010
1000
0000
0000
1000
0001
0000
1000
0000
0010
0000
0100
0000
,  // measure 26
0001
0000
0000
0010
0001
0000
1000
0000
0100
1000
0010
0000
1010
0000
0000
0000
,  // measure 27
1000
0010
0100
0000
0101
0000
0100
0000
0001
0010
0100
0000
1100
0000
1000
0000
,  // measure 28
0010
1000
0010
1000
0001
1000
0001
1000
0100
1000
0100
1000
0001
0010
0100
1000
,  // measure 29
0010
1000
0010
0000
1010
0000
1000
0000
0100
1000
0100
0000
1100
0000
1000
0000
,  // measure 30
0010
0100
0001
0000
0100
0000
0020
0000
0000
0000
0100
0000
0130
0000
0000
0000
,  // measure 31
0110
0000
0000
0001
1000
0000
0100
0000
1000
0000
0001
1000
0010
0000
2000
0000
,  // measure 32
0200
0000
0000
3300
,  // measure 33
1010
0000
0000
1000
0100
0000
0001
0000
0011
0000
0000
0001
0100
0000
0001
0000
,  // measure 34
1100
0000
0000
0001
0100
0000
1000
0000
0200
0000
0000
0000
1300
0100
1000
0000
,  // measure 35
0001
0100
1000
0000
0010
0000
1000
0000
0010
1000
0001
0000
1000
0100
0020
0000
,  // measure 36
0000
0000
0031
0100
0010
0000
0100
0010
1000
0000
0010
1000
0000
0001
0100
0000
,  // measure 37
0110
0000
0000
1000
0100
0000
0010
0000
0011
0000
0000
0001
0010
0000
0100
0000
,  // measure 38
1100
0000
0000
1000
0010
0000
0100
0000
0002
0000
0000
0000
1003
0100
0010
0000
,  // measure 39
0011
0000
0000
0001
0100
0000
0010
0000
0100
0000
0010
1000
0100
0000
0020
0000
,  // measure 40
0000
0200
0000
0000
0000
0000
0330
0000
,  // measure 41
0001
0100
0001
0000
0010
1000
0010
0000
1010
0000
1000
0010
0000
0100
0001
1000
,  // measure 42
0100
0010
0100
0000
0010
0001
0010
0000
0011
0000
0001
0010
0000
0001
0010
0100
,  // measure 43
1000
0010
1000
0000
0001
0100
0001
0000
1001
0000
1000
0010
0000
0100
0001
0100
,  // measure 44
0001
0000
0010
0000
0100
1000
0010
0100
0010
0000
0100
0010
0000
0100
0001
0000
,  // measure 45
0010
0001
0010
0000
1000
0001
1000
0000
1001
0000
1000
0010
0000
0001
0100
0001
,  // measure 46
0010
0100
0010
0000
0100
1000
0100
0000
1100
0000
1000
0100
0000
0001
0100
1000
,  // measure 47
0100
0001
0100
0000
1000
0100
1000
0000
1010
0000
0010
1000
0000
0001
0010
0001
,  // measure 48
0100
0000
0001
0000
1000
0100
0010
0100
1000
0000
0001
0100
0000
0001
0100
0000
,  // measure 49
0202
0000
0000
0000
,  // measure 50
0303
0000
0000
0000
;
