#VERSION:0.83;
#TITLE:PETIT LOVE;
#SUBTITLE:;
#ARTIST:SMILE.dk;
#TITLETRANSLIT:;
#SUBTITLETRANSLIT:;
#ARTISTTRANSLIT:;
#GENRE:;
#ORIGIN:;
#CREDIT:;
#BANNER:PETIT LOVE.png;
#BACKGROUND:PETIT LOVE-bg.png;
#PREVIEWVID:;
#JACKET:PETIT LOVE-jacket.png;
#CDIMAGE:;
#DISCIMAGE:;
#LYRICSPATH:;
#CDTITLE:;
#MUSIC:PETIT LOVE.ogg;
#OFFSET:0.000000;
#SAMPLESTART:63.484001;
#SAMPLELENGTH:15.000000;
#SELECTABLE:YES;
#DISPLAYBPM:155.000000;
#BPMS:0.000=155.000;
#STOPS:;
#DELAYS:;
#WARPS:;
#TIMESIGNATURES:0.000=4=4;
#TICKCOUNTS:0.000=4;
#COMBOS:0.000=1;
#SPEEDS:0.000=1.000=0.000=0;
#SCROLLS:0.000=1.000;
#FAKES:;
#LABELS:0.000=Song Start;
#BGCHANGES:;
#KEYSOUNDS:;
#ATTACKS:
;

//---------------dance-single - ----------------
#NOTEDATA:;
#CHARTNAME:;
#STEPSTYPE:dance-single;
#DESCRIPTION:;
#CHARTSTYLE:;
#DIFFICULTY:Easy;
#METER:7;
#RADARVALUES:0.325802,0.443257,0.292646,0.000000,0.000000,226.000000,197.000000,29.000000,0.000000,0.000000,0.000000,0.000000,0.000000,0.000000,0.325802,0.443257,0.292646,0.000000,0.000000,226.000000,197.000000,29.000000,0.000000,0.000000,0.000000,0.000000,0.000000,0.000000;
#CREDIT:;
#DISPLAYBPM:155.000000;
#NOTES:
0000
0000
0000
0000
,
0000
0000
0000
0000
,
0000
0000
0000
0000
,
0000
0000
0000
0000
,
0000
0000
0000
0000
,
1000
0001
1000
0001
,
0001
1000
0001
1000
,
1000
0001
1000
0001
,
0001
1000
0001
1000
,
0001
0010
0100
1000
,
0001
0100
0010
1000
,
0001
0010
1000
0100
,
0001
0010
0100
1000
,
0001
0000
1000
0000
,
0100
0100
0010
0000
,
0001
0000
1000
0000
,
0010
0010
0100
0000
,
0001
0000
1000
0000
,
0001
0010
0100
0000
,
1000
0000
0001
0000
,
0010
0100
1000
0000
,
1001
0000
1001
0000
,
1001
1001
1001
0000
,
0010
0000
1000
0001
,
1000
0100
0010
0001
,
1000
0000
0100
0010
,
0001
0100
0010
1010
,
0001
0001
1001
1000
,
0010
0010
0100
0001
,
1000
0010
0100
0001
,
1001
0101
0011
1001
,
0010
0000
0001
0100
,
0001
0001
1000
1000
,
0001
0010
1000
0100
,
0100
0010
0001
0000
,
1000
0000
0000
0010
,
0001
0100
1000
0001
,
1001
0000
1001
0000
,
0001
0010
1000
0000
,
1001
0000
1001
0000
,
0001
1000
0001
0000
,
1000
0100
0100
0100
,
0010
0001
0010
0001
,
1000
0010
0010
0010
,
0100
0001
0100
0001
,
1000
0001
0001
0001
,
0100
0001
0010
0100
,
1000
0001
0001
0001
,
1000
0010
0100
0100
,
0001
0000
1000
0000
,
0001
0010
0100
1100
,
1000
0000
0001
0000
,
1000
0010
0100
0101
,
0001
0100
1000
1000
,
0010
0001
0100
0010
,
0001
0010
1000
1000
,
0010
1000
0100
0010
,
0001
0010
1000
1000
,
0100
0001
0010
1000
,
1001
0000
0110
0000
,
1010
0011
0101
1100
,
1001
0000
0110
0000
,
0110
1010
1100
0101
;

//---------------dance-single - ----------------
#NOTEDATA:;
#CHARTNAME:;
#STEPSTYPE:dance-single;
#DESCRIPTION:;
#CHARTSTYLE:;
#DIFFICULTY:Medium;
#METER:9;
#RADARVALUES:0.458430,0.506580,0.080730,0.000000,0.000000,318.000000,310.000000,8.000000,0.000000,0.000000,0.000000,0.000000,0.000000,0.000000,0.458430,0.506580,0.080730,0.000000,0.000000,318.000000,310.000000,8.000000,0.000000,0.000000,0.000000,0.000000,0.000000,0.000000;
#CREDIT:;
#DISPLAYBPM:155.000000;
#NOTES:
0000
0000
0000
0000
,
0000
0000
0000
0000
,
0000
0000
0000
0000
,
0000
0000
0000
0000
,
0000
0000
0000
0000
,
0000
0100
0000
0001
0000
0100
0000
0001
,
0000
1000
0000
0100
0000
0001
0100
1000
,
0000
0001
0000
0100
0000
0001
0000
0100
,
0000
0010
0000
1000
0000
0001
0100
1000
,
0000
0100
0000
0001
0000
0100
0000
0001
,
0000
1000
0000
0100
0000
0001
0100
1000
,
0000
0001
0000
1000
0000
0001
0000
0100
,
0000
0010
0000
1000
0000
0010
0100
1000
,
0100
0100
0100
0100
,
0001
0010
1000
0100
,
0001
1000
0100
0000
0010
0000
0010
0000
,
0001
1000
0010
0100
,
0001
0001
0001
0001
,
1000
0010
0100
0010
,
0001
0100
1000
0000
0100
0000
0100
0000
,
1000
0010
0100
0001
,
1000
0001
1000
0001
0100
0010
0100
0010
,
0100
1000
0100
0001
0010
0000
1001
0000
,
0001
0010
0100
0000
1000
0010
0100
0000
,
0001
1000
0100
0000
0010
0001
0100
0001
,
0000
0010
0000
0100
0000
1000
0000
0001
,
0000
0001
0010
0000
0001
0000
0001
0000
,
1000
0010
0100
0000
0001
0010
0100
0000
,
1000
0001
0100
0000
0010
1000
0100
0000
,
0010
0001
0010
0100
,
1000
0001
1001
0000
0001
1000
1001
0000
,
1000
0100
0010
0000
0001
0100
0010
0000
,
1000
0001
0010
0000
0100
1000
0010
0000
,
0100
0010
0000
0010
0000
0001
0000
0001
,
1000
0010
0100
0001
0010
0000
1000
0000
,
0001
0010
0100
1000
0001
0100
0010
1000
,
0100
0010
0001
0100
0010
0000
0010
0000
,
1001
0000
0100
0001
0010
0000
0001
0010
,
1000
0100
1000
0100
1000
0000
1000
0100
,
0001
0000
0001
0010
0100
0000
0100
1000
,
0010
0100
0010
0001
1000
0000
0010
0000
,
0001
0010
0100
0000
1000
0000
0010
0000
,
0100
0001
0010
0000
0100
0000
1000
0000
,
0010
0100
0001
0000
0010
0000
0100
0000
,
1000
0001
0100
0000
0010
0000
0100
0000
,
0001
0010
0100
0010
1000
0010
1000
0010
,
0100
1000
0010
0000
0100
0000
0100
0000
,
0010
0100
0001
0100
1000
0100
1000
0100
,
0001
0010
0100
0000
1000
0000
1001
0000
,
1000
0100
0010
0000
0001
0000
0100
0000
,
0010
1000
0100
0000
0010
0000
0001
0000
,
0100
0010
1000
0010
0100
0000
0100
0000
,
0001
1000
0010
0000
0100
0000
0001
0000
,
0010
0100
1000
0100
0010
0000
0010
0000
,
0001
1000
0010
0000
0100
0000
0001
0000
,
0100
0010
1000
0001
0100
0000
0001
0000
,
1000
0001
0010
0000
0100
0000
1000
0000
,
0001
0100
0010
1000
0001
0000
1000
0000
,
0001
1000
0010
0000
0100
0000
1001
0000
,
0010
0001
0010
0000
0001
0000
1000
0000
,
0001
0001
0001
1001
,
0010
1000
0010
0000
1000
0000
0001
0000
,
1000
0100
1000
0010
1000
0001
1001
0000
;

//---------------dance-single - ----------------
#NOTEDATA:;
#CHARTNAME:;
#STEPSTYPE:dance-single;
#DESCRIPTION:;
#CHARTSTYLE:;
#DIFFICULTY:Hard;
#METER:12;
#RADARVALUES:0.534835,0.606357,0.100912,0.020182,0.020182,371.000000,361.000000,10.000000,2.000000,0.000000,0.000000,0.000000,0.000000,0.000000,0.534835,0.606357,0.100912,0.020182,0.020182,371.000000,361.000000,10.000000,2.000000,0.000000,0.000000,0.000000,0.000000,0.000000;
#CREDIT:;
#DISPLAYBPM:155.000000;
#NOTES:
0000
0000
0000
0000
,
0000
0000
0000
0000
,
0000
0000
0000
0000
,
0000
0000
0000
0000
,
0000
0000
0000
0000
,
0000
0010
0001
1000
0100
0010
0001
1000
,
0000
0010
1000
0001
0100
0010
1000
0001
,
0000
1000
1000
0001
0100
0010
0100
0001
,
0000
0100
0100
0001
1000
0100
0010
0001
,
0000
0100
0001
1000
0010
0100
0001
1000
,
0000
0100
1000
0001
0010
0100
1000
0001
,
0000
1000
1000
0010
1000
0100
0010
0001
,
0000
0010
0010
0001
0100
0010
1000
0001
,
1000
0000
1000
0000
1000
0100
0001
0000
,
0100
1000
0001
0100
1000
0100
0001
0000
,
1000
0000
1000
0000
0100
0001
0100
0000
,
1000
0010
0100
1000
0100
0001
1000
0000
,
0010
0000
0010
0000
0100
0001
1000
0000
,
0100
0001
0100
0010
0001
1000
0001
0000
,
1000
0000
1000
0000
0010
1000
0001
0000
,
0100
0010
1000
0010
0100
0001
1000
0000
,
0001
0010
0001
0010
0100
1000
0100
1000
,
0001
0010
0100
1000
0001
0000
1001
0000
,
1000
0000
1000
0000
0001
0001
0001
0000
,
0010
0000
0010
0000
0001
0001
0001
0000
,
1000
0100
0010
0001
1000
0010
0100
0001
,
1000
0100
0010
0001
1000
0000
1001
0000
,
0100
0000
0100
0000
1000
0100
0001
0000
,
1000
0000
1000
0000
0100
0001
0100
0000
,
1000
0010
0100
0001
1000
0100
0010
0001
,
0010
0001
0010
0001
0010
0000
0000
0000
0100
1000
0100
1000
0100
0000
0000
0000
,
1000
0000
1000
0000
0001
0100
0010
0100
,
0001
0000
0001
0000
1000
0100
0010
0100
,
1000
0100
0010
0001
1000
0010
0100
0001
,
1000
0100
0010
0001
1000
0000
1001
0000
,
1000
1000
0100
0100
,
0010
0000
0010
0000
0001
0010
0001
0000
,
1000
0100
0001
0100
,
1000
0100
0001
0101
,
1000
0100
0001
0100
,
1000
0001
1000
0010
1000
0000
1010
0000
,
1000
0100
0001
0100
1000
0100
0001
0100
,
1000
0100
0010
0001
,
0100
1000
0100
0001
0100
1000
0100
0001
,
0100
0010
1000
0001
,
0010
0001
0010
0001
0010
0001
1000
0010
,
0100
1000
0100
1000
0100
1000
0100
1000
,
0001
0000
0001
0000
1000
0010
0100
0000
,
0010
0000
0010
0000
1000
0001
0100
0000
,
1000
0100
0001
0010
0100
0001
0100
1000
,
0010
0001
0010
1000
0100
0001
0100
1000
,
0010
0000
0010
0000
0010
0001
0010
0000
,
1000
0000
1000
0000
1000
0100
1000
0000
,
0010
1000
0010
0100
0010
1000
0010
0100
,
0001
1000
0100
0010
,
0001
0010
0001
1000
0001
0010
0001
1000
,
0001
0010
0100
1000
,
0100
0010
0001
1000
0100
0010
0001
1000
,
0001
0001
1000
1000
0010
0010
0100
0100
,
0001
0011
0001
1100
,
0001
0010
0001
0010
0001
1000
0001
0000
,
1000
1010
1000
0101
,
1000
0010
0100
0001
1000
0100
2002
0000
,
0000
3003
0000
0000
;

//---------------dance-couple - ----------------
#NOTEDATA:;
#CHARTNAME:;
#STEPSTYPE:dance-couple;
#DESCRIPTION:;
#CHARTSTYLE:;
#DIFFICULTY:Medium;
#METER:7;
#RADARVALUES:0.371934,0.538241,0.121095,0.000000,0.010091,258.000000,246.000000,12.000000,0.000000,0.000000,0.000000,0.000000,0.000000,0.000000,0.371934,0.538241,0.121095,0.000000,0.010091,258.000000,246.000000,12.000000,0.000000,0.000000,0.000000,0.000000,0.000000,0.000000;
#CREDIT:;
#DISPLAYBPM:155.000000;
#NOTES:
00000000
00000000
00000000
00000000
,
00000000
00000000
00000000
00000000
,
00000000
00000000
00000000
00000000
,
00000000
00000000
00000000
00000000
,
00000000
00000000
00000000
00000000
,
10000001
00000000
00010000
10000000
01000001
00100000
00010000
00000000
,
10001000
00000000
00000001
00001000
10000100
00000010
00000001
00000000
,
00011000
00000000
10000001
00000000
00100100
01000010
00100100
01000010
,
00011000
00011000
10000001
01000010
,
10000000
00001000
00001000
00000001
10000100
00000010
00000100
00000001
,
10000000
00000100
00000100
00000001
10001000
00000100
00000010
00000000
,
00000001
10000000
10000000
00010000
01000001
00100000
01000000
00010000
,
00000001
01000000
01000000
00010000
10000001
01000000
00100000
00000000
,
10000010
00000010
10000100
00000100
,
10001000
00000000
10000001
00000000
,
00100001
00100000
01000001
01000000
,
10000001
00000000
00010001
00000000
,
10001000
00000001
00000100
00000000
10000010
00000000
00000010
00000000
,
10001000
00000001
10000010
00000100
,
00010001
10000000
01000000
00000000
00100001
00000000
00100000
00000000
,
00010001
10000000
00100001
01000000
,
00011000
00100010
00011000
00100010
01000100
10000001
01000100
10000001
,
00011000
00100010
01000100
10000001
00011000
00000000
10011001
00000000
,
01000000
00000000
01000000
00000000
00010001
00010000
00010000
00000000
,
10000001
01000000
00100000
00010000
10000001
00100000
01000000
00010000
,
10000001
10010000
00010001
10010000
,
11001100
00100010
00110011
01000100
,
10000010
00000000
00000010
00000000
10000001
00000001
00000001
00000000
,
10001000
00000100
00000010
00000001
10001000
00000010
00000100
00000001
,
10001000
00001001
10000001
00001001
,
01000100
10000000
01000000
10000000
01000000
00000000
00000000
00000000
00000010
00000001
00000010
00000001
00000010
00000000
00000000
00000000
,
10000001
01000000
00100000
00000000
00010001
01000000
00100000
00000000
,
10000001
00010000
00100000
00000000
01000001
10000000
00100000
00000000
,
10001000
00000100
00000010
00000000
10000001
00000100
00000010
00000000
,
10001000
00000001
00000010
00000000
10000100
00001000
00000010
00000000
,
00010001
00100010
01000100
10001000
00010001
01000100
00100010
10001000
,
01000100
00100010
00010001
01000100
00100010
00000000
00100010
00000000
,
10011001
01000100
00000001
00000001
,
10000000
00000000
10000000
00000000
10011001
00000000
00000000
00100000
,
00100000
00000000
00000000
00000010
00000010
00000000
00000000
00100010
,
10001000
00010001
01000100
00100010
10001000
00000000
11001100
00000000
,
10000010
00000001
00000010
00000001
10000010
00000001
00001000
00000010
,
10000100
00001000
00000100
00001000
10000100
00001000
00000100
00001000
,
10000001
00000000
00000001
00000000
10001000
00000010
00000100
00000000
,
10000010
00000000
00000010
00000000
10001000
00000001
00000100
00000000
,
00100001
00010000
00100000
00010000
00100001
00010000
10000000
00100000
,
01000001
10000000
01000000
10000000
01000001
10000000
01000000
10000000
,
00010001
00000000
00010000
00000000
10000001
00100000
01000000
00000000
,
00100001
00000000
00100000
00000000
10000001
00010000
01000000
00000000
,
10001000
00000100
00000001
00000010
10000100
00000001
00000100
00001000
,
10000010
00000001
00000010
00001000
10000100
00000001
00000100
00000000
,
10000001
01000000
00010000
00100000
01000001
00010000
01000000
10000000
,
00100001
00010000
00100000
10000000
01000001
00010000
01000000
00000000
,
10000010
00001000
00000010
00000100
10000010
00001000
00000010
00000100
,
10000001
00001000
10000100
00000010
,
00100001
10000000
00100000
01000000
00100001
10000000
00100000
01000000
,
00010001
10000000
01000001
00100000
,
01000100
00100010
00010001
10001000
01000100
00100010
00010001
10001000
,
00010001
00010001
10001000
10001000
00100010
00100010
01000100
01000100
,
00000001
00000011
00000001
00001100
,
10000001
00000010
00000100
00001000
00000001
00000100
10011001
00000000
,
00010000
00110000
00010000
11000000
,
00010001
00100000
01000000
10000000
00010000
01000000
10011001
00000000
;

//---------------dance-double - ----------------
#NOTEDATA:;
#CHARTNAME:;
#STEPSTYPE:dance-double;
#DESCRIPTION:;
#CHARTSTYLE:;
#DIFFICULTY:Easy;
#METER:3;
#RADARVALUES:0.325802,0.348273,0.141277,0.000000,0.000000,226.000000,212.000000,14.000000,0.000000,0.000000,0.000000,0.000000,0.000000,0.000000,0.325802,0.348273,0.141277,0.000000,0.000000,226.000000,212.000000,14.000000,0.000000,0.000000,0.000000,0.000000,0.000000,0.000000;
#CREDIT:;
#DISPLAYBPM:155.000000;
#NOTES:
00000000
00000000
00000000
00000000
,
00000000
00000000
00000000
00000000
,
00000000
00000000
00000000
00000000
,
00000000
00000000
00000000
00000000
,
00000000
00000000
00000000
00000000
,
10000000
01000000
00010000
00000100
,
00000001
00000100
00001000
00001000
,
00000010
00010000
00001000
01000000
,
00010000
10000000
01000000
01000000
,
00100000
00001000
00010000
00000100
,
00000001
00000100
00010000
00010000
,
00001000
01000000
00010000
10000000
,
00100000
01000000
00001000
00001000
,
00010000
00000100
00000100
00000100
,
00001000
00000000
00000001
00000000
,
00000100
00000010
00000010
00000010
,
00010000
00000000
00001000
00000000
,
01000000
00100000
10000000
00010000
,
01000000
00000000
00001000
00000000
,
00010000
00000100
00000001
00000100
,
00010000
00000000
00000010
00000000
,
00010000
00010000
00000010
00000000
,
00000100
00000100
00000100
00000100
,
00000001
00001001
00000100
00010000
,
00001000
00011000
01000000
00010000
,
10000000
10000000
01000000
00010000
,
00000100
00000010
00000001
00000100
,
00001000
00011000
00001000
01000000
,
00010000
10010000
01000000
00001000
,
00010000
00010000
00000010
00000100
,
00000001
00000001
00000100
00000000
,
00000010
00011000
00001000
01000000
,
00010000
10010000
01000000
00001000
,
00010000
00010000
00000010
00000100
,
00000001
00000010
00000100
00010000
,
00001000
00010000
00010000
00010000
,
00000010
00001000
00001000
00001000
,
00000010
00000100
00000010
00001000
,
00000010
00010000
00001000
00011000
,
00001000
00010000
00001000
01000000
,
00001000
00100000
00010000
10010000
,
10000000
00100000
10000000
00100000
,
01000000
00001000
01000000
00001000
,
00010000
00000100
00010000
00000100
,
00001000
00000010
00001000
00000010
,
00010000
00010000
00000100
00010000
,
00000010
00001000
00000001
00000100
,
00000010
00000010
00010000
00001000
,
01000000
00010000
00100000
01000000
,
10000000
00100000
10000000
00100000
,
01000000
00001000
00010000
00000100
,
00001000
00000001
00001000
00000001
,
00000100
00000010
00010000
00001000
,
00011000
00000000
00001000
00000000
,
10010000
00000000
01000000
00000000
,
00011000
00000000
00010000
00000000
,
00001001
00000000
00000100
00000000
,
00011000
00000100
00011000
01000000
,
00010000
10000000
01000000
00010000
,
00000100
00000001
00001000
00000100
,
00010000
00000100
00010000
00010000
,
00001000
00000000
01000000
00000000
,
00001000
00001000
00010000
00000100
;

//---------------dance-double - ----------------
#NOTEDATA:;
#CHARTNAME:;
#STEPSTYPE:dance-double;
#DESCRIPTION:;
#CHARTSTYLE:;
#DIFFICULTY:Medium;
#METER:6;
#RADARVALUES:0.445455,0.538241,0.171551,0.000000,0.070639,309.000000,292.000000,17.000000,0.000000,0.000000,0.000000,0.000000,0.000000,0.000000,0.445455,0.538241,0.171551,0.000000,0.070639,309.000000,292.000000,17.000000,0.000000,0.000000,0.000000,0.000000,0.000000,0.000000;
#CREDIT:;
#DISPLAYBPM:155.000000;
#NOTES:
00000000
00000000
00000000
00000000
,
00000000
00000000
00000000
00000000
,
00000000
00000000
00000000
00000000
,
00000000
00000000
00000000
00000000
,
00000000
00000000
00000000
00000000
,
00010000
00000000
00001000
00000000
00010000
00001000
00010000
00000100
,
00001000
00000000
00000001
00000000
00001000
00000001
00001000
00000010
,
00010000
00000000
00001000
00000000
00010000
00001000
01000000
00100000
,
10000000
00000000
00010000
00000000
10000000
00010000
01000000
00100000
,
10000000
00000000
00100000
00000000
01000000
00010000
01000000
00010000
,
00100000
00000000
00001000
00000000
00010000
00000100
00010000
00000100
,
00001000
00000000
00000010
00000000
00000100
00000001
00000100
00000001
,
00001000
00000000
00001000
00000000
00000001
00000100
00000010
00010000
,
00001000
00010000
00001000
00000000
01000000
00000000
00010000
00000000
,
10000000
11000000
00010000
01000000
,
00001000
00000000
00010000
00000000
00000010
00001000
00000001
00000000
,
00001000
00000100
00000010
00000001
,
00001000
00000100
00010000
00000000
00001000
00000000
01000000
00000000
,
00010000
01010000
00100000
10000000
,
01000000
00000000
00100000
00000000
00001000
00010000
00000100
00000000
,
00001000
00000010
00000100
00000001
,
00000011
00001100
00011000
00110000
,
11000000
00000000
00000000
00000000
,
10000000
00010000
00100000
01000000
00100000
00010000
10000000
00000000
,
01000000
00100000
00010000
01000000
00001000
00000000
00001000
00000000
,
00010000
00000000
00000100
00000000
,
00001000
00000001
00000100
00000010
,
00010000
00001000
01000000
00010000
01000000
00001000
00010000
00000000
,
00000010
00000100
00000001
00000010
00000100
00000000
00000100
00000000
,
00010000
00001000
01000000
00001000
,
00010000
00010000
00000100
00001001
,
00000010
00001000
00000010
00000100
00000001
00000000
00001000
00000000
,
00000100
00010000
00001000
00100000
00010000
00000000
01000000
00000000
,
00010000
00000000
10000000
00000000
01000000
00100000
00010000
00000000
,
01000000
00000000
00001000
00000000
00010000
00000100
00001000
00000000
,
00001000
00000100
00000010
00000001
00000100
00000010
00010000
00001000
,
01000000
00010000
10000000
01000000
00100000
00001000
00010000
00000010
,
00000100
00000000
00000000
00000001
00000100
00000000
00000000
00000000
00000010
00000000
00000000
00001000
00000010
00000000
00000000
00000000
,
00010000
00000000
00000000
00001000
00010000
00000000
00000000
00001000
00010000
00000000
00000000
00001000
01000000
00000000
00000000
00000000
,
00100000
00000000
00000000
10000000
00100000
00000000
00000000
00000000
01000000
00000000
00000000
00010000
01000000
00000000
00000000
00000000
,
00001000
00000000
00000000
00010000
00001000
00000000
00000000
00010000
00001000
00000000
00000000
00010000
00000010
00000000
00000000
00000000
,
00001000
00001000
00000001
00000100
,
00000010
00000000
00000000
00010000
00001000
00000000
00000000
00000000
01000000
00000000
00000000
00000000
01000000
00000000
00000000
00000000
,
00010000
00010000
10000000
01000000
,
00100000
00000000
00000000
00001000
00010000
00000000
00000000
00000000
00000100
00000000
00000000
00000000
00000100
00000000
00000000
00000000
,
00001000
00001001
00000100
00001000
,
00000001
00000000
00000000
00000100
00000010
00000000
00000000
00000000
00010000
00000000
00000000
00000000
00001000
00000000
00000000
00000000
,
01000000
01010000
00100000
10000000
,
01000000
00000000
00000000
00100000
00001000
00000000
00000000
00000000
00010000
00000000
00000000
00000000
00000100
00000000
00000000
00000000
,
00001000
00001000
00000001
00000001
,
00001000
00000100
00000010
00000001
,
00000100
00000100
00000010
00000010
,
00010000
00001000
01000000
00010000
,
00110000
00110000
01000000
00001000
,
00010000
00000100
00001000
00000001
,
00001001
00001001
00000100
00010000
,
00001000
01000000
00010000
00000000
10000000
00000000
00010000
00000000
,
00110000
00000000
00011000
00000000
00000100
00000100
00000100
00000000
,
00001000
00000001
00000100
00000000
00000010
00010000
00001000
00000000
,
01000000
00010000
01000000
00010000
,
01000000
00010000
01000000
00001000
00010000
00000000
00000010
00000000
,
00001000
00000100
00001000
00000100
,
00000010
00000001
00000000
00001000
00000100
00000000
00011000
00000000
;

//---------------dance-double - ----------------
#NOTEDATA:;
#CHARTNAME:;
#STEPSTYPE:dance-double;
#DESCRIPTION:;
#CHARTSTYLE:;
#DIFFICULTY:Hard;
#METER:8;
#RADARVALUES:0.580966,0.569902,0.262372,0.000000,0.534835,403.000000,377.000000,26.000000,0.000000,0.000000,0.000000,0.000000,0.000000,0.000000,0.580966,0.569902,0.262372,0.000000,0.534835,403.000000,377.000000,26.000000,0.000000,0.000000,0.000000,0.000000,0.000000,0.000000;
#CREDIT:;
#DISPLAYBPM:155.000000;
#NOTES:
00000000
00000000
00000000
00000000
,
00000000
00000000
00000000
00000000
,
00000000
00000000
00000000
00000000
,
00000000
00000000
00000000
00000000
,
00000000
00000000
00000000
00000000
,
00010000
00000000
00000000
00010000
00100000
00000000
00000000
00100000
00010000
00000000
00000000
00010000
00100000
00000000
00000000
00100000
,
00001000
00000000
00000000
00001000
00010000
00000000
00000000
00010000
00001000
00000000
00000000
00001000
00010000
00000000
00000000
00010000
,
00000010
00000000
00000000
00000010
00001000
00000000
00000000
00001000
00000010
00000000
00000000
00000010
00001000
00000000
00000000
00001000
,
00000001
00000000
00000000
00000001
00000100
00000000
00000000
00000100
00000001
00000000
00000000
00000001
00000100
00000000
00000000
00000100
,
00000001
00000000
00000000
00000001
00000100
00000000
00000000
00000100
00000010
00000000
00000000
00000010
00010000
00000000
00000000
00010000
,
00001000
00000000
00000000
00001000
01000000
00000000
00000000
01000000
00100000
00000000
00000000
00100000
10000000
00000000
00000000
10000000
,
01000000
00000000
00000000
01000000
00100000
00000000
00000000
00100000
00001000
00000000
00000000
00001000
00010000
00000000
00000000
00010000
,
00000100
00000000
00000000
00000100
00001000
00000000
00000000
00001000
00000001
00000000
00000000
00000001
00000100
00000000
00000000
00000100
,
00000001
00000000
00000000
00000100
00000001
00000000
00000000
00000000
00001000
00000000
00000000
00000000
00000100
00000000
00000000
00000000
,
00010000
00000000
00000000
00001000
00010000
00000000
00000000
00000000
00001000
00000000
00000000
00000000
01000000
00000000
00000000
00000000
,
00010000
00000000
00000000
10000000
00010000
00000000
00000000
00000000
00100000
00000000
00000000
00000000
00001000
00000000
00000000
00000000
,
00010000
00000000
00000000
00000100
00010000
00000000
00000000
00000000
00000010
00000000
00000000
00000000
00000100
00000000
00000000
00000000
,
00000001
00000000
00000000
00000010
00000001
00000000
00000000
00000000
00001000
00000000
00000000
00000000
00000010
00000000
00000000
00000000
,
00010000
00000000
00000000
00001000
00010000
00000000
00000000
00000000
00001000
00000000
00000000
00000000
00100000
00000000
00000000
00000000
,
00010000
00000000
00000000
10000000
00010000
00000000
00000000
00000000
01000000
00000000
00000000
00000000
00001000
00000000
00000000
00000000
,
00010000
00000000
00000000
00000010
00010000
00000000
00000000
00000000
00000100
00000000
00000000
00000000
00000010
00000000
00000000
00000000
,
00000001
00000100
00000001
00001000
00000100
00000010
00000100
00001000
,
00000001
00000001
00001000
00001000
00001000
00000000
00000000
00000000
,
00000010
00010000
00001000
00010000
00001000
00000000
01000000
00000000
,
00001000
00010000
00000100
00000010
00000001
00001000
00000100
00010000
,
00000010
00001010
00000001
00000011
,
00001001
00001010
00011000
01000000
,
00100000
00001000
00010000
00001000
00010000
00000000
00000100
00000000
,
00010000
00001000
01000000
00100000
10000000
00010000
01000000
00001000
,
00100000
00110000
10000000
10100000
,
00011000
00110000
11000000
00110000
,
00100000
00001000
00010000
00001000
00010000
00000000
00000100
00000100
,
00010000
00001000
01000000
00100000
10000000
00010000
01000000
00001000
,
00100000
00100000
00110000
00000000
00001000
00001000
00011000
00000000
,
10010000
00110000
00011000
00000100
,
00000010
00010000
00001000
00010000
00001000
00000000
01000000
00000000
,
00001000
00010000
00000100
00000010
00000001
00001000
00000100
00010000
,
00000010
00001010
00000001
00000011
,
00001000
00000000
00001000
00000000
00000010
00010000
00001000
00000000
,
01000000
01010000
00010000
10010000
,
00001000
00000000
00001000
00000000
00010000
00000010
00000100
00000000
,
00001000
00000000
00000000
00001000
00000010
00000000
00000000
00000010
00001000
00000000
00000000
00001000
00000010
00000000
00000000
00000000
,
00010000
00000000
00000000
00010000
00001000
00000000
00000000
00001000
00010000
00000000
00000000
00010000
00001000
00000000
00000000
00000000
,
00100000
00000000
00000000
00100000
00010000
00000000
00000000
00010000
00100000
00000000
00000000
00100000
00010000
00000000
00000000
00000000
,
10000000
00000000
00000000
10000000
01000000
00000000
00000000
01000000
10000000
00000000
00000000
10000000
01000000
00000000
00000000
00000000
,
10000000
00000000
00000000
10000000
01000000
00000000
00000000
01000000
00100000
00000000
00000000
00100000
00001000
00000000
00000000
00001000
,
00010000
00000000
00000000
00010000
00000100
00000000
00000000
00000100
00000010
00000000
00000000
00000010
00000001
00000000
00000000
00000001
,
00000100
00000000
00000000
00000100
00000010
00000000
00000000
00000010
00010000
00000000
00000000
00010000
00001000
00000000
00000000
00001000
,
00000100
00000000
00000000
00000100
00001000
00000000
00000000
00001000
00000001
00000000
00000000
00000001
00000100
00000000
00000000
00000000
,
00000010
00000000
00000000
00000010
00010000
00000000
00000000
00010000
00000100
00000000
00000000
00000100
00010000
00000000
00000000
00010000
,
00001000
00000000
00000000
00001000
00100000
00000000
00000000
00100000
00010000
00000000
00000000
00010000
10000000
00000000
00000000
10000000
,
01000000
00000000
00000000
01000000
00100000
00000000
00000000
00100000
00001000
00000000
00000000
00001000
00010000
00000000
00000000
00010000
,
00000100
00000000
00000000
00000100
00001000
00000000
00000000
00001000
00000010
00000000
00000000
00000010
00001000
00000000
00000000
00001000
,
00000001
00000000
00000000
00000001
00000100
00000000
00000000
00000100
00000010
00000000
00000000
00000010
00010000
00000000
00000000
00010000
,
00001000
00000000
00000000
00001000
01000000
00000000
00000000
01000000
00001000
00000000
00000000
00001000
00100000
00000000
00000000
00100000
,
00010000
00000000
00000000
00010000
10000000
00000000
00000000
10000000
00010000
00000000
00000000
00010000
01000000
00000000
00000000
01000000
,
00001000
00000000
00000000
00001000
00000010
00000000
00000000
00000010
00000100
00000000
00000000
00000100
00001000
00000000
00000000
00001000
,
00000010
00000000
00000000
00000010
00010000
00000000
00000000
00010000
00000100
00000000
00000000
00000100
00010000
00000000
00000000
00010000
,
00001000
00000000
00000000
00001000
00100000
00000000
00000000
00100000
00010000
00000000
00000000
00010000
10000000
00000000
00000000
00000000
,
01010000
10000000
01010000
10000000
,
01000000
10000000
01000000
00100000
01000000
00010000
01010000
00000000
,
00011000
00000100
00011000
00000100
,
00000010
00000001
00000010
00000100
00000010
00000000
00011000
00000000
;

//---------------dance-solo - ----------------
#NOTEDATA:;
#CHARTNAME:;
#STEPSTYPE:dance-solo;
#DESCRIPTION:;
#CHARTSTYLE:;
#DIFFICULTY:Easy;
#METER:3;
#RADARVALUES:0.324361,0.348273,0.181642,0.000000,0.000000,225.000000,207.000000,18.000000,0.000000,0.000000,0.000000,0.000000,0.000000,0.000000,0.324361,0.348273,0.181642,0.000000,0.000000,225.000000,207.000000,18.000000,0.000000,0.000000,0.000000,0.000000,0.000000,0.000000;
#CREDIT:;
#DISPLAYBPM:155.000000;
#NOTES:
000000
000000
000000
000000
,
000000
000000
000000
000000
,
000000
000000
000000
000000
,
000000
000000
000000
000000
,
000000
000000
000000
000000
,
010000
000010
100000
000001
,
001000
001000
010000
001000
,
000010
010000
000001
100000
,
001000
001000
000010
001000
,
100000
000001
000100
001000
,
010000
000010
001000
100000
,
001000
001000
000010
100000
,
001000
001000
010000
000001
,
001000
000010
000010
000010
,
100000
000000
001000
000000
,
010000
000001
000001
000001
,
001000
000000
000100
000000
,
100000
000100
010000
000010
,
001000
000000
000001
000000
,
000001
000100
000010
010000
,
001000
000000
100000
000000
,
000001
000001
001000
000000
,
000010
000010
000010
000010
,
100000
100001
000100
001000
,
000001
100001
010000
000010
,
100000
000001
001000
001000
,
000010
100000
000001
010000
,
000001
100001
000100
001000
,
100000
100001
000010
010000
,
000001
100000
001000
001000
,
010000
000000
000010
000000
,
001000
100001
000100
001000
,
000010
100001
010000
001000
,
100000
001000
000010
001000
,
010000
000001
001000
010000
,
100000
000001
000001
000001
,
001000
000010
000010
000010
,
000100
100000
001000
010000
,
100001
000010
100001
000000
,
000100
000001
001000
000010
,
100001
010000
100001
000000
,
000100
000100
000100
000100
,
100000
100000
000000
100001
,
000010
000010
000010
000010
,
001000
001000
000000
100001
,
010000
010000
000001
000001
,
100000
100000
000010
000010
,
001000
000010
100000
001000
,
010000
010000
000001
001000
,
000001
000001
000001
000001
,
010000
010000
000000
100001
,
001000
001000
001000
001000
,
000100
000100
010000
000010
,
100001
000000
001000
000000
,
100001
000000
000100
000000
,
100001
000000
000010
000000
,
100001
000000
010000
000000
,
000010
000010
010000
010000
,
000001
000001
100000
100000
,
000010
001000
000001
001000
,
000100
000100
000100
000000
,
010000
001000
100000
001000
,
000100
000100
000100
100001
;

//---------------dance-solo - ----------------
#NOTEDATA:;
#CHARTNAME:;
#STEPSTYPE:dance-solo;
#DESCRIPTION:;
#CHARTSTYLE:;
#DIFFICULTY:Medium;
#METER:6;
#RADARVALUES:0.433923,0.506580,0.191733,0.000000,0.020182,301.000000,282.000000,19.000000,0.000000,0.000000,0.000000,0.000000,0.000000,0.000000,0.433923,0.506580,0.191733,0.000000,0.020182,301.000000,282.000000,19.000000,0.000000,0.000000,0.000000,0.000000,0.000000,0.000000;
#CREDIT:;
#DISPLAYBPM:155.000000;
#NOTES:
000000
000000
000000
000000
,
000000
000000
000000
000000
,
000000
000000
000000
000000
,
000000
000000
000000
000000
,
000000
000000
000000
000000
,
100000
000100
100000
000100
100000
000000
000010
000000
,
010000
000001
010000
000001
010000
000000
001000
000000
,
000100
000001
000100
000001
000100
000000
001000
000000
,
010000
000010
010000
000010
010000
000000
000001
000000
,
001000
000100
001000
000100
010000
000000
001000
000000
,
000010
001000
000010
001000
100000
000000
000001
000000
,
010000
000010
010000
000010
001000
000000
000100
000000
,
010000
010000
010000
010000
000001
001000
000100
100000
,
001000
100000
001000
000000
000010
000000
001000
000000
,
100000
100100
001000
000010
,
100000
001000
000100
000000
000001
000000
001000
000000
,
000010
010000
000001
100000
,
001000
000001
001000
000000
010000
000000
001000
000000
,
000100
000101
001000
000010
,
100000
001000
000100
000000
000001
000000
001000
000000
,
000010
010000
000001
100000
,
100100
001001
010001
100010
,
010010
000000
100001
000000
,
100000
000100
100000
000100
010000
000000
000010
000000
,
100000
000100
001000
000010
100000
000000
000001
000000
,
001000
000000
001000
000000
,
000010
001000
010000
000000
,
001000
000010
001000
000010
010000
001000
010000
001000
,
100000
000100
001000
000010
100000
100000
100000
000000
,
000001
000000
000001
000000
,
010010
001000
100001
001000
,
000100
100000
000100
001000
000001
000000
100000
000000
,
001000
010000
000010
100000
000001
000000
001000
000000
,
000010
000000
010000
000000
000001
001000
000100
000000
,
010000
000000
010000
000000
010000
000010
001000
000000
,
100000
001000
000100
100000
001000
000010
000001
100000
,
000100
001000
000001
001000
000010
100000
001000
000000
,
010000
001000
000100
001000
,
010000
000010
100000
001000
,
000010
001000
000100
001000
,
010000
000010
100000
000001
,
100000
100000
000100
100000
,
000010
000000
000000
001000
000001
000000
000000
000000
010000
000000
000000
000000
010000
000000
000000
000000
,
000001
000001
100000
001000
,
000100
000000
000000
000010
001000
000000
000000
000000
000001
000000
000000
000000
000001
000000
000000
000000
,
100000
100001
001000
100000
,
000001
000000
000000
001000
000100
000000
000000
000000
010000
000000
000000
000000
000010
000000
000000
000000
,
001000
001001
000100
100000
,
001000
000000
000000
000100
000010
000000
000000
000000
010000
000000
000000
000000
000001
000000
000000
000000
,
001000
001000
000100
000100
,
100000
001000
000100
000001
,
010000
010000
000010
000010
,
100000
001000
000100
001000
,
110000
110000
000010
001000
,
000100
001000
010000
100000
,
100001
100001
001000
000010
,
010000
001000
100000
000000
000100
000000
001000
000000
,
000011
000000
110000
000000
000100
000100
000100
000000
,
100000
000001
001000
000000
000100
010000
000001
000000
,
001000
000010
001000
000001
,
001000
000010
100000
001000
000010
000000
000000
000000
,
001000
010000
001000
100000
,
001000
010000
000001
001000
010000
000000
100001
000000
;

//---------------dance-solo - ----------------
#NOTEDATA:;
#CHARTNAME:;
#STEPSTYPE:dance-solo;
#DESCRIPTION:;
#CHARTSTYLE:;
#DIFFICULTY:Hard;
#METER:8;
#RADARVALUES:0.583849,0.569902,0.262372,0.000000,0.539881,405.000000,379.000000,26.000000,0.000000,0.000000,0.000000,0.000000,0.000000,0.000000,0.583849,0.569902,0.262372,0.000000,0.539881,405.000000,379.000000,26.000000,0.000000,0.000000,0.000000,0.000000,0.000000,0.000000;
#CREDIT:;
#DISPLAYBPM:155.000000;
#NOTES:
000000
000000
000000
000000
,
000000
000000
000000
000000
,
000000
000000
000000
000000
,
000000
000000
000000
000000
,
000000
000000
000000
000000
,
000010
000000
000000
000010
001000
000000
000000
001000
000010
000000
000000
000010
001000
000000
000000
001000
,
000001
000000
000000
000001
000100
000000
000000
000100
000001
000000
000000
000001
000100
000000
000000
000100
,
001000
000000
000000
001000
010000
000000
000000
010000
001000
000000
000000
001000
010000
000000
000000
010000
,
000001
000000
000000
000001
100000
000000
000000
100000
000001
000000
000000
000001
100000
000000
000000
100000
,
000001
000000
000000
000001
001000
000000
000000
001000
000100
000000
000000
000100
100000
000000
000000
100000
,
001000
000000
000000
001000
010000
000000
000000
010000
000010
000000
000000
000010
100000
000000
000000
100000
,
001000
000000
000000
001000
000100
000000
000000
000100
000010
000000
000000
000010
100000
000000
000000
100000
,
000100
000000
000000
000100
001000
000000
000000
001000
000010
000000
000000
000010
010000
000000
000000
010000
,
000001
000000
000000
001000
000001
000000
000000
000000
100000
000000
000000
000000
001000
000000
000000
000000
,
000100
000000
000000
001000
000100
000000
000000
000000
000001
000000
000000
000000
010000
000000
000000
000000
,
000010
000000
000000
100000
000010
000000
000000
000000
001000
000000
000000
000000
000001
000000
000000
000000
,
010000
000000
000000
000010
000100
000000
000000
000000
000001
000000
000000
000000
100000
000000
000000
000000
,
000100
000000
000000
010000
001000
000000
000000
000000
100000
000000
000000
000000
001000
000000
000000
000000
,
000010
000000
000000
001000
100000
000000
000000
000000
000010
000000
000000
000000
001000
000000
000000
000000
,
000001
000000
000000
100000
000001
000000
000000
000000
001000
000000
000000
000000
000100
000000
000000
000000
,
010000
000000
000000
000100
100000
000000
000000
000000
001000
000000
000000
000000
000100
000000
000000
000000
,
000001
001000
000001
100000
001000
000100
001000
100000
,
000001
000001
100000
100000
100000
000000
000000
000000
,
000100
010000
001000
010000
001000
000000
100000
000000
,
000001
010000
001000
000100
000001
100000
001000
010000
,
000100
100100
000001
000101
,
100001
100100
010010
001000
,
000100
000010
001000
000010
001000
000000
000001
000000
,
100000
000010
001000
000100
100000
000001
001000
000010
,
000100
000101
100000
100100
,
010010
100001
000101
101000
,
000010
001000
000001
001000
000001
000000
010000
010000
,
001000
100000
000001
100000
000001
001000
000010
010000
,
000001
000001
000101
000000
001000
001000
011000
000000
,
010010
100001
101000
000001
,
010000
001000
100000
001000
100000
000000
000010
000010
,
001000
000001
100000
000001
100000
001000
010000
000001
,
100000
110000
001000
000011
,
100000
000000
100000
000000
000100
001000
000001
000000
,
100000
100100
010000
000101
,
000010
000000
000010
000000
100000
000100
001000
000000
,
000010
000000
000000
000010
000100
000000
000000
000100
000010
000000
000000
000010
000100
000000
000000
000000
,
000001
000000
000000
000001
001000
000000
000000
001000
000001
000000
000000
000001
001000
000000
000000
000000
,
000100
000000
000000
000100
010000
000000
000000
010000
000100
000000
000000
000100
010000
000000
000000
000000
,
000001
000000
000000
000001
100000
000000
000000
100000
000001
000000
000000
000001
100000
000000
000000
000000
,
000010
000000
000000
000010
000100
000000
000000
000100
001000
000000
000000
001000
010000
000000
000000
010000
,
000010
000000
000000
000010
000100
000000
000000
000100
000010
000000
000000
000010
001000
000000
000000
001000
,
100000
000000
000000
100000
001000
000000
000000
001000
000100
000000
000000
000100
010000
000000
000000
010000
,
000010
000000
000000
000010
001000
000000
000000
001000
000001
000000
000000
000001
100000
000000
000000
100000
,
000010
000000
000000
000010
000100
000000
000000
000100
001000
000000
000000
001000
100000
000000
000000
100000
,
000100
000000
000000
000100
010000
000000
000000
010000
000001
000000
000000
000001
100000
000000
000000
100000
,
000001
000000
000000
000001
001000
000000
000000
001000
000100
000000
000000
000100
100000
000000
000000
100000
,
000100
000000
000000
000100
001000
000000
000000
001000
000010
000000
000000
000010
010000
000000
000000
010000
,
000001
000000
000000
000001
001000
000000
000000
001000
000100
000000
000000
000100
100000
000000
000000
100000
,
001000
000000
000000
001000
000100
000000
000000
000100
000001
000000
000000
000001
100000
000000
000000
100000
,
001000
000000
000000
001000
000100
000000
000000
000100
000001
000000
000000
000001
001000
000000
000000
001000
,
000010
000000
000000
000010
010000
000000
000000
010000
000001
000000
000000
000001
001000
000000
000000
001000
,
000100
000000
000000
000100
010000
000000
000000
010000
000001
000000
000000
000001
000100
000000
000000
000100
,
001000
000000
000000
001000
010000
000000
000000
010000
000010
000000
000000
000010
100000
000000
000000
000000
,
001001
100000
001001
100000
,
001000
100000
001000
010000
001000
000100
001100
000000
,
000011
001000
110000
001000
,
000100
000001
000100
001000
000100
000000
100001
000000
;

//---------------dance-single - ----------------
#NOTEDATA:;
#CHARTNAME:;
#STEPSTYPE:dance-single;
#DESCRIPTION:;
#CHARTSTYLE:;
#DIFFICULTY:Beginner;
#METER:5;
#RADARVALUES:0.253722,0.379935,0.272463,0.000000,0.000000,176.000000,149.000000,27.000000,0.000000,0.000000,0.000000,0.000000,0.000000,0.000000,0.253722,0.379935,0.272463,0.000000,0.000000,176.000000,149.000000,27.000000,0.000000,0.000000,0.000000,0.000000,0.000000,0.000000;
#CREDIT:;
#DISPLAYBPM:155.000000;
#NOTES:
0000
0000
0000
0000
,
0000
0000
0000
0000
,
0000
0000
0000
0000
,
0000
0000
0000
0000
,
0000
0000
0000
0000
,
0100
0100
0100
0000
,
0010
0010
0010
0000
,
1000
1000
1000
0000
,
0001
0001
0001
0000
,
1000
0000
1000
0000
,
0010
0000
0010
0000
,
0100
0000
0100
0000
,
0001
0000
0001
0000
,
0100
0000
0100
0000
,
0010
0100
0010
0000
,
1000
0000
1000
0000
,
0001
1000
0001
0000
,
0010
0000
0010
0000
,
0100
0010
0100
0000
,
0001
0000
0001
0000
,
1000
0001
1000
0000
,
1010
0000
0101
0000
,
0110
0000
0000
0000
,
1000
1000
1000
0000
,
0010
0010
0010
0000
,
0100
0100
0100
0000
,
0001
0001
0001
1001
,
1000
1000
1000
0000
,
0100
0100
0100
0000
,
0001
0001
0001
0000
,
0011
0000
0110
0000
,
0100
0100
0100
0000
,
1000
1000
1000
0000
,
0001
0001
0001
0000
,
0010
0010
0010
0000
,
0110
0000
0000
0000
,
1100
0000
0000
0000
,
0101
0000
1100
0000
,
1010
0000
0011
0000
,
0110
0000
1001
0000
,
0110
1001
0110
0000
,
1000
1000
1000
0000
,
0001
0001
0001
0000
,
0010
0010
0010
0000
,
0100
0100
0100
0000
,
0010
0010
0010
0000
,
1000
1000
1000
0000
,
0001
0001
0001
0000
,
0100
0100
0100
0000
,
0010
0000
0010
0000
,
0001
0001
0001
0000
,
0100
0000
0100
0000
,
1000
1000
1000
0000
,
0100
0000
0100
0000
,
0010
0010
0010
0000
,
0001
0000
0001
0000
,
1000
1000
1000
0000
,
0010
0000
0010
0000
,
0100
0100
0100
0000
,
1100
0000
0101
0000
,
0011
0000
1010
0000
,
0110
0000
1001
0000
,
0110
1001
0110
1001
;

//---------------dance-single - ----------------
#NOTEDATA:;
#CHARTNAME:;
#STEPSTYPE:dance-single;
#DESCRIPTION:;
#CHARTSTYLE:;
#DIFFICULTY:Challenge;
#METER:14;
#RADARVALUES:0.650163,0.734010,0.524744,0.363284,0.237144,451.000000,399.000000,52.000000,36.000000,0.000000,0.000000,0.000000,0.000000,0.000000,0.650163,0.734010,0.524744,0.363284,0.237144,451.000000,399.000000,52.000000,36.000000,0.000000,0.000000,0.000000,0.000000,0.000000;
#CREDIT:;
#DISPLAYBPM:155.000000;
#NOTES:
// measure 0
0000
0000
0000
0000
,  // measure 1
0000
0000
0000
0000
,  // measure 2
0000
0000
0000
0000
,  // measure 3
0000
0000
0000
0000
,  // measure 4
0000
0000
0000
0000
,  // measure 5
0000
0000
0110
0000
0000
0000
0010
0001
0200
0000
0010
0000
0310
0000
1000
0000
,  // measure 6
0000
0000
1010
0000
0000
0000
1000
0100
0020
0000
0100
0000
0130
0000
0001
0000
,  // measure 7
0000
0000
1001
0000
0000
0000
0001
0010
2000
0000
0100
0000
3100
0000
0010
0000
,  // measure 8
0000
0000
1001
0000
0000
0000
1000
0010
0002
0000
0100
0000
0103
0000
0010
0000
,  // measure 9
0000
0000
0110
0000
0000
0000
0010
0002
0100
0000
0100
0000
0103
0000
0010
0000
,  // measure 10
0000
0000
1010
0000
0000
0000
0100
2000
0010
0000
0010
0000
3010
0000
0100
0000
,  // measure 11
0000
0000
0110
0000
0000
0000
0010
0200
0001
0000
0001
0000
0301
0000
0010
0000
,  // measure 12
0000
0000
1001
0000
0000
0000
0100
0020
1000
0000
1000
0000
1030
0000
0100
0000
,  // measure 13
0010
0001
0100
0010
1000
0100
0000
0110
,  // measure 14
0000
1010
0000
1100
0000
0100
0001
0100
,  // measure 15
0010
1000
0010
0001
0100
0010
0000
1010
,  // measure 16
0000
0000
0011
0000
0000
0000
0101
0000
0000
0000
1100
0000
0100
1000
0100
0000
,  // measure 17
0010
1000
0100
0010
0001
0100
0010
1010
,  // measure 18
0000
1100
0000
0101
0000
0010
0001
0100
,  // measure 19
0010
1000
0100
0010
0001
0100
0000
0110
,  // measure 20
0000
1010
0000
1100
0000
0100
0001
0100
,  // measure 21
0010
0010
0010
0010
0110
0100
0100
0100
,  // measure 22
1100
0000
1000
0000
1010
0000
1000
0000
1001
0000
1000
0001
0100
0000
0010
0000
,  // measure 23
0100
0000
0010
0000
1000
0000
0100
0001
0010
0000
0001
0000
0100
0000
0010
0000
,  // measure 24
1000
0000
0100
0000
0010
0000
0001
0010
0100
0000
0010
0000
0000
0000
0110
0000
,  // measure 25
0000
1010
0000
0011
0000
0101
0000
2200
,  // measure 26
0000
0000
3300
1000
0100
0000
0202
0303
,  // measure 27
0001
0010
0100
1000
0010
0000
0010
0001
,  // measure 28
0100
0010
1000
0100
0010
0001
0000
0101
,  // measure 29
0000
1100
0000
1010
0000
0011
0000
0001
,  // measure 30
0100
0001
0100
0001
0100
0001
0100
0000
0000
0000
0000
0000
1000
0010
1000
0010
1000
0010
1000
0000
0000
0000
0000
0000
,  // measure 31
1000
0010
0001
0100
0110
0000
0100
0010
,  // measure 32
1000
0100
0010
0001
0100
0010
0000
1010
,  // measure 33
0000
1100
0000
1001
0000
0101
0000
0120
,  // measure 34
0000
0001
0000
0230
0000
1000
0000
0301
,  // measure 35
0100
0010
0100
1000
0100
0010
0001
0100
,  // measure 36
0010
0000
1000
0000
0100
0000
0010
0000
0001
0000
0100
0000
0010
0000
1000
0010
,  // measure 37
0200
0000
0000
0000
0300
0000
0010
0001
0200
0000
0000
0000
0300
0000
0010
1000
,  // measure 38
0100
0000
0010
0001
0100
0000
0010
1000
0200
0000
0000
0000
0300
0000
0100
0001
,  // measure 39
0020
0000
0000
0000
0030
0000
0100
1000
0020
0000
0000
0000
0030
0000
0100
0001
,  // measure 40
0010
0000
0100
1000
0010
0000
0100
0001
0020
0000
0000
0000
0130
0000
0000
0000
,  // measure 41
1001
0001
0100
1000
0100
0001
0100
0010
,  // measure 42
0210
0000
0000
0000
0001
0000
0000
0000
1000
0000
0000
0000
0301
0000
0010
0001
,  // measure 43
0100
0010
1000
0100
0010
0001
0100
0010
,  // measure 44
0120
0000
0000
0000
0001
0000
0000
0000
1000
0000
0000
0000
0031
0000
0010
1000
,  // measure 45
0100
0010
0001
0100
0010
1000
0100
0010
,  // measure 46
0002
0000
0000
0000
0010
0000
0000
0000
0100
0000
0000
0000
1003
0000
0010
0001
,  // measure 47
0100
0010
1000
0100
0010
0001
0100
0010
,  // measure 48
2000
3100
1010
1001
,  // measure 49
1001
1000
0100
0001
0100
0010
0000
0100
,  // measure 50
0120
0000
0000
0000
0001
0000
0000
0000
1000
0000
0000
0000
0031
0000
0010
1000
,  // measure 51
0100
0010
0001
0100
0010
1000
0001
0100
,  // measure 52
1002
0000
0000
0000
0010
0000
0000
0000
1000
0000
0000
0000
0103
0000
0010
0001
,  // measure 53
0100
0010
1000
0100
0010
0001
0100
2010
,  // measure 54
0000
0000
0100
0000
0000
0000
0001
0000
0000
0000
3010
0000
0000
0000
1000
0100
,  // measure 55
0010
0001
0100
0010
1000
1200
0000
0001
,  // measure 56
0000
0000
1000
0000
0000
0000
0010
0000
0000
0000
0301
0000
0000
0000
0010
0001
,  // measure 57
0100
0010
1000
0100
0010
0012
0000
0100
,  // measure 58
0000
0000
1000
0000
0000
0000
0010
0000
0000
0000
0103
0000
0000
0000
0010
0001
,  // measure 59
0200
0000
0000
0000
0310
0000
0010
1000
0200
0000
0000
0000
1300
0000
0100
1000
,  // measure 60
0010
0000
0001
0010
0100
0000
1000
0100
0020
0000
0000
0000
0130
0000
0001
1000
,  // measure 61
0200
0000
0000
0000
0310
0000
1000
0001
0200
0000
0000
0000
0301
0000
0001
0010
,  // measure 62
1000
0000
0100
0010
0001
0000
0010
1000
0200
0000
0000
0000
0020
0000
0000
0000
,  // measure 63
0000
0330
0000
0000
;
