#TITLE:PARANOiA(X-Special);
#SUBTITLE:;
#ARTIST:180;
#TITLETRANSLIT:;
#SUBTITLETRANSLIT:;
#ARTISTTRANSLIT:;
#GENRE:;
#CREDIT:;
#BANNER:PARANOiA(X-Special).png;
#BACKGROUND:PARANOiA(X-Special)-bg.png;
#LYRICSPATH:;
#CDTITLE:;
#MUSIC:PARANOiA(X-Special).ogg;
#OFFSET:0.000000;
#SAMPLESTART:1.328000;
#SAMPLELENGTH:15.000000;
#SELECTABLE:YES;
#DISPLAYBPM:180.000000;
#BPMS:0.000000=181.207993
,12.000000=180.000000
,20.000000=177.339996
,24.000000=180.904999
,64.000000=179.104004
,68.000000=177.339996
,72.000000=180.000000
,76.000000=181.817993
,80.000000=180.000000
,92.000000=181.817993
,98.000000=176.470993
,100.000000=169.811005
,101.000000=180.000000
,102.000000=183.673004
,103.000000=180.000000
,104.000000=176.470993
,105.000000=181.556000
,112.000000=180.300995
,124.000000=181.817993
,128.000000=178.218002
,130.000000=174.757004
,132.000000=178.218002
,138.000000=183.673004
,140.000000=180.000000
,144.000000=180.904999
,148.000000=177.339996
,152.000000=180.000000
,156.000000=180.904999
,164.000000=179.283005
,169.000000=180.535004
,196.000000=182.186005
,201.000000=174.194000
,204.000000=179.104004
,208.000000=180.987000
,219.000000=176.470993
,220.000000=181.115005
,233.000000=174.194000
,236.000000=180.904999
,244.000000=179.104004
,248.000000=180.904999
,252.000000=177.339996
,256.000000=180.904999
,260.000000=179.104004
,264.000000=180.904999
,268.000000=180.602005
,292.000000=176.470993
,296.000000=183.673004
;
#STOPS:
;
#BGCHANGES:;
#KEYSOUNDS:;
#ATTACKS:;

//---------------dance-single - ----------------
#NOTES:
     dance-single:
     :
     Challenge:
     13:
     0.605417,0.735955,0.572958,0.158057,0.000000,429.000000,371.000000,58.000000,16.000000,0.000000,0.000000,0.605417,0.735955,0.572958,0.158057,0.000000,429.000000,371.000000,58.000000,16.000000,0.000000,0.000000:
0000
0000
0000
0000
,
0000
0000
0000
0000
,
0000
0000
0000
0000
,
0000
0000
0000
0000
,
0000
0000
0000
0000
,
0000
0000
0000
0000
,
0000
0000
0000
0000
,
0000
0010
0010
0020
,
0000
1000
0000
1030
,
0010
0100
0001
1000
,
0100
0001
0010
1000
,
0010
0100
1000
0001
,
0100
0000
1000
0000
0010
0000
0001
0100
,
0110
0000
0001
0000
0010
0000
1000
0100
,
0110
0000
1000
0000
0010
0000
0001
0100
,
1001
0100
0001
0110
,
1001
0100
1000
0110
,
1000
0100
0010
0001
1000
0100
0010
0001
,
0100
0010
1000
0001
0100
0010
1000
0001
,
0100
0001
1000
0010
0100
0001
1000
0010
,
1000
0100
0010
0001
1000
0100
0010
0001
,
1000
0100
0001
0000
1000
0100
0001
0000
,
1001
0100
0010
0000
0001
0100
1001
0000
,
1000
0100
0010
0001
0100
0001
1000
0010
,
0100
0010
1000
0100
2002
0000
0000
3003
,
1000
0000
0010
0000
1000
0010
0101
0000
,
0100
0000
1000
0000
0100
1000
0011
0000
,
1000
0000
0100
0000
0001
0100
1000
0000
,
0001
0000
0100
0000
1000
0100
0001
0000
,
0001
0000
0100
0000
0001
0100
1010
0000
,
0010
0000
0001
0000
0010
0001
1100
0000
,
1000
0100
0001
0100
0001
0100
1000
0000
,
0001
0010
1000
0010
1000
0010
0001
0000
,
1200
0000
0000
0302
0000
0000
0203
0000
,
0000
1300
0000
0010
0100
0100
0100
0000
,
1020
0000
0000
0032
0000
0000
0023
0000
,
0000
1030
0000
0100
0010
0010
0010
0000
,
1001
0100
0000
1001
0010
0000
0110
0001
,
0000
0110
1000
0001
1000
1000
1000
0000
,
0110
1000
0000
0110
0001
0000
1001
0100
,
0000
1001
0010
0100
0010
0010
0020
0000
,
0130
0000
0001
0001
,
0000
1000
1000
1000
,
1000
0010
0101
0000
0010
0100
0001
0000
,
1000
0010
0100
0001
0010
0000
1000
0000
,
0010
0001
0100
0000
0010
1000
1100
0000
,
1001
0101
1100
1001
,
0001
0010
1100
0000
0010
0100
1000
0000
,
0001
0010
0100
1000
0010
0000
0001
0000
,
0010
1000
0100
0000
0010
0001
0101
0000
,
1001
1100
0101
1001
,
0010
0100
1010
1100
,
0010
0100
2002
3003
,
0001
1000
0011
1010
,
0001
1000
0220
0330
,
0100
0010
0101
0011
,
0100
0010
2002
3003
,
1000
0001
1100
0101
,
1000
0001
1100
0101
,
0010
0001
0010
0001
1000
0010
1000
0010
,
0001
0010
0001
1000
0010
0001
0100
1000
,
0001
0010
0010
0001
1000
0010
1000
0010
,
0001
0010
0001
0010
1000
0100
0001
0010
,
0010
1000
0010
1000
0001
0010
0001
0010
,
1000
0010
1000
0001
0010
1000
0100
0001
,
1000
0010
0010
1000
0001
0010
0001
0010
,
1000
0010
1000
0010
0001
0000
1001
0000
,
0010
0001
0001
0001
0001
0001
0011
0000
,
0100
1000
1000
1000
1000
1000
1100
0000
,
0010
1000
1000
1000
1010
1000
1010
0000
,
0100
0001
0001
0001
0101
0001
0101
0000
,
0001
0100
1000
0100
0001
0000
0110
0000
,
1000
0100
0001
0100
1000
0000
0110
0000
,
0010
1000
0100
0000
0010
0001
0100
0000
,
0010
0100
1001
0000
,
0000
0000
0000
0000
;

//---------------dance-double - ----------------
#NOTES:
     dance-double:
     :
     Challenge:
     14:
     0.589893,0.664582,0.651987,0.424779,0.000000,418.000000,352.000000,66.000000,43.000000,0.000000,0.000000,0.589893,0.664582,0.651987,0.424779,0.000000,418.000000,352.000000,66.000000,43.000000,0.000000,0.000000:
00000000
00000000
00000000
00000000
,
00000000
00000000
00000000
00000000
,
00000000
00000000
00000000
00000000
,
00000000
00000000
00000000
00000000
,
00000000
00000000
00000000
00000000
,
00000000
00000000
00000000
00000000
,
00000000
00000000
00000000
00000000
,
00000000
00000000
00000000
00000000
,
00022000
00000000
00000000
00033000
,
00000110
00000000
00010000
00000000
00100000
00100000
00100000
00000000
,
00011000
00000000
10000000
00000000
01000000
01000000
01000000
00000000
,
00101000
00000000
00010000
00000000
00000100
00000100
00000100
00000000
,
00000010
00000100
00000001
00000000
00000010
00000100
00001000
00011000
,
00000000
00011000
00000000
00010000
00100000
01000000
10000000
00000000
,
01000000
01000000
01000000
00000000
00010000
00010000
00010000
00000000
,
00001000
00001000
00001000
00000000
00000010
00000010
00000010
00000000
,
00000010
00001000
01000000
00002000
00020000
00000000
00033000
00000000
,
10010000
00000000
00000100
00000000
00000010
00000010
00000010
00000000
,
00001001
00000000
01000000
00000000
00100000
00100000
00100000
00000000
,
10100000
01001000
01100000
00101000
,
00010010
00000110
00000011
00001100
,
00001001
00000000
02000000
00000000
00100000
00100000
03100000
00000000
,
10010000
00000000
00000200
00000000
00000010
00000010
00000310
00000000
,
00000010
00001000
01000000
00000000
00100000
00001000
00000100
00000000
,
00000001
00000100
00000010
00001000
00001001
00000000
00011000
00000000
,
10000000
00010000
02000000
00000000
03100000
01000000
00020000
00000000
,
00130000
00001000
00020000
00000000
00031000
00010000
00200000
00000000
,
00310000
00001000
00000200
00000000
00000301
00001000
00020000
00000000
,
00031000
00010000
20000000
00000000
31000000
00100000
02000000
00000000
,
03100000
00100000
02000000
00000000
03001000
00001000
00020000
00000000
,
00030010
00000010
00000200
00000000
00001300
00001000
00001001
00000000
,
00000001
00000001
00000100
00000100
00010000
00010000
00001000
00010000
,
01000000
00001000
00010000
00000100
00010000
00000000
00000000
00000000
,
10000000
00000000
00000000
00001000
00000000
00000000
01000000
00000000
,
00000000
00000010
00000000
00010000
00000100
00000100
00000100
00000000
,
00000001
00000000
00000000
00010000
00000000
00000000
00000100
00000000
,
00011000
00000000
00000000
00110000
00000000
00010010
00000000
00000000
,
00000001
00001000
00000100
00010000
00001000
00100000
00010000
20000000
,
00000000
00000000
30000000
10010000
00000000
00011000
00000000
00001001
,
00000001
00001000
01000000
00100000
00001000
00000100
00010000
00100000
,
00001000
00000100
00000010
00010000
00001000
01000000
00011000
00000000
,
00011000
00000000
00110000
11000000
,
00000000
00000000
01000000
01000000
01000000
01000000
01000000
01000000
,
11000000
10100000
01000000
00100000
,
01010000
00110000
00001100
00001010
,
00000101
00000011
00000100
00000010
,
00001100
00001010
01010000
00110000
,
00100000
00100000
00011000
00000000
00000010
00000010
00011000
00000000
,
01000000
01000000
00011000
00000000
00000100
00000100
00011000
00000000
,
00100000
00010000
00101000
00000000
00000010
00001000
00010010
00000000
,
00000100
00001000
00010100
00000000
01000000
00010000
01001000
00000000
,
00010000
20000000
00000000
32000000
00000000
03200000
00000000
00320000
,
00000000
00032000
00000000
00003200
00000000
00000320
00000000
00000032
,
00000000
00000203
00000000
00002300
00000000
00203000
00000000
00310000
,
00000000
10000000
00010000
00001000
00000001
00001000
00010000
20000000
,
00000000
30020000
00000000
00230000
00000000
00302000
00000000
02003000
,
00000000
13000000
00000000
00002000
00000000
00003200
00000000
00000301
,
00000000
00020000
00000000
02030000
00000000
13000000
00000000
00002000
,
00000000
00013000
00001000
00100000
00010000
00001000
00100000
00010000
,
00100000
01000000
00000000
00110000
00000000
01000000
00001000
00000000
,
00001000
00010000
00000000
00001000
00000010
00000001
00000200
00000000
,
00000010
00000310
00000000
00021000
00000000
01000000
01030000
00000000
,
00100000
00100000
00001000
00001000
00010000
00001000
00000100
00000000
,
00000001
00000010
00000100
00001000
00000000
00010000
00100000
01000000
,
12000000
00000000
00000000
13000000
00010000
00010000
00010000
00000000
,
00100000
00010000
01000000
00001000
00000000
00010000
00001000
00000100
,
00000010
00000000
00000100
00000100
00000100
00000100
00001001
00000000
,
00011000
10010000
00110000
00011000
,
00001001
00001100
00011000
01100000
,
01000000
01000000
01000000
01000000
01000000
00000000
00011000
00000000
,
00000010
00000010
00000010
00000010
00000010
00000010
00000110
00000000
,
00000001
00000100
00001000
00010000
,
01000000
10000000
00100000
10010000
,
10000000
10000000
00010000
00010000
00001000
00001000
00000001
00000001
,
00001000
00001000
00010000
00010000
20000000
00000000
30000000
00000000
,
00000000
00000000
00000000
00000000
;

//---------------dance-single - Edit----------------
#NOTES:
     dance-single:
     :
     Edit:
     13:
     0.512276,0.551966,0.187693,0.000000,0.000000,363.000000,344.000000,19.000000,0.000000,0.000000,0.000000,0.512276,0.551966,0.187693,0.000000,0.000000,363.000000,344.000000,19.000000,0.000000,0.000000,0.000000:
// measure 0
0000
0000
0000
0000
,  // measure 1
0000
0000
0000
0000
,  // measure 2
0000
0000
0000
0000
,  // measure 3
0000
0000
0000
0000
,  // measure 4
0000
0000
0000
0000
,  // measure 5
0000
0000
0000
0000
,  // measure 6
0000
0000
0000
0000
,  // measure 7
0000
0000
1001
0000
0010
0000
0001
0100
,  // measure 8
1000
0000
0010
0000
0001
0000
0100
1000
,  // measure 9
0010
0000
0001
0000
0100
0000
1000
0010
,  // measure 10
0001
0000
0100
0000
1000
0000
0010
0001
,  // measure 11
0100
0000
1000
0000
0010
0000
0001
0100
,  // measure 12
1000
0000
0010
0000
0001
0000
0100
1000
,  // measure 13
0010
0000
0001
0000
0100
0000
1000
0010
,  // measure 14
0001
0000
0010
0010
0100
0000
1000
1000
,  // measure 15
0001
0000
1001
0000
0001
0000
0100
0001
,  // measure 16
0100
1000
0010
0001
,  // measure 17
0100
0010
0010
0000
0100
0000
1001
0000
,  // measure 18
1000
0100
0010
0000
0100
0000
1001
0000
,  // measure 19
0001
0100
1000
0000
0100
0000
0001
0000
,  // measure 20
0100
1000
0100
0000
0001
0000
1000
0000
,  // measure 21
0100
0001
0010
0000
0100
0000
1001
0000
,  // measure 22
0001
0100
0010
0000
0100
0000
1001
0000
,  // measure 23
1000
0100
0001
0000
0100
0000
1000
0000
,  // measure 24
0100
0001
0100
0000
1000
0000
0001
0000
,  // measure 25
1001
0010
0100
1001
,  // measure 26
0010
0000
0100
1000
0001
0000
0010
0000
,  // measure 27
0100
0000
1001
0000
0010
0000
0100
0001
,  // measure 28
1000
0000
0010
0000
0100
1000
0001
0000
,  // measure 29
0101
0000
1000
0001
0100
0001
1000
0000
,  // measure 30
0010
0000
0100
0001
1000
0000
1100
0000
,  // measure 31
0001
1000
0100
1000
0001
0000
1000
0000
,  // measure 32
0010
1000
0001
1000
,  // measure 33
0010
0100
0001
0100
,  // measure 34
1000
0100
0001
0100
1000
0000
0001
0010
,  // measure 35
1000
0001
0010
0001
,  // measure 36
0001
0100
1000
0100
0001
0000
0010
1000
,  // measure 37
0100
0010
1000
0010
,  // measure 38
0001
0100
1000
0100
0001
0000
1000
0100
,  // measure 39
0001
1000
0100
1000
,  // measure 40
1000
0100
0001
0100
1000
0100
0001
0010
,  // measure 41
1000
0000
0010
0010
,  // measure 42
0000
1001
0001
1000
,  // measure 43
0010
0100
0001
0001
,  // measure 44
0001
0001
0001
0000
0010
0000
0010
0000
,  // measure 45
0010
0010
0010
0000
1000
0000
1000
0000
,  // measure 46
1000
1000
1000
0000
0100
0000
0100
0000
,  // measure 47
0100
0100
0100
0000
0010
0000
0001
0000
,  // measure 48
0100
0100
0001
0100
,  // measure 49
1000
1000
0100
1000
,  // measure 50
0010
0010
1000
0010
,  // measure 51
0001
0010
1000
0000
0100
0000
0001
0000
,  // measure 52
1000
0100
0001
0000
0100
1000
0010
0000
,  // measure 53
0001
0010
1000
0000
0100
0000
0001
0000
,  // measure 54
1000
0100
0001
0000
0100
1000
0010
0000
,  // measure 55
0001
1000
0100
0001
,  // measure 56
1000
0100
0001
0000
0100
1000
0010
0000
,  // measure 57
0001
0010
1000
0000
0100
0000
0001
0000
,  // measure 58
1000
0100
0001
0000
0100
1000
0010
0000
,  // measure 59
0010
0001
0100
0000
1000
0100
0001
0000
,  // measure 60
0010
0000
1100
0000
0001
0000
0010
1000
,  // measure 61
0100
0000
0001
0100
1000
0000
0010
0000
,  // measure 62
0101
0000
1000
0000
0010
0001
0100
0000
,  // measure 63
1000
0100
0001
0000
0010
0000
1100
0000
,  // measure 64
0001
0000
0010
1000
0100
0000
0001
0100
,  // measure 65
1000
0010
0101
1000
,  // measure 66
0001
0100
1010
0001
,  // measure 67
0001
0010
0001
0100
0001
1000
1001
0000
,  // measure 68
0010
0010
1000
0000
1000
1000
0100
0000
,  // measure 69
0100
0100
0001
0000
0001
0001
0010
0000
,  // measure 70
0010
0010
0001
0000
0001
0001
0100
0000
,  // measure 71
0100
0100
1000
0000
1000
0010
0110
0000
,  // measure 72
0010
0001
1000
0100
0001
0000
0010
0000
,  // measure 73
1000
0000
0001
0000
0010
0000
1000
0001
,  // measure 74
0010
1000
0100
0000
;
