#TITLE:PARANOiA Rebirth(X-Special);
#SUBTITLE:;
#ARTIST:190';
#TITLETRANSLIT:;
#SUBTITLETRANSLIT:;
#ARTISTTRANSLIT:;
#GENRE:;
#CREDIT:;
#BANNER:PARANOiA Rebirth(X-Special).png;
#BACKGROUND:PARANOiA Rebirth(X-Special)-bg.png;
#LYRICSPATH:;
#CDTITLE:;
#MUSIC:PARANOiA Rebirth(X-Special).ogg;
#OFFSET:0.000000;
#SAMPLESTART:1.268000;
#SAMPLELENGTH:15.000000;
#SELECTABLE:YES;
#DISPLAYBPM:190.000000;
#BPMS:0.000000=190.074005
,20.000000=190.011002
;
#STOPS:
;
#BGCHANGES:;
#KEYSOUNDS:;
#ATTACKS:;

//---------------dance-single - ----------------
#NOTES:
     dance-single:
     :
     Challenge:
     14:
     0.687017,0.728542,0.227592,0.217697,0.000000,486.000000,463.000000,23.000000,22.000000,0.000000,0.000000,0.687017,0.728542,0.227592,0.217697,0.000000,486.000000,463.000000,23.000000,22.000000,0.000000,0.000000:
0000
0000
0000
0000
,
0000
0000
0000
0000
,
0000
0000
0000
0000
,
0000
0000
0000
0000
,
0000
0000
0000
0000
,
0000
0000
0000
0000
,
0000
0000
0000
0000
,
0000
0100
0100
0100
,
0000
1000
0000
1000
,
1000
1000
0100
0100
0010
0010
0001
0001
,
0010
0100
1000
0100
0001
0100
1000
0000
,
0001
0010
0100
1000
0010
0001
0010
1000
,
0100
0010
0001
0001
0100
0010
1000
1010
,
0000
0102
0000
0103
0010
1000
0100
0001
,
0100
1000
0010
0100
0010
0001
0010
1000
,
0100
0010
0001
0010
0200
0000
0000
0301
,
1010
0101
0011
1100
,
0000
2001
0000
0000
3001
0010
0100
0000
,
1000
0010
0100
0001
0010
1000
0010
0000
,
0001
0100
1000
0010
0001
0010
0100
0000
,
0001
0100
1000
0010
0001
0010
0100
0110
,
0000
1001
0001
0010
0100
1000
0001
0000
,
1000
0001
0100
0000
0001
1000
0100
0000
,
0001
0100
0010
1000
0000
1000
0010
0100
,
0001
0020
0100
0100
0230
0000
0000
0000
,
0310
0001
0010
1000
0010
0100
0010
0001
,
0010
1000
0010
0100
0010
1000
0100
0000
,
0100
1000
0100
0001
0100
0010
0100
1000
,
0100
0001
0100
0010
0100
0001
0010
0000
,
0001
0010
1000
0001
0100
1000
0100
0001
,
1000
0100
0001
1000
0010
0001
0100
0000
,
0010
1000
0100
0010
0001
0100
0010
1000
,
0100
0010
0001
0100
0020
0000
0030
0000
,
1000
0100
0010
0001
0000
1010
0000
0101
,
0000
0001
0010
0100
1000
0100
0001
0100
,
0000
1100
0000
0011
0000
1010
0000
0101
,
0000
1000
0100
0010
0001
0200
0000
0301
,
0010
1000
0010
0001
0100
1000
0100
0001
,
0010
0100
1000
0100
0010
0001
1000
0100
,
1000
1100
0000
0011
0000
0110
0000
1001
,
0001
0010
1000
0010
0001
0010
0100
1000
,
1001
0000
0010
0010
,
0000
0001
0001
0001
,
2000
0000
0000
3002
0000
0000
0003
0200
,
0000
0320
0000
2030
0000
3002
0000
0000
,
1003
0100
1000
0010
0100
0001
0010
0100
,
1000
0100
0010
0001
0000
0100
0100
0100
,
1000
0100
0001
0010
1000
0010
0100
0001
,
0100
1000
0100
0010
0000
0100
0200
0000
,
0301
0100
1000
0010
0001
0010
1000
0100
,
0001
0100
1000
0010
0000
0100
0100
0100
,
0010
1000
0010
0100
0001
0010
0100
1000
,
0100
0010
0001
1000
0001
0100
0100
0100
,
0000
1000
0100
0001
0010
0000
0110
0000
,
0001
0010
0100
0010
0001
1000
0100
0000
,
1000
0010
0100
0010
1000
0001
0100
0000
,
1000
0010
0001
1000
0100
0001
1000
0000
,
0001
0010
1000
0001
0100
1000
0001
0000
,
0001
0010
0010
1000
0001
0010
0010
1000
,
0001
0010
0010
1000
0001
0010
0010
1000
,
0001
0100
0100
1000
0001
0100
0100
1000
,
0001
0100
1000
0000
1000
0100
0001
0010
,
1000
0010
0100
0000
1000
0010
0100
0010
,
0001
0000
1000
0100
0000
0001
0010
0000
,
0010
0010
0200
0001
0301
0200
0010
0310
,
0200
1000
1300
0200
0010
0310
0100
0000
,
0001
0100
1000
0000
1000
0100
0001
0010
,
1000
0000
0001
0010
0000
1000
0100
0000
,
0100
0100
0020
1000
1030
0020
0100
0130
,
0020
0001
0031
0020
0100
0130
0010
0000
,
1000
0100
0010
0001
0010
1000
0010
0001
,
0100
0001
0010
1000
0001
0010
0100
0001
,
1000
0001
0100
1000
0010
1000
0100
0001
,
0010
1000
0001
0100
1000
0000
1001
0000
,
0001
0001
0001
0000
1000
1000
1000
0000
,
0010
0010
0010
0000
0100
0100
0100
0000
,
1000
0100
0010
0001
0100
0010
1000
0000
,
0010
0100
0010
0000
1001
0000
0000
0000
;

//---------------dance-double - ----------------
#NOTES:
     dance-double:
     :
     Challenge:
     14:
     0.705394,0.690198,0.267173,0.128639,0.000000,499.000000,472.000000,27.000000,13.000000,0.000000,0.000000,0.705394,0.690198,0.267173,0.128639,0.000000,499.000000,472.000000,27.000000,13.000000,0.000000,0.000000:
00000000
00000000
00000000
00000000
,
00000000
00000000
00000000
00000000
,
00000000
00000000
00000000
00000000
,
00000000
00000000
00000000
00000000
,
00000000
00000000
00000000
00000000
,
00000000
00000000
00000000
00000000
,
00000000
00000000
00000000
00000000
,
00010000
00010000
00010000
00010000
,
00001000
00001000
00001000
00001000
,
00100000
00001000
01000000
10000000
01000000
00010000
00001000
00000100
,
00000001
00001000
00000010
00010000
00000100
00000001
00000100
00001000
,
00010000
01000000
10000000
00010000
00100000
01000000
00010000
01000000
,
10000000
00100000
00010000
00100000
01000000
00001000
00100000
01100000
,
00000000
00011000
00000000
00001000
00000100
00000001
00000010
00000100
,
00001000
00000100
00000010
00001000
00000010
00000100
00001000
00010000
,
00100000
00010000
00001000
00000100
00001000
00010000
00001000
00100000
,
01100000
00011000
00001100
00000110
,
00000000
00002002
00000000
00000003
00003001
00000010
00000100
00000000
,
00000010
00000100
00001000
00000100
00001000
00010000
00100000
00010000
,
10000000
00100000
00010000
00100000
10000000
00100000
00010000
01000000
,
00010000
00100000
01000000
00010000
00001000
00000100
00000001
00000101
,
00000000
00001100
00000100
00000010
00000001
00000100
00001000
00010000
,
00001000
00000100
00000010
00000100
00001000
00000001
00000100
00001000
,
00010000
00100000
01000000
00010000
01000000
00100000
00010000
00001000
,
00010000
00001000
00010000
00002000
00020000
00000000
00033000
00000000
,
00001000
00010000
00010000
00000100
00000010
00000010
00000010
00000001
,
00000001
00000100
00000100
00000010
00000010
00010000
00010000
00010000
,
00001000
00000100
00000001
00000000
00000001
00000100
00001000
00000000
,
00001000
00000100
00000001
00000000
00000001
00000100
00001000
00000000
,
00010000
00001000
00001000
01000000
00100000
00100000
00100000
10000000
,
10000000
00100000
00100000
01000000
01000000
00010000
00010000
00010000
,
10000000
00100000
01000000
00100000
00010000
00100000
01000000
10000000
,
01000000
00100000
00010000
10000000
02000000
00000000
03000000
00000000
,
10000000
01000000
00010000
01000000
00000000
11000000
00000000
01010000
,
00000000
00011000
00000000
00001100
00000000
00000001
00000010
00000100
,
00001000
00001001
00000000
00001100
00000000
00011000
00000000
00110000
,
00000000
10010000
00010000
01000000
00100000
10000000
00010000
01000000
,
10000000
01000000
00010000
00001000
00000000
00000110
00000000
00000011
,
00000000
00000001
00000010
00000100
00001000
00010000
00001000
00010000
,
00100000
01100000
00000000
11000000
00000000
00110000
00000000
01000000
,
00100000
00010000
00001000
00000100
00001000
00010000
00100000
00010000
,
00011000
00000000
00001000
00001000
,
00000000
00010000
00010000
00010000
,
00002000
00000000
00000000
00023000
00000000
00000000
00030000
00002000
,
00000000
00003020
00000000
00000032
00000000
00002003
00000000
00000000
,
00003001
00000010
00000001
00000100
00000010
00010000
00000100
00001000
,
00000100
00000001
00000100
00001000
00000000
00100000
00100000
00100000
,
00010000
00001000
00010000
01000000
10000000
01000000
00010000
01000000
,
10000000
00100000
01000000
00100000
01000000
02000000
00000000
03000000
,
00010000
01000000
00100000
10000000
01000000
00100000
00010000
00001000
,
00000100
00000001
00000100
00000001
00000000
00001000
00001000
00001000
,
00000000
00000100
00010000
00001000
01000000
10000000
00010000
00100000
,
01000000
10000000
00010000
00100000
00000000
01000000
01000000
01000000
,
00000000
01000000
00010000
00001000
00000100
00000000
00000101
00000000
,
00000001
00000100
00001000
00000100
00000001
00000100
00001000
00000000
,
00000100
00001000
00010000
00001000
00000100
00001000
00010000
00000000
,
00001000
00010000
00100000
00010000
00001000
00010000
00100000
00000000
,
00001000
00010000
01000000
00010000
00001000
00010000
01000000
00000000
,
10000000
01000000
00100000
00001000
00010000
01000000
10000000
01000000
,
00010000
00001000
00000100
00000001
00000010
00000001
00000100
00001000
,
00010000
00000010
00001000
00010000
01000000
10000000
01000000
00010000
,
01000000
10000000
01000000
00100000
00200000
00000000
00300000
00000000
,
00100000
10000000
01000000
00010000
00001000
00010000
00100000
00010000
,
00001000
00000100
00000001
00000100
00001000
00000100
00000001
00000010
,
00000100
00001000
00010000
00000010
00000100
00000010
00010000
00001000
,
01000000
00100000
01000000
00001000
00010000
00001000
00000100
00000001
,
00000010
00000100
00001000
00000100
00000001
00001000
00010000
00100000
,
01000000
00010000
00100000
01000000
10000000
01000000
00010000
00000000
,
00000100
00000001
00000010
00000100
00001000
00000001
00000100
00000000
,
00010000
01000000
00100000
10000000
01000000
01000000
01000000
00000000
,
10000000
00100000
10000000
01000000
10000000
00010000
10000000
01000000
,
00010000
00001000
00000100
00000001
00000000
00000001
00000001
00000000
,
00000001
00000010
00000001
00000100
00000001
00001000
00000001
00000100
,
00010000
01000000
10000000
00000000
00010000
00100000
01000000
00000000
,
01000000
01000000
01000000
00000000
00100000
00100000
00100000
00000000
,
00000010
00000010
00000010
00000000
00000100
00000100
00000100
00000000
,
00000001
00000010
00000100
00001000
00010000
00100000
01000000
10000000
,
00010000
01100000
00011000
00000000
,
00000000
00000000
00000000
00000000
;

//---------------dance-single - Edit----------------
#NOTES:
     dance-single:
     :
     Edit:
     15:
     0.777488,1.073641,0.623404,0.000000,0.059372,550.000000,487.000000,63.000000,0.000000,0.000000,0.000000,0.777488,1.073641,0.623404,0.000000,0.059372,550.000000,487.000000,63.000000,0.000000,0.000000,0.000000:
// measure 0
0000
0000
0000
0000
,  // measure 1
0000
0000
0000
0000
,  // measure 2
0000
0000
0000
0000
,  // measure 3
0000
0000
0000
0000
,  // measure 4
0000
0000
0000
0000
,  // measure 5
0000
0000
0000
0000
,  // measure 6
0000
0000
0000
0000
,  // measure 7
0000
1001
1001
0100
,  // measure 8
0000
0000
0000
0000
,  // measure 9
0010
0010
1001
0000
0010
0001
0101
0000
,  // measure 10
0010
0010
1001
0000
0010
1000
1100
0000
,  // measure 11
0011
0000
0101
0000
0010
1000
0100
0000
,  // measure 12
1010
0000
1100
0000
0010
0001
0100
0000
,  // measure 13
0001
0000
1000
0100
0100
0000
0001
0000
,  // measure 14
0010
0000
0001
1000
1000
0000
0100
0000
,  // measure 15
1000
0001
0100
0000
1001
1001
1001
0000
,  // measure 16
0010
0000
0001
0000
0100
0001
1000
0000
,  // measure 17
0100
1000
1000
0100
0010
0001
0001
0010
,  // measure 18
0100
1000
1000
0000
0010
0001
0100
0010
,  // measure 19
1000
0000
1001
0000
0010
0100
0010
0110
,  // measure 20
0001
0100
1000
0000
1000
0100
0001
0000
,  // measure 21
1000
0100
1000
0001
0100
0010
0100
0000
,  // measure 22
0001
0010
0001
0100
0010
1000
0100
0000
,  // measure 23
0010
0001
0100
0010
1000
0100
0010
0000
,  // measure 24
0001
1000
0001
0100
0010
1000
0100
0000
,  // measure 25
0000
0001
0000
1000
0000
0001
1000
0100
,  // measure 26
0000
1000
0000
0001
0000
1000
0001
0010
,  // measure 27
1000
0010
0100
0010
0001
0010
0100
0010
,  // measure 28
1000
0010
0100
0010
0001
0010
0100
0010
,  // measure 29
0000
1000
0000
0001
0000
1000
0001
0100
,  // measure 30
0000
0001
0000
1000
0000
0001
1000
0010
,  // measure 31
0001
0010
0100
0010
1000
0010
0100
0010
,  // measure 32
0001
0010
0100
0010
1000
0010
0100
0000
,  // measure 33
1000
0100
0001
0100
1000
0100
0001
0100
,  // measure 34
1000
0010
0001
0100
1000
0010
0001
0100
,  // measure 35
0010
0100
0001
0100
0010
0100
0001
0100
,  // measure 36
1000
0010
0100
0001
1000
0010
0100
0001
,  // measure 37
1000
0100
0010
0001
0100
0010
1000
0001
,  // measure 38
0100
0010
1000
0100
0010
0001
0100
0010
,  // measure 39
1000
0001
0100
0010
1000
0001
0100
0010
,  // measure 40
1000
0100
0010
0001
1000
0100
0010
0000
,  // measure 41
1001
0000
0000
0000
0011
0011
1001
0000
,  // measure 42
0000
0000
1010
1010
0110
0000
0101
0101
,  // measure 43
0011
0000
0110
0110
1100
0000
1001
1001
,  // measure 44
1010
0000
0101
0101
0011
0000
1001
1001
,  // measure 45
1001
1001
0110
1000
0010
0100
0010
1000
,  // measure 46
0100
0010
0100
1000
0010
0100
0010
1000
,  // measure 47
0100
0001
0100
1000
0010
0100
0001
1000
,  // measure 48
0100
1000
0001
0100
0001
0010
0101
1001
,  // measure 49
0001
0000
1000
0000
0100
0000
0010
0000
0001
0000
0100
0000
0001
0100
0001
0000
,  // measure 50
1000
0000
0100
0000
1000
0000
0001
0000
1000
0000
0100
0010
0100
0000
1000
0000
,  // measure 51
0001
0000
0100
0000
0010
0000
1000
0000
0100
1000
0100
0000
0010
0000
0001
0000
,  // measure 52
0100
0000
0010
0000
1000
0000
0001
0100
0001
0000
1000
0000
0100
0000
0010
0000
,  // measure 53
0001
0000
0000
0000
,  // measure 54
1000
1000
0001
0001
0010
1100
0010
1000
,  // measure 55
0001
0001
1000
1000
0010
0101
0010
1000
,  // measure 56
0001
0001
0010
0010
0100
0100
1000
0001
,  // measure 57
1000
0101
1000
0001
1100
0001
0001
0100
,  // measure 58
0100
1000
0010
1000
0010
0100
0100
0100
,  // measure 59
0001
0100
0100
0001
1000
0001
0001
1000
,  // measure 60
1100
0000
0110
0000
0101
0110
0100
1000
,  // measure 61
0100
0010
0100
0001
0100
0010
0100
1000
,  // measure 62
0010
0001
1000
0100
0010
0001
0001
0010
,  // measure 63
1000
0001
0100
0010
1000
1000
1000
0100
,  // measure 64
0010
0001
0100
0001
0001
0001
0100
0010
,  // measure 65
1000
0100
1000
1000
0001
1000
0001
1000
,  // measure 66
0100
0010
0010
1000
0001
1000
0001
0100
,  // measure 67
0010
0000
0010
0000
0010
0001
0010
0000
0001
0000
1000
0000
0100
0000
0010
1000
,  // measure 68
0010
1000
0001
0100
1001
0000
0100
1000
,  // measure 69
0010
0000
1000
0001
0010
0000
0001
0010
0001
0000
1000
0000
0100
0000
0010
0000
,  // measure 70
0110
1001
1001
1001
,  // measure 71
0110
0000
1001
0000
1000
0001
0100
0000
,  // measure 72
0010
1000
0100
0000
0001
0100
0010
0000
,  // measure 73
0001
1000
0100
0000
0001
1000
0010
0100
,  // measure 74
0100
0010
0001
0100
0110
1000
0100
0010
,  // measure 75
0001
0101
0010
1000
0100
0010
0011
1001
,  // measure 76
0001
0100
0001
0100
0001
0000
0010
0000
1000
0000
0100
0000
1000
0001
1000
0001
,  // measure 77
1100
1001
0101
0000
;
