#TITLE:PARANOiA MAX~DIRTY MIX~(X-Special);
#SUBTITLE:;
#ARTIST:190;
#TITLETRANSLIT:PARANOiA MAX~DIRTY MIX~(X-Special);
#SUBTITLETRANSLIT:;
#ARTISTTRANSLIT:;
#GENRE:;
#CREDIT:;
#BANNER:PARANOiA MAX~DIRTY MIX~(X-Special).png;
#BACKGROUND:PARANOiA MAX~DIRTY MIX~(X-Special)-bg.png;
#LYRICSPATH:;
#CDTITLE:;
#MUSIC:PARANOiA MAX~DIRTY MIX~(X-Special).ogg;
#OFFSET:0.000000;
#SAMPLESTART:1.265000;
#SAMPLELENGTH:15.000000;
#SELECTABLE:YES;
#DISPLAYBPM:190.000000;
#BPMS:0.000000=188.000000
,4.000000=190.000000
,35.000000=204.000000
,36.000000=191.500000
,40.000000=189.500000
,48.000000=188.000000
,52.000000=190.000000
,64.000000=192.500000
,68.000000=189.800003
,96.000000=192.500000
,100.000000=190.250000
,112.000000=188.000000
,116.000000=190.000000
,128.000000=188.000000
,130.000000=193.000000
,132.000000=190.500000
,148.000000=190.199997
,166.000000=188.500000
,169.000000=194.000000
,172.000000=189.399994
,188.000000=189.500000
,202.000000=199.000000
,204.000000=189.500000
,220.000000=189.399994
,234.000000=198.399994
,236.000000=190.000000
,268.000000=193.000000
,272.000000=189.199997
,288.000000=191.500000
;
#STOPS:
;
#BGCHANGES:;
#KEYSOUNDS:;
#ATTACKS:;

//---------------dance-single - ----------------
#NOTES:
     dance-single:
     :
     Challenge:
     13:
     0.653689,0.660055,0.198042,0.052116,0.000000,439.000000,420.000000,19.000000,5.000000,0.000000,0.000000,0.653689,0.660055,0.198042,0.052116,0.000000,439.000000,420.000000,19.000000,5.000000,0.000000,0.000000:
0000
0000
0000
0000
,
0000
0000
0000
0000
,
0000
0000
0000
0000
,
0000
0000
0000
0000
,
0000
0000
0000
0000
,
0000
0000
0000
0000
,
0000
0000
0000
0000
,
0000
0010
0000
0010
,
0000
0001
0000
0001
,
1001
0000
0101
0000
0010
0001
0100
0000
,
1001
0000
1100
0000
0010
1000
0100
0000
,
0001
0100
0010
0000
1000
0100
0010
0000
,
1000
0100
0010
1000
0001
0100
0010
0000
,
0001
0010
1000
0001
0001
0010
1000
0000
,
1000
0010
0001
1000
1000
0010
0001
0000
,
1000
0001
0100
0100
0001
1000
0100
0000
,
0001
1000
0100
0100
1000
0001
0100
0000
,
0001
0010
1000
0010
0001
0100
0001
0010
,
0001
0100
1000
0100
0001
0010
0100
1000
,
1000
0010
0001
0010
1000
0100
1000
0010
,
1000
0100
0001
0100
1000
0010
0100
0001
,
1000
0010
0001
0010
1000
0100
0001
0100
,
1000
1000
0010
0100
0001
0010
0001
1000
,
0001
0010
0001
0010
1000
0010
1000
0010
,
0001
0100
1000
0100
0001
0000
1001
0000
,
1000
1000
0100
0000
0001
0001
0100
0000
,
1000
0100
0001
0100
1000
0010
0001
0000
,
1000
1000
0010
0000
0001
0001
0010
0000
,
1000
0010
0001
0010
1000
0100
0001
0000
,
1000
1000
0100
0000
0001
0001
0100
0000
,
0010
1000
0001
0010
0100
1000
0001
0000
,
1100
1001
0101
1001
,
0010
1000
0100
0001
,
1000
0000
0000
0100
0000
0000
0001
0000
,
0000
1000
0000
0010
0001
0001
0001
0000
,
1000
0000
0000
0001
0000
0000
0100
0000
,
0000
0001
0000
1000
0010
0010
0010
0000
,
1000
0000
0000
0001
0000
0000
0110
0000
,
0000
1001
0000
0010
0100
0100
0100
0000
,
0000
0010
1000
0001
0100
1000
0100
0001
,
0010
1000
0001
0200
0010
0010
0310
0000
,
0010
0000
0001
0001
,
0000
1000
1000
1000
,
1000
0010
0100
0000
0001
0010
0100
0000
,
0001
0100
1000
0100
0001
1000
1000
0000
,
0010
0001
1000
0000
0100
0001
1000
0000
,
0100
1000
0010
1000
0100
0010
0010
0000
,
0001
0100
0010
0000
1000
0100
0010
0000
,
1000
0010
0001
0010
1000
0001
0001
0000
,
0010
1000
0001
0000
0100
1000
0001
0000
,
0100
0001
0010
0001
0100
0010
0010
0000
,
0010
0000
0100
0001
1000
0000
0110
0000
,
0010
1000
0100
0001
0100
1000
0010
0001
,
0010
1000
0100
0001
0100
1000
0010
0000
,
0110
0000
0010
1000
0100
0000
1001
0000
,
1000
0100
0100
0010
0002
1000
1003
0000
,
0001
0100
0100
0010
2000
0001
3001
0000
,
1000
0100
0100
0010
0010
0001
0100
0010
,
0100
0010
0100
0000
2002
0000
3003
0000
,
0001
1000
0010
0100
0010
0001
1000
0100
,
0010
0100
0001
1000
0010
0100
0001
0010
,
1000
0001
0010
1000
0100
0001
1000
0001
,
0100
1000
0010
0001
0100
0010
1000
0010
,
0001
0100
0010
1000
0001
0100
0010
1000
,
0001
0100
1000
0001
0100
0010
0001
0010
,
0100
0001
1000
0100
0001
0010
0100
1000
,
0100
0001
0010
0100
1000
0000
1001
0000
,
0010
1000
0100
0000
0010
0001
0100
0000
,
0001
1000
0100
0000
1000
0001
0100
0000
,
0010
1000
0100
0001
0100
1000
0010
0000
,
0010
0001
0100
1000
0100
0001
0010
0000
,
0010
1000
0010
0000
0001
0100
0001
0000
,
0010
0001
0010
0000
1000
0100
1000
0000
,
0001
1000
0010
0000
0001
1000
0100
0000
,
1100
0101
1001
0000
;

//---------------dance-double - ----------------
#NOTES:
     dance-double:
     :
     Challenge:
     14:
     0.619441,0.621228,0.375238,0.125079,0.000000,416.000000,380.000000,36.000000,12.000000,0.000000,0.000000,0.619441,0.621228,0.375238,0.125079,0.000000,416.000000,380.000000,36.000000,12.000000,0.000000,0.000000:
00000000
00000000
00000000
00000000
,
00000000
00000000
00000000
00000000
,
00000000
00000000
00000000
00000000
,
00000000
00000000
00000000
00000000
,
00000000
00000000
00000000
00000000
,
00000000
00000000
00000000
00000000
,
00000000
00000000
00000000
00000000
,
00010000
00010000
00010000
00010000
,
00001000
00001000
00001000
00001000
,
00010000
00001000
00000100
00000000
00010000
00001000
00000100
00000000
,
00010000
00001000
00000100
00000010
00000001
00000010
00001000
00000000
,
00000110
00000001
00001100
00000010
,
00011000
00000000
01000000
00000000
00100000
01000000
10000000
00000000
,
10000000
00010000
01000000
00000000
00010000
00100000
01000000
00000000
,
10000000
00010000
01000000
00000000
00010000
00100000
01000000
00000000
,
10000000
00010000
00100000
01000000
10000000
00000000
00100000
00010000
,
00001000
00000000
00001000
00000100
00000001
00000000
00001001
00000000
,
01000000
00110000
11000000
01010000
,
00100000
00010000
00001000
00000000
00010000
00001000
00000100
00000000
,
00000100
00001000
00010000
00100000
01000000
10000000
00010000
00000000
,
10000000
01000000
00010000
00000000
00010000
00001000
00000100
00000000
,
00011000
10010000
01000000
01100000
,
10010000
11000000
00110000
00011000
,
00001000
00000100
00000010
00000001
00000000
00000001
00000100
00001000
,
00010000
01000000
10000000
10000000
20000000
00000000
30000000
00000000
,
10000000
00110000
01000000
00011000
,
00000100
00000011
00000100
00011000
,
00010000
00100000
01000000
00000000
10000000
00010000
01000000
00000000
,
00100000
00010000
00001000
00000000
00010000
00001000
00000100
00000000
,
00000001
00000010
00000100
00001000
00010000
00001000
00000100
00000010
,
00000001
00000000
00001000
00000100
00001000
00000000
00011000
00000000
,
01000000
00011000
00000010
00011000
,
00100000
00011000
00000100
00011000
,
20000000
00000000
00000000
30020000
00000000
00000000
00032000
00000000
,
00000000
00000001
00003000
00002000
00000001
00000001
00003001
00000000
,
00000002
00000000
00000000
00002003
00000000
00000000
00023000
00000000
,
00000000
10000000
00030000
00020000
10000000
10000000
10030000
00000000
,
11000000
00000000
01000000
00200000
00000000
00310000
00002000
00000000
,
00003100
00000010
00000000
00000002
00001000
00001000
00001003
00000000
,
00000000
00000001
00000010
00001000
00010000
01000000
10000000
00100000
,
00010000
00001000
00000010
00000001
00001000
00001000
00001000
00000000
,
00001001
00000000
10010000
11000000
,
00000000
00001001
00000011
00001100
,
00000010
00000001
00000100
00000000
00000010
00001000
00000100
00000000
,
00000010
00000001
00000100
00001000
00010000
01000000
10000000
00000000
,
00100000
10000000
01000000
00000000
00100000
00010000
01000000
00000000
,
00100000
10000000
01000000
00010000
00001000
00000100
00000001
00000000
,
00000100
00000001
00000010
00000000
00000100
00001000
00000010
00000000
,
00000100
00000001
00000010
00001000
00010000
00100000
10000000
00000000
,
01000000
10000000
00100000
00000000
01000000
00010000
00100000
00000000
,
01000000
10000000
00100000
00010000
00001000
00000010
00000001
00000000
,
00001000
00000100
00000001
00000000
00010000
00000000
01000000
00000000
,
10000000
01000000
00010000
00000000
00000001
00000000
00001000
00000000
,
10000000
01000000
00010000
00000000
00000001
00000000
00000100
00000000
,
00000001
00000100
00001000
00000000
10000000
00000000
00010000
00000000
,
00000001
00000100
00001000
00000000
10000000
00000000
01000000
00000000
,
00010000
01000000
10000000
00000000
00001000
00000000
00000100
00000000
,
00001000
00000100
00000001
00000000
00010000
00000000
01000000
00000000
,
10000000
01000000
00010000
00000000
00001000
00000100
00000010
00000000
,
00001000
00010000
00000010
00000100
00010000
00001000
00000010
00000100
,
00010000
00001000
00000010
00000100
00010000
00001000
00000010
00000000
,
00000001
00000010
00001000
00010000
01000000
10000000
10000000
00000000
,
00010000
01000000
01000000
00000000
00001000
00010000
00010000
00000000
,
00010000
00001000
00100000
01000000
00010000
00000010
00000100
00001000
,
00100000
01000000
00010000
00000010
00000100
00001000
00100000
00000000
,
00100000
01000000
00010000
00000000
00010000
01000000
10000000
00000000
,
10000000
01000000
00010000
00001000
00000001
00000100
00001000
00000000
,
00000001
00000001
00000001
00000000
00000001
00000100
00001000
00000000
,
00010000
00010000
00010000
00000000
00010000
01000000
10000000
00000000
,
00010000
00001000
00000100
00000001
00000010
00001000
00010000
01000000
,
10000000
00100000
00010000
00001000
00000100
00000001
00000010
00000000
,
00000001
00000010
00000100
00000010
00000001
00000000
00001100
00000000
,
00010000
01000000
00100000
01000000
00010000
00000000
11000000
00000000
,
10010000
00010000
00011000
00001000
,
00001001
00010000
00011000
00000000
;

//---------------dance-single - Edit----------------
#NOTES:
     dance-single:
     :
     Edit:
     14:
     0.753455,0.893015,0.656667,0.000000,0.015635,506.000000,443.000000,63.000000,0.000000,0.000000,0.000000,0.753455,0.893015,0.656667,0.000000,0.015635,506.000000,443.000000,63.000000,0.000000,0.000000,0.000000:
// measure 0
0000
0000
0000
0000
,  // measure 1
0000
0000
0000
0000
,  // measure 2
0000
0000
0000
0000
,  // measure 3
0000
0000
0000
0000
,  // measure 4
0000
0000
0000
0000
,  // measure 5
0000
0000
0000
0000
,  // measure 6
0000
0000
0000
0000
,  // measure 7
0000
1010
0011
1010
,  // measure 8
1001
0000
1100
0001
0100
0000
0000
0000
,  // measure 9
0010
1000
0100
0000
0001
0100
0101
0000
,  // measure 10
1001
1100
0101
0000
,  // measure 11
0001
0100
1010
0100
0010
1000
0100
0010
,  // measure 12
1000
0010
0001
0010
0001
0100
1000
0100
,  // measure 13
0010
0101
0100
1010
,  // measure 14
1001
0000
0110
0000
1001
0000
0001
0001
,  // measure 15
1000
0000
1000
0000
0001
0000
0001
0000
1000
0000
1000
0000
0100
0000
0000
0100
,  // measure 16
0010
0100
0010
0001
0100
1000
0001
1000
,  // measure 17
0001
1000
0100
0001
0010
1000
0001
1000
,  // measure 18
0100
0010
0100
1000
0001
0010
0100
0010
,  // measure 19
1000
0100
0001
1000
0001
1000
0001
0100
,  // measure 20
1000
0010
0001
1000
0100
1000
0001
0100
,  // measure 21
1100
0001
0100
0001
1000
0010
0100
1000
,  // measure 22
0001
0100
1000
0100
0001
1000
0100
1000
,  // measure 23
0001
0010
0100
0001
1000
0100
0001
0010
,  // measure 24
0010
0000
1001
0100
0010
0000
1010
0000
,  // measure 25
1001
0000
0100
0000
0001
0001
1000
0000
,  // measure 26
1000
0000
0010
0000
0001
0001
1000
1000
,  // measure 27
1001
0100
0001
0001
0100
0001
0100
0001
,  // measure 28
0001
1000
1000
1001
1000
0001
0001
0010
,  // measure 29
0001
0000
0001
0000
1000
0000
0001
0001
,  // measure 30
0100
0100
1001
0000
1000
0001
0001
0100
,  // measure 31
0010
0010
0010
0010
,  // measure 32
1000
1000
1000
0100
,  // measure 33
0100
0010
1000
0010
0100
0010
0100
0100
,  // measure 34
0001
0100
0001
1000
0001
1000
1000
0010
,  // measure 35
1000
0100
0010
0100
0001
0001
1000
0001
,  // measure 36
0110
0010
0001
0100
1000
0010
0001
0010
,  // measure 37
0110
1001
0110
1001
,  // measure 38
0100
0000
0010
1000
0001
0000
0010
0100
,  // measure 39
0001
1000
0010
0100
1001
1000
0010
0100
,  // measure 40
0001
0010
0100
0001
0010
1000
0100
0010
,  // measure 41
0100
0000
0000
0000
1001
0000
0010
0010
,  // measure 42
0000
0000
1000
0100
0101
0010
0010
1000
,  // measure 43
0010
0000
1001
0000
0001
0010
1000
0000
,  // measure 44
1001
0000
0010
0000
1000
0010
0001
0000
,  // measure 45
0010
0000
0001
0000
0011
0100
1000
0000
,  // measure 46
1100
0000
0000
0100
0100
0010
1001
0100
,  // measure 47
1000
1100
0001
0101
,  // measure 48
0100
0100
0010
1001
0100
0000
1001
0000
,  // measure 49
0110
0000
0010
0000
0100
0000
0010
1001
,  // measure 50
0100
1000
0010
0000
0100
0000
1000
0001
,  // measure 51
0001
0001
0001
0000
0010
0000
0100
0000
,  // measure 52
1000
1000
1000
0000
0010
0000
0100
0000
,  // measure 53
0001
0010
1000
0100
0001
0100
1000
0010
,  // measure 54
0100
0000
0001
0000
1000
0010
0100
0000
0001
0000
0001
0000
0001
0000
0000
0000
,  // measure 55
1010
0000
0101
0000
1000
1000
1000
0000
,  // measure 56
0011
0000
1100
0000
0001
0010
1000
0100
,  // measure 57
0001
0000
0100
0000
1000
0000
0010
0000
0100
0000
0001
0000
1000
0100
0010
0000
,  // measure 58
0100
0001
0001
0001
0001
0100
1000
0000
,  // measure 59
0010
0001
1000
0010
0001
0100
0101
1100
,  // measure 60
0010
0100
0001
0100
1001
1000
0100
1000
,  // measure 61
1100
1010
1001
0100
0001
0100
1000
1000
,  // measure 62
0100
0100
0010
0010
1010
0011
0100
0010
,  // measure 63
1000
0001
0100
0001
1000
0100
0010
0100
,  // measure 64
1001
0001
1000
0110
0001
0001
1000
1000
,  // measure 65
1000
0001
1100
0000
0101
0000
0011
0000
,  // measure 66
1100
0000
0011
0001
1000
0000
1010
1000
,  // measure 67
1001
0010
0100
0010
1000
0010
1000
0001
,  // measure 68
1000
0001
1000
0100
0001
1000
0001
1000
,  // measure 69
0001
0010
0010
0100
1001
0010
0100
0010
,  // measure 70
0001
0010
0001
0000
1000
0010
0100
0000
,  // measure 71
0010
0001
0010
1000
0010
0001
0100
0000
,  // measure 72
0010
1000
0010
0001
0010
1000
0100
0000
,  // measure 73
1000
0100
0010
0100
0001
1000
1000
0000
,  // measure 74
0010
1000
0010
1000
0100
0000
0000
0000
;
