#VERSION:0.83;
#TITLE:PARANOIA EVOLUTION(X-Special);
#SUBTITLE:;
#ARTIST:200;
#TITLETRANSLIT:;
#SUBTITLETRANSLIT:;
#ARTISTTRANSLIT:;
#GENRE:;
#ORIGIN:;
#CREDIT:;
#BANNER:PARANOIA EVOLUTION(X-Special).png;
#BACKGROUND:PARANOIA EVOLUTION(X-Special)-bg.png;
#PREVIEWVID:;
#JACKET:PARANOiA EVOLUTION(X-Special)-jacket.png;
#CDIMAGE:;
#DISCIMAGE:;
#LYRICSPATH:;
#CDTITLE:;
#MUSIC:PARANOIA EVOLUTION(X-Special).ogg;
#OFFSET:0.000000;
#SAMPLESTART:1.200000;
#SAMPLELENGTH:15.000000;
#SELECTABLE:YES;
#DISPLAYBPM:200.000000;
#BPMS:0.000=199.500,
4.000=200.071;
#STOPS:;
#DELAYS:;
#WARPS:;
#TIMESIGNATURES:0.000=4=4;
#TICKCOUNTS:0.000=4;
#COMBOS:0.000=1;
#SPEEDS:0.000=1.000=0.000=0;
#SCROLLS:0.000=1.000;
#FAKES:;
#LABELS:0.000=Song Start;
#BGCHANGES:;
#KEYSOUNDS:;
#ATTACKS:
;

//---------------dance-single - ----------------
#NOTEDATA:;
#CHARTNAME:;
#STEPSTYPE:dance-single;
#DESCRIPTION:;
#CHARTSTYLE:;
#DIFFICULTY:Challenge;
#METER:14;
#RADARVALUES:0.631631,0.820442,0.390435,0.021105,0.000000,419.000000,382.000000,37.000000,2.000000,0.000000,0.000000,0.000000,0.000000,0.000000,0.631631,0.820442,0.390435,0.021105,0.000000,419.000000,382.000000,37.000000,2.000000,0.000000,0.000000,0.000000,0.000000,0.000000;
#CREDIT:;
#DISPLAYBPM:200.000000;
#NOTES:
0000
0000
0000
0000
,
0000
0000
0000
0000
,
0000
0000
0000
0000
,
0000
0000
0000
0000
,
0000
0000
0000
0000
,
0000
0000
0000
0000
,
0000
0000
0000
0000
,
0000
0000
0000
0000
,
0100
0100
0100
0100
0100
0100
0100
0100
,
0010
1000
0100
0001
0100
1000
0010
0000
,
0100
0001
0010
1000
0010
0001
0100
0000
,
0100
1000
0100
1000
0100
0001
0010
0000
,
0100
0010
0001
0010
0100
1000
0010
0000
,
0100
0010
0100
0010
0001
0010
0100
0000
,
0100
0010
1000
0100
0010
0110
0000
0001
,
0000
0001
0100
1000
0100
0000
0010
1000
,
0100
0010
0001
0000
0100
0000
0000
0000
,
0010
0000
0010
0000
0000
0010
1000
0000
,
0010
0010
0100
0010
0000
1000
0010
0000
,
0100
0001
0010
0100
1000
0000
0100
0000
,
0001
0010
0100
1000
0010
0110
0000
0101
,
0000
0100
0010
0100
0010
0001
0010
1000
,
0100
0010
0001
0100
0010
1010
0000
0100
,
0000
0100
0101
0000
1000
0100
1100
0000
,
0001
0100
0101
0000
1000
0010
1010
0000
,
0001
0011
0000
0110
0000
0000
0110
0000
,
0000
1010
0000
1100
0000
0000
0000
0000
,
0000
0010
0000
0010
0000
0010
0000
0010
,
0100
0001
0100
1000
0110
0001
0010
0000
,
0000
0010
0000
0010
0000
0000
0100
0000
,
0000
0010
0000
0100
0000
0000
0000
0000
,
0100
0100
0100
0100
0100
0100
0100
0100
,
0110
0110
0110
0110
,
0001
0010
0100
1000
0001
0010
0000
0001
,
0010
0100
1000
0010
0000
0000
0000
0000
,
0100
0000
0000
0100
0000
0000
0100
0000
,
0000
0110
0000
1000
1000
1000
0000
0000
,
1000
0100
0010
0001
1000
0100
0000
1000
,
0100
0010
0001
0100
0000
0000
0000
0000
,
0001
0000
0000
0001
0000
0000
0001
0000
,
0000
1100
0010
0000
0010
0010
0010
0000
,
0100
0000
0100
0100
,
0000
0001
0010
0100
,
1000
0000
0010
0100
0001
0010
0001
0100
,
0010
1000
0100
1000
0010
0100
0001
0010
,
1000
0010
0001
0100
0010
1000
0100
0001
,
1000
0010
0100
1000
0010
0100
1000
0001
,
0010
0100
0001
0010
0100
1000
0010
0001
,
0010
1000
0001
0100
1000
0100
0001
0000
,
1010
0100
0001
0010
0100
0010
0001
0100
,
1010
0100
0001
0010
0100
0010
0001
0100
,
1010
0100
0001
0010
0100
0010
0001
0100
,
1010
0001
0010
0000
0100
1000
0010
0100
,
0001
0010
0100
0000
1100
0010
0000
0010
,
0000
0000
0010
1000
0100
0000
0100
0001
,
0010
1000
0010
0100
0010
0001
0000
0011
,
0000
0101
1010
0101
,
0011
1100
1010
0101
,
0010
0001
0010
0100
0010
0001
0010
0100
,
0010
0001
0010
0100
1000
0010
0100
0000
,
0001
0010
0000
0000
0000
0000
0000
0000
,
0000
0000
0000
0001
0000
0001
0010
0100
,
1000
0010
0000
0100
0001
0100
0000
0010
,
0000
0001
1000
0001
0101
0000
0000
0000
,
0001
0010
0000
0100
0000
1000
0100
1000
,
0000
0100
0000
1000
0100
0000
1000
0000
,
1000
0100
0000
0010
0000
0010
0000
0010
,
0000
0010
0000
0010
0001
0000
0000
0000
,
0100
0100
0100
0000
1000
1000
1000
0000
,
0100
0100
0100
0100
0100
0100
0100
0000
,
0001
0001
0001
0000
1000
1000
1000
0000
,
0100
0100
0100
0100
0100
0100
0100
0000
,
0001
0001
0001
0000
0100
0100
0100
0000
,
1000
1000
1000
1000
1000
1000
1000
0000
,
0001
1100
0001
1100
,
0010
0100
2002
0000
,
0000
0000
0000
0000
,
0000
0000
0000
3003
,
0000
0000
0000
0000
;

//---------------dance-double - ----------------
#NOTEDATA:;
#CHARTNAME:;
#STEPSTYPE:dance-double;
#DESCRIPTION:;
#CHARTSTYLE:;
#DIFFICULTY:Challenge;
#METER:15;
#RADARVALUES:0.697960,0.738398,0.369331,0.021105,0.000000,463.000000,428.000000,35.000000,2.000000,0.000000,0.000000,0.000000,0.000000,0.000000,0.697960,0.738398,0.369331,0.021105,0.000000,463.000000,428.000000,35.000000,2.000000,0.000000,0.000000,0.000000,0.000000,0.000000;
#CREDIT:;
#DISPLAYBPM:200.000000;
#NOTES:
00000000
00000000
00000000
00000000
,
00000000
00000000
00000000
00000000
,
00000000
00000000
00000000
00000000
,
00000000
00000000
00000000
00000000
,
00000000
00000000
00000000
00000000
,
00000000
00000000
00000000
00000000
,
00000000
00000000
00000000
00000000
,
00000000
00000000
00000000
00000000
,
00000001
00000001
00000001
00000001
00000001
00000001
00000001
00000001
,
00000001
00000010
00000100
00001000
00010000
00100000
00010000
00000000
,
00001000
00010000
00001000
00010000
00001000
00100000
01000000
00000000
,
00010000
00001000
00000010
00000100
00001000
00000010
00000100
00000000
,
00000001
00000100
00001000
00010000
00001000
00001000
00000100
00000000
,
00000100
00001000
00000100
00001000
00000100
00010000
00000100
00001000
,
00000100
00000001
00001000
00000100
00000010
00000100
00001000
00000000
,
00000100
00010000
00001000
00100000
00010000
00100000
00001000
00010000
,
00000100
00010000
00001000
00100000
00010000
00100000
00001000
00000000
,
00001000
00000010
00000100
00001000
00000010
00000100
00000001
00000000
,
00001000
00000100
00000010
00000100
00000010
00001000
00010000
00000000
,
00000100
00001000
00000001
00001000
00000010
00000100
00000001
00001000
,
00000100
00010000
00001000
00010000
01000000
01100000
00000000
00101000
,
00000000
00010000
00010010
00000000
00000100
00000001
00000101
00000000
,
00001000
00000100
00001100
00000000
00010000
00011000
00000000
00101000
,
00000000
00010000
10010000
00000000
01000000
00100000
10010000
00000000
,
01000000
00100000
01010000
00001000
00010000
01000000
00100000
00000000
,
00100000
00100000
00100000
00010000
00000000
00000000
11000000
00000000
,
00000000
01100000
00000000
00011000
00000000
00000000
00000000
00000000
,
00000000
00010000
00010000
00001000
00001000
00010000
00010000
00001000
,
00001000
00001000
00001000
00010000
01000000
10000000
00100000
00000000
,
00000000
10010000
00000000
00011000
00000000
00000000
00001001
00000000
,
00000000
00000110
00000000
00010010
00000000
00000000
00000000
00000000
,
01000000
01000000
01000000
01000000
01000000
01000000
01000000
01000000
,
01100000
01100000
01100000
01100000
,
00010000
00100000
01000000
10000000
00010000
00100000
00000000
01000000
,
00010000
00001000
00000100
00000001
00000000
00000000
00000000
00000000
,
00001000
00000000
00000000
00001000
00000000
00000000
00001000
00000000
,
00000000
00000100
00000000
00001100
00000000
00000010
00000010
00000000
,
00000001
00000100
00001000
00010000
01000000
10000000
00000000
00100000
,
00001000
00010000
01000000
10000000
00000000
00000000
00000000
00000000
,
00100000
00000000
00000000
00100000
00000000
00000000
00100000
00000000
,
00000000
01000000
00000000
01001000
00000000
00010000
00010000
00000000
,
00001000
00000000
00001000
00001000
,
00000000
00000110
00001010
01001000
,
01100000
00000000
01000000
00100000
00010000
00001000
00000100
00000010
,
00000001
00000001
00000010
00000100
00001000
00010000
00100000
00100000
,
10000000
01000000
00100000
00100000
00100000
00010000
00001000
00000100
,
00000010
00000010
00000010
00001000
00010000
00010000
00010000
00001000
,
00000010
00000100
00000010
00000001
00001000
00001000
00001000
00001000
,
00001000
00010000
00100000
10000000
01000000
00100000
00010000
00000000
,
10000000
01000000
00100000
00010000
01000000
00100000
00010000
10000000
,
01000000
00100000
00010000
00001000
01000000
00010000
00001000
00000010
,
00010000
00001000
00000100
00000010
00001000
00000100
00000010
00000001
,
00000100
00001000
00000001
00000010
00000100
00001000
00010000
00100000
,
00010000
00001000
00010000
01000000
00100000
00010000
00010000
00001000
,
00000010
00000100
00001000
00010000
00100000
00001000
00000100
00000001
,
00000100
00001000
00010000
00100000
10000000
00100000
00010000
00001000
,
00000010
00000001
00000100
00001000
00000100
00000001
00000010
00001000
,
00010000
01000000
10000000
00100000
00010000
00100000
01000000
00010000
,
00100000
01000000
10000000
00100000
01000000
00000000
01001000
00000000
,
01001000
01001000
01001000
00000000
,
00000010
00000100
00001000
00010000
01000000
10000000
01000000
00100000
,
00001000
00010000
00001000
00000100
00000001
00000100
00001000
00010000
,
00001000
00000010
00001000
00010000
01000000
00010000
00001000
00000010
,
00000100
00001000
00000010
00000100
00000001
00000000
00000000
00000000
,
00000001
00000100
00010000
00001000
00000010
00000100
00001000
00010000
,
00001000
00000010
00000100
00000001
00000100
00001000
00010000
00100000
,
10000000
00100000
00010000
00001000
01000000
00100000
00001000
00010000
,
00000000
00000100
00000010
00000001
00000100
00000000
00000000
00000000
,
00001000
00001000
00001000
00000000
00010000
00010000
00010000
00000000
,
10000000
10000000
10000000
10000000
10000000
10000000
10000000
00000000
,
00010000
00010000
00010000
00000000
00001000
00001000
00001000
00000000
,
00000001
00000001
00000001
00000001
00000001
00000001
00000001
00000000
,
00000100
00000100
00000100
00000000
00001000
00001000
00001000
00000000
,
00100000
00100000
00100000
00100000
00100000
00100000
00100000
00000000
,
01000000
00011000
01000000
00011000
,
00100000
01000000
20020000
00000000
,
00000000
00000000
00000000
00000000
,
00000000
00000000
00000000
30030000
,
00000000
00000000
00000000
00000000
;

//---------------dance-single - Edit----------------
#NOTEDATA:;
#CHARTNAME:;
#STEPSTYPE:dance-single;
#DESCRIPTION:Edit;
#CHARTSTYLE:;
#DIFFICULTY:Edit;
#METER:14;
#RADARVALUES:0.779363,1.035709,0.580377,0.000000,0.063314,517.000000,462.000000,55.000000,0.000000,0.000000,0.000000,0.000000,0.000000,0.000000,0.779363,1.035709,0.580377,0.000000,0.063314,517.000000,462.000000,55.000000,0.000000,0.000000,0.000000,0.000000,0.000000,0.000000;
#CREDIT:;
#DISPLAYBPM:200.000000;
#NOTES:
// measure 0
0000
0000
0000
0000
,  // measure 1
0000
0000
0000
0000
,  // measure 2
0000
0000
0000
0000
,  // measure 3
0000
0000
0000
0000
,  // measure 4
0000
0000
0000
0000
,  // measure 5
0000
0000
0000
0000
,  // measure 6
0000
0000
0000
0000
,  // measure 7
0000
0000
0000
0000
,  // measure 8
1000
0100
0000
1000
0100
0000
0010
0000
0010
0000
0010
0000
0010
0000
0001
0000
,  // measure 9
0010
0100
0010
0100
0010
0100
0010
0100
,  // measure 10
1000
0001
1000
0001
1000
0001
1000
0001
,  // measure 11
0010
0100
0000
0000
0001
0000
1000
0000
0100
0000
0000
0000
1000
0010
0000
0000
,  // measure 12
0100
0001
0010
0000
0011
0000
1100
0000
,  // measure 13
0010
0100
1000
0001
0100
0000
0100
0000
,  // measure 14
0010
1000
0100
0010
0001
0000
0001
0000
,  // measure 15
1000
0010
0100
0001
1000
0100
0010
0001
,  // measure 16
0100
0010
1000
0100
0010
0000
1001
0000
,  // measure 17
0001
0001
1000
1000
1000
0010
1000
0001
,  // measure 18
0001
0001
0010
0001
1000
1000
1000
0100
,  // measure 19
1000
0000
0010
0100
0001
0000
1000
0010
0100
0000
0100
0000
0001
0000
1000
0000
,  // measure 20
0010
0100
0001
0100
0010
1000
0001
0100
,  // measure 21
0010
0100
0001
1000
0001
1000
0010
0100
,  // measure 22
0001
1000
0010
0100
0001
1000
1001
0001
,  // measure 23
0010
1000
0010
0001
0010
1000
0010
0001
,  // measure 24
0100
1000
0100
0001
0100
1000
0100
0001
,  // measure 25
0010
0001
0100
0010
1000
0100
0010
0000
,  // measure 26
0000
1000
0000
1000
0000
1000
0000
0000
,  // measure 27
0000
0001
0100
0010
1000
1000
0100
0010
,  // measure 28
0010
0001
0100
0100
0010
1000
0100
0010
,  // measure 29
0000
0001
0000
0001
0000
0000
0001
0100
,  // measure 30
1000
1000
0100
1000
0010
0000
0101
0000
,  // measure 31
0100
0010
1000
0001
0100
0010
0100
0010
,  // measure 32
1001
0000
1001
0000
1100
0000
0011
0011
,  // measure 33
1000
0001
1000
0010
1000
0100
1000
0001
,  // measure 34
1000
0001
0100
0001
0010
0000
0000
0000
,  // measure 35
0000
1001
0000
1001
0000
0000
0100
0000
,  // measure 36
1001
0000
0010
0001
0010
0000
0001
0000
,  // measure 37
0100
0001
0010
0001
0100
0001
0100
0001
,  // measure 38
0100
0001
1000
0100
1000
0000
0000
0100
,  // measure 39
0000
1001
0000
1001
0000
0000
0100
0000
,  // measure 40
1001
0000
0100
0001
0100
0000
0001
0000
,  // measure 41
0110
0000
0110
0110
,  // measure 42
0000
1001
0110
0110
,  // measure 43
1001
0110
1001
0110
,  // measure 44
1000
0000
0100
1000
0100
0000
1000
0000
0001
0000
0001
0000
1000
0000
0001
0000
,  // measure 45
1000
0000
1000
0000
0010
0000
1000
0000
0001
0000
0100
0001
0100
0000
0001
0000
,  // measure 46
1000
1000
0001
1000
0001
1000
0001
0001
,  // measure 47
0001
1000
0001
0000
0001
0000
0010
0001
,  // measure 48
0001
1000
0001
1000
0010
1000
0100
1000
,  // measure 49
0001
1000
0001
0010
0001
0100
1000
0100
,  // measure 50
0110
0010
1000
0001
0010
0100
0010
0001
,  // measure 51
0010
0001
1000
0010
0100
0010
1000
0000
,  // measure 52
1000
0000
0010
0000
1000
0000
0010
1000
0010
0000
1000
0000
0010
0000
0100
0000
,  // measure 53
0001
0000
0100
0000
0001
0000
0100
0001
0100
0000
0001
0000
0100
0000
0010
0000
,  // measure 54
1000
0000
0010
0000
1000
0000
0010
1000
0010
0000
1000
0000
0010
0000
0100
0000
,  // measure 55
0001
0000
1000
0000
0100
0000
0100
1000
0100
0000
0001
0000
0010
0000
0001
0000
,  // measure 56
0010
1000
0001
0100
0010
0100
0010
1000
,  // measure 57
0001
0100
0010
1000
0001
1000
0001
0100
,  // measure 58
0010
1000
0001
1000
1000
0001
0100
0000
,  // measure 59
1001
1010
0110
0101
1001
1001
0110
1100
,  // measure 60
0011
1001
0000
1100
0000
1000
0010
0010
,  // measure 61
0000
1001
0000
0011
1100
0000
0110
0000
,  // measure 62
1010
1100
0000
0010
0001
0100
0000
0010
,  // measure 63
1000
0100
0010
0001
0100
0010
1001
0000
,  // measure 64
1100
0001
0100
0100
1000
0100
0100
0010
,  // measure 65
0001
0001
1000
0010
0101
0000
1100
0000
,  // measure 66
0101
0100
1000
0010
0000
1000
0000
1000
,  // measure 67
0100
0001
0010
0000
0011
0000
0000
0000
,  // measure 68
1000
0100
0001
0100
1000
0100
0001
0100
,  // measure 69
1000
0101
0010
1000
0100
0010
0001
1000
,  // measure 70
0001
0100
0001
1000
0001
0010
0001
1000
,  // measure 71
0001
0100
0001
1000
0001
0010
0001
1000
,  // measure 72
1000
0100
1000
0100
0010
0010
0010
0001
,  // measure 73
0100
0001
0100
0010
0010
0010
1000
0001
,  // measure 74
0010
1100
0101
0010
,  // measure 75
0101
1100
0010
0000
;
