#VERSION:0.83;
#TITLE:PARANOiA ETERNAL;
#SUBTITLE:;
#ARTIST:STM 200;
#TITLETRANSLIT:;
#SUBTITLETRANSLIT:;
#ARTISTTRANSLIT:;
#GENRE:;
#ORIGIN:;
#CREDIT:;
#BANNER:PARANOiA ETERNAL.png;
#BACKGROUND:PARANOiA ETERNAL-bg.png;
#PREVIEWVID:;
#JACKET:PARANOiA ETERNAL-jacket.png;
#CDIMAGE:;
#DISCIMAGE:;
#LYRICSPATH:;
#CDTITLE:;
#MUSIC:PARANOiA ETERNAL.ogg;
#OFFSET:0.000000;
#SAMPLESTART:54.599998;
#SAMPLELENGTH:15.000000;
#SELECTABLE:YES;
#DISPLAYBPM:200.000000;
#BPMS:0.000=200.000;
#STOPS:;
#DELAYS:;
#WARPS:;
#TIMESIGNATURES:0.000=4=4;
#TICKCOUNTS:0.000=4;
#COMBOS:0.000=1;
#SPEEDS:0.000=1.000=0.000=0;
#SCROLLS:0.000=1.000;
#FAKES:;
#LABELS:0.000=Song Start;
#BGCHANGES:;
#KEYSOUNDS:;
#ATTACKS:
;

//---------------dance-single - ----------------
#NOTEDATA:;
#CHARTNAME:;
#STEPSTYPE:dance-single;
#DESCRIPTION:;
#CHARTSTYLE:;
#DIFFICULTY:Beginner;
#METER:4;
#RADARVALUES:0.183846,0.285206,0.073840,0.000000,0.000000,122.000000,115.000000,7.000000,0.000000,0.000000,0.000000,0.000000,0.000000,0.000000,0.183846,0.285206,0.073840,0.000000,0.000000,122.000000,115.000000,7.000000,0.000000,0.000000,0.000000,0.000000,0.000000,0.000000;
#CREDIT:;
#DISPLAYBPM:200.000000;
#NOTES:
0000
0000
0000
0000
,
0000
0000
0000
0000
,
0000
0000
0000
0000
,
0000
0000
0000
0000
,
0000
0000
1000
0000
,
0000
0000
0000
0000
,
0000
0001
0000
0000
,
0000
0000
0000
0000
,
1000
0000
0100
0000
,
0000
0000
0000
0001
,
0000
0100
0000
0000
,
0000
0000
1000
0000
,
0001
0000
0000
0000
,
0000
0001
0000
1000
,
0000
0000
0000
0000
,
0000
0100
0000
0100
,
0000
0000
0000
1000
,
0000
1000
0000
1000
,
0000
0100
0000
0001
,
0000
0001
0000
0001
,
0000
1000
0000
1000
,
0000
1000
0000
0100
,
0000
0001
0000
0001
,
0000
0001
0000
1000
,
0000
1000
0000
1000
,
0000
0010
0000
0001
,
0000
0001
0000
0001
,
0000
1000
0000
1000
,
0000
1000
0000
0010
,
0000
0001
0000
0001
,
0000
0001
0000
0000
,
0000
0010
0000
0000
,
0000
0001
0000
0000
,
0000
0100
0000
0000
,
0000
1000
0000
0000
,
0000
0010
0000
0000
,
0000
0001
0000
0000
,
0000
0100
0000
0000
,
0000
0000
0000
1001
,
0000
0000
0000
0000
,
0000
0000
0000
1001
,
0000
0000
0000
0000
,
0000
0000
1001
0000
,
0000
0000
0000
0010
,
0010
0010
0000
0000
,
0000
0000
1000
0000
,
1000
0000
1000
0000
,
0100
0000
0001
0000
,
0001
0000
0001
0000
,
0100
0000
1000
0000
,
1000
0000
1000
0000
,
0100
0000
0001
0000
,
0001
0000
0001
0000
,
0100
0000
1000
0000
,
1000
0000
1000
0000
,
0010
0000
0001
0000
,
0001
0000
0001
0000
,
0010
0000
1000
0000
,
1000
0000
1000
0000
,
0010
0000
0001
0000
,
0001
0000
0001
0000
,
0010
0000
1001
0000
,
1000
0000
0100
0000
,
1000
0000
1001
0000
,
0001
0000
0100
0000
,
0001
0000
1001
0000
,
1000
0000
0100
0000
,
1000
0000
1001
0000
,
0001
0000
0100
0000
,
0001
0000
0010
0000
,
0010
0000
0010
0000
,
0010
0000
0000
0100
,
0000
0000
0100
0000
,
0000
0100
0000
0000
,
0100
0000
0000
1000
,
0000
0000
0001
0000
,
0000
0100
0000
0100
,
0100
0100
0000
0000
,
0000
0000
0000
0000
;

//---------------dance-single - ----------------
#NOTEDATA:;
#CHARTNAME:;
#STEPSTYPE:dance-single;
#DESCRIPTION:;
#CHARTSTYLE:;
#DIFFICULTY:Easy;
#METER:8;
#RADARVALUES:0.405365,0.529668,0.337553,0.000000,0.000000,269.000000,237.000000,32.000000,0.000000,0.000000,0.000000,0.000000,0.000000,0.000000,0.405365,0.529668,0.337553,0.000000,0.000000,269.000000,237.000000,32.000000,0.000000,0.000000,0.000000,0.000000,0.000000,0.000000;
#CREDIT:;
#DISPLAYBPM:200.000000;
#NOTES:
0000
0000
0000
0000
,
0000
0000
0000
0000
,
0000
0000
0000
0000
,
0000
0000
0000
0000
,
0000
0000
1000
0000
,
0000
0000
0000
1001
0000
0000
0000
0000
,
0000
0001
0000
0000
,
0000
1001
0000
0100
0000
0100
0000
0000
,
0010
0000
0001
0000
0110
0000
0000
1000
,
0000
0100
0000
1001
0000
0000
1001
0000
,
1000
0000
0100
0000
0000
1001
0000
0001
,
0000
0100
0000
0000
1001
0000
1000
0000
,
0100
0000
0000
1001
0000
0001
0000
0100
,
0000
1001
1000
0100
,
0000
1001
0000
0001
0000
0100
0000
0000
,
0000
0000
0010
0010
0000
0010
0010
0000
,
0010
0000
0000
1000
,
0000
1000
0000
0010
,
0001
0100
0000
0010
,
1000
0010
1000
0100
,
0001
0001
0000
0001
,
0000
0010
1000
0100
,
0000
0010
0001
0010
,
0001
0100
1000
1000
,
0000
1000
0000
0100
,
0010
0001
1001
0010
,
0100
1001
0100
1000
,
0001
0001
0000
0001
,
0000
0100
0010
1000
,
1001
0010
0100
1001
,
0100
0001
1000
0000
,
0000
0010
0000
0000
,
0000
0001
0000
0000
,
0000
0100
0000
0000
,
0000
1000
0000
0000
,
0000
0010
0000
0000
,
0000
0001
0000
0000
,
0000
0100
0000
0000
,
0000
0000
0000
0000
0000
0010
0010
0000
,
0000
0000
0000
0010
0000
0010
0000
0010
,
0000
0010
1000
0100
,
0000
0010
0000
0001
0000
1001
0000
0000
,
0010
0000
0001
0000
0100
0000
0000
0110
,
0000
1001
0000
0100
0000
0000
0010
0000
,
0010
0000
0010
0000
0000
0001
0000
1000
,
0000
0100
0000
0000
0010
0000
1000
0000
,
1001
0001
0100
1001
,
0010
0000
0100
0001
0010
0000
0001
0000
,
1001
1000
0100
1001
,
0010
0000
0100
1000
0010
0000
0010
0000
,
0100
0001
0110
0001
,
0010
0000
0100
0001
0010
0000
0010
0000
,
0100
1000
0110
1000
,
0010
0000
0100
1000
0001
0000
0110
0000
,
0001
0110
1000
0100
,
0001
0000
0100
0001
1000
0000
0110
0000
,
1000
0110
0001
0100
,
1000
0000
0100
1000
0100
0000
0010
0000
,
0001
0110
1000
0010
,
0100
0000
0100
0001
0100
0000
0010
0000
,
1000
0110
0001
0010
,
0100
0000
0100
0000
0010
1000
0100
0000
,
0010
0000
0100
0010
,
1001
0000
0000
0000
0010
0001
0100
0000
,
0010
0000
0100
0010
,
1001
0000
0000
0000
1000
1000
0000
0000
,
1000
1000
0000
0000
0100
0100
0000
0000
,
0100
0100
0000
0000
0001
0001
0000
0000
,
0001
0001
0000
0000
0100
0100
0000
0000
,
0100
0100
0000
0000
0010
0000
1000
0000
,
0100
0001
0010
1000
,
0100
0000
0000
0001
0000
0000
0100
0000
,
0000
1000
0000
0000
0100
0000
0000
1001
,
0000
0000
0010
0000
0000
0100
0000
0000
,
0010
0000
0000
1000
0000
0000
1000
0000
,
0000
0001
0000
0000
0001
0000
0000
0010
,
0000
0100
1000
0100
,
0001
0100
0000
0000
,
0000
0000
0000
0000
;

//---------------dance-single - ----------------
#NOTEDATA:;
#CHARTNAME:;
#STEPSTYPE:dance-single;
#DESCRIPTION:;
#CHARTSTYLE:;
#DIFFICULTY:Medium;
#METER:10;
#RADARVALUES:0.521398,0.570411,0.485232,0.021097,0.000000,346.000000,300.000000,46.000000,2.000000,0.000000,0.000000,0.000000,0.000000,0.000000,0.521398,0.570411,0.485232,0.021097,0.000000,346.000000,300.000000,46.000000,2.000000,0.000000,0.000000,0.000000,0.000000,0.000000;
#CREDIT:;
#DISPLAYBPM:200.000000;
#NOTES:
0000
0000
0000
0000
,
0000
0000
0000
0000
,
0000
0000
0000
0000
,
0000
0000
0000
0000
,
0000
0000
0000
0010
0000
0000
1001
0000
,
0000
0100
0000
0000
1001
0000
0000
0010
,
0000
0000
1001
0000
0000
0100
0000
0000
,
1001
0000
0000
0010
0000
0000
1001
0000
,
0100
0000
1001
0000
0000
0011
0000
0001
,
0000
0100
0000
0000
1010
0000
1000
0000
,
0100
0000
0000
1001
0000
0001
0000
0010
,
0000
0100
1001
0100
,
0000
1010
0000
0001
0000
0100
0000
0000
,
0011
0000
1000
0000
0001
0000
0000
1001
,
0000
0100
0000
1000
0000
0000
0101
0000
,
0000
0000
0010
0100
0000
0010
0000
0000
,
1001
0000
0000
0010
,
1000
0000
0100
0000
0001
0100
1000
0000
,
0010
0100
0001
0010
,
0100
1000
0010
0100
,
0001
0010
1000
0100
,
0010
0001
1000
0000
0001
0000
0001
0000
,
0100
0010
0100
0000
0001
0000
1000
0000
,
0010
0100
0001
0010
,
0100
0000
1000
0000
0100
1000
0001
0000
,
0010
0000
0001
0000
0001
0100
0001
0000
,
0010
0100
1000
0100
,
0010
0001
1001
0100
,
1000
0001
0010
0000
0001
0000
1000
0000
,
0100
0001
0100
0010
,
0001
0100
0010
0000
1000
0000
0010
0000
,
0010
0000
0001
0100
0001
0000
1000
0000
,
1000
0000
1000
0100
1000
0000
0001
0000
,
0010
1000
0100
0001
,
1000
0110
1001
0010
,
0010
0000
1000
0100
1000
0000
0001
0000
,
0001
0000
0001
0100
0001
0000
1000
0000
,
0010
0001
0100
1000
,
0000
0110
0000
0110
0000
1000
0000
0000
,
0100
0000
0000
0010
0000
0000
0001
0000
,
0100
0001
1000
0001
0000
0000
0100
0000
,
0000
0010
0000
0000
1000
0000
0100
1000
,
0001
1000
0000
0000
0100
0000
0000
0010
,
0000
0000
0001
0000
0100
0001
1000
0001
,
0000
0000
0000
0100
0000
0010
0000
0000
,
0100
0000
0001
1000
0010
0000
0100
0000
,
0010
0001
1000
0001
,
0011
0000
1000
0100
1000
0000
0001
0000
,
0010
0010
0100
1001
,
0100
1000
0001
0100
,
1000
0100
0001
0010
,
1001
0000
0001
0100
0001
0000
1010
0000
,
0100
0100
0010
1000
,
0100
0001
0001
0100
,
0010
1000
0010
1000
,
1010
0000
0001
0100
0001
0000
1001
0000
,
0010
0010
0100
0010
,
0001
1001
1000
0100
,
0001
0100
1000
0100
,
0001
0000
0001
1000
0001
0000
0011
0000
,
0100
0100
0010
0001
,
0100
0000
1001
0000
0001
0100
0010
0000
,
0100
0001
0100
0110
,
1000
0100
0010
0000
1000
0010
1000
0000
,
1000
0100
1000
0000
1000
0001
0100
0001
,
0100
0001
0000
0000
1000
0100
1000
0000
,
0001
0010
0001
0000
1000
0100
1000
0100
,
0010
0001
0000
0000
1000
0100
1000
0000
,
0001
0010
0001
0000
0100
0001
0100
0000
,
0001
0010
0001
0000
0010
0000
0000
1001
,
0000
0000
0100
0000
0000
1001
0000
0000
,
2100
0000
0000
3010
0000
0000
0102
0000
,
0000
0013
0000
0000
1001
0000
0000
0100
,
0000
0000
1010
0000
0000
0110
0000
0000
,
0101
0000
0000
1001
0000
0000
1100
0000
,
0000
0110
0000
0000
0100
0000
0000
0010
,
0000
1001
0101
0110
,
1010
1001
0000
0000
,
0000
0000
0000
0000
;

//---------------dance-single - ----------------
#NOTEDATA:;
#CHARTNAME:;
#STEPSTYPE:dance-single;
#DESCRIPTION:;
#CHARTSTYLE:;
#DIFFICULTY:Hard;
#METER:13;
#RADARVALUES:0.643460,0.694884,0.474684,0.052743,0.000000,427.000000,382.000000,45.000000,5.000000,0.000000,0.000000,0.000000,0.000000,0.000000,0.643460,0.694884,0.474684,0.052743,0.000000,427.000000,382.000000,45.000000,5.000000,0.000000,0.000000,0.000000,0.000000,0.000000;
#CREDIT:;
#DISPLAYBPM:200.000000;
#NOTES:
0000
0000
0000
0000
,
0000
0000
0000
0000
,
0000
0000
0000
0000
,
0000
0000
0000
0000
,
0000
0000
0000
1100
0000
0000
0001
0000
,
0000
0101
0000
0000
1000
0000
0000
1100
,
0000
0000
0010
0000
0000
0101
0000
0000
,
0010
0000
0000
1100
0000
0000
0101
0000
,
0100
0000
1000
0000
0000
0011
0000
0100
,
0001
1000
0000
0000
1010
0000
0100
0000
,
0010
0000
0000
1001
0000
0010
1000
0001
,
0000
1100
0101
1000
,
0000
1010
0000
0100
0001
1000
0000
0000
,
0011
0000
0001
0000
1000
0000
0000
1001
,
0000
0010
1000
0001
0000
0000
0101
0000
,
0000
0000
1001
0000
0000
0110
0000
0000
,
1001
0000
0000
0010
,
1000
0000
0100
0000
0001
0010
1000
0000
,
0000
1000
0000
0000
1000
0010
0100
0000
,
0100
0010
1000
0100
0010
0100
1000
0000
,
0110
0000
0001
0000
0010
0000
1000
0001
,
0100
0001
0010
0000
0000
0010
0000
0000
,
0010
0001
0100
0000
0010
0001
0010
0100
,
0001
0010
1000
0000
0010
0000
0001
0000
,
0010
0000
1000
0000
0100
0001
1000
0000
,
0000
1100
0000
0000
0100
0010
0001
0000
,
0001
0100
1000
0010
1000
0100
0001
0000
,
0011
0000
0011
0000
1001
0000
0100
0001
,
1000
0010
0001
0000
0000
0110
0000
0000
,
0001
0100
0010
0000
0100
0001
0010
0100
,
1000
0010
0100
0000
0001
0000
0100
1000
,
0001
0000
0001
0100
1000
0000
1000
0100
,
0100
0010
0001
0010
0010
0000
0100
1000
,
0001
0100
0001
0100
,
1000
0000
0010
0000
0001
0000
0100
0001
,
1000
0000
1000
0100
0001
0000
0010
1000
,
1001
0000
0100
0100
0010
0000
0100
0001
,
1000
0110
0000
1000
,
0000
1000
0000
1000
0000
0010
0000
0000
,
0001
0000
0000
0100
0000
0000
1000
0000
,
0010
0100
0100
0100
0000
0000
0001
0000
,
0000
0010
0000
0000
1000
0000
0100
0010
,
0010
0010
0000
0000
1000
0000
0000
0100
,
0000
0000
0001
0000
0010
0100
0100
0100
,
0000
0000
0000
0011
0000
1010
0000
0000
,
0100
0001
0010
0010
0001
0000
1000
0000
,
0100
0000
0010
1000
0100
0000
0010
0001
,
0100
0000
0001
0100
1000
0100
0001
0010
,
0100
0001
0100
0010
0001
0000
0110
0000
,
1000
0000
0010
0001
1000
0000
0110
0000
,
0110
0000
0010
0001
1000
0000
0000
0110
,
0000
0000
1000
0010
0100
1000
0100
0010
,
1000
0100
0010
1000
0010
0000
0101
0000
,
0010
0000
1000
0010
0100
0000
1001
0000
,
0100
0000
0010
0001
1000
0000
0101
0000
,
1100
0000
1000
0100
0001
0100
1000
0010
,
0100
1000
0100
0010
1000
0000
0110
0000
,
0001
0000
0010
1000
0001
0000
0110
0000
,
0110
0000
0010
1000
0001
0000
0000
1001
,
0000
0000
0001
0010
0100
0001
0100
0010
,
0001
0100
0010
0001
0010
0000
0100
0001
,
0001
0000
0010
0000
1000
0001
0100
0010
,
0100
0001
0010
1000
0010
0001
1000
0010
,
0100
0100
0000
0000
0100
1000
0010
0100
,
0010
1000
0010
1000
0100
1000
0010
1000
,
0010
0100
0000
0000
1000
0010
0100
0001
,
0100
1000
0001
0010
1000
0100
0100
0010
,
0001
0010
0000
0000
0100
1000
0010
0001
,
0010
0001
1000
0100
1000
0100
0001
0010
,
0100
1000
0010
0000
0100
0000
2001
0000
,
3001
0100
0010
1000
0010
0100
0002
0000
,
1003
0100
0010
0001
0010
0100
2000
0000
,
3001
0100
1000
0010
1000
0100
0002
0000
,
1003
0100
0001
0010
0001
0100
2000
0000
,
3010
0000
0100
0001
0010
0000
0100
1000
,
0010
0000
1000
0100
0001
0000
0001
0010
,
1000
0000
0010
0001
1000
0000
1010
0000
,
0101
1001
1100
0000
;

//---------------dance-single - ----------------
#NOTEDATA:;
#CHARTNAME:;
#STEPSTYPE:dance-single;
#DESCRIPTION:;
#CHARTSTYLE:;
#DIFFICULTY:Challenge;
#METER:13;
#RADARVALUES:0.608800,0.613133,0.527426,0.000000,0.000000,404.000000,354.000000,50.000000,0.000000,0.000000,0.000000,0.000000,0.000000,0.000000,0.608800,0.613133,0.527426,0.000000,0.000000,404.000000,354.000000,50.000000,0.000000,0.000000,0.000000,0.000000,0.000000,0.000000;
#CREDIT:;
#DISPLAYBPM:200.000000;
#NOTES:
0000
0000
0000
0000
,
0000
0000
0000
0000
,
0000
0000
0000
0000
,
0000
0000
0000
0000
,
0000
0000
0000
0000
1000
1000
1000
0000
,
0000
0000
0000
0100
0100
0100
0000
0000
,
0000
0000
0010
0010
0010
0000
0000
0000
,
0000
0001
0001
0001
0000
1001
0000
0000
,
1000
0100
0010
0001
1000
0000
0000
1100
,
0000
0010
0000
0101
0000
0000
0001
0100
,
1000
0100
0001
0000
0000
0011
0000
0100
,
0000
1010
0000
0000
0001
0010
0100
0001
,
0010
0000
0000
0110
0000
1001
0000
0110
,
0000
0000
1000
0010
0100
1000
0010
0000
,
0000
1001
0000
0110
0000
1001
0000
0000
,
0000
0000
0010
1000
0000
0010
0001
0000
,
0110
0000
0000
0010
,
1000
0000
0100
0000
0010
1000
0001
0000
,
0100
0000
0010
0000
0001
0100
1000
0000
,
0110
0000
0001
0000
0010
0100
1000
0000
,
0001
0110
0001
0100
,
1000
0001
0010
0000
1000
0000
0010
0000
,
1000
0001
0100
0000
1000
0000
0100
0000
,
0010
0001
0010
0000
1000
0000
0100
0000
,
0011
0000
1100
0000
1000
0010
1000
0000
,
0001
0000
0100
0000
0010
1000
0001
0000
,
0100
0000
0010
0000
1000
0100
0001
0000
,
0110
1000
0010
0101
,
1000
0010
0100
0000
0001
0000
0100
0000
,
0001
0100
0010
0000
0001
0000
1000
0000
,
0001
1000
0100
0000
1001
0000
0010
0001
,
0010
0000
1100
0000
0000
0000
0010
1000
,
0010
0000
0101
0000
0000
0000
1000
0100
,
1000
0000
0001
0100
0001
0000
1100
0000
,
0101
0000
1100
0000
0000
0000
0001
0100
,
1000
0000
1100
0000
0000
0000
1000
0100
,
0001
0000
0101
0000
0000
0000
0001
0100
,
1000
1100
0000
0101
,
0000
0000
0000
0000
0000
1000
0001
0000
,
0000
0000
0010
0010
0100
0010
0100
0000
,
0000
0000
1000
1000
0100
0001
0001
0000
,
0000
0001
0001
0010
1000
1000
0000
0000
,
1000
0010
0010
0001
0001
0000
0000
0001
,
0100
0100
1000
1000
0000
0000
1000
0100
,
0001
0100
0001
0000
0000
0001
0010
1000
,
0010
1000
0000
0000
0011
0000
0101
0000
,
1000
0000
0001
0010
0100
0000
0011
0000
,
0100
0000
1000
0100
0010
0000
1001
0000
,
0110
0000
0001
0100
0010
0000
0101
0000
,
0001
0000
0001
0010
1000
0000
0001
0000
,
0100
0000
1000
0010
0001
0000
0110
0000
,
0101
0000
0010
1000
0100
0000
1100
0000
,
0001
0000
1000
0010
0100
0000
1010
0000
,
0100
0000
0001
0100
0010
0000
1001
0000
,
0110
0000
1000
0100
0010
0000
1100
0000
,
1000
0000
1000
0010
0001
0000
1010
0000
,
0100
0000
0001
0010
1000
0000
0110
0000
,
1100
0000
0010
0001
0010
0000
1000
0000
,
1010
0000
0001
0100
0001
0000
0001
0000
,
0010
0000
1000
0100
0010
0000
1000
0000
,
0010
0000
0001
0100
0010
0000
1001
0000
,
1100
0000
0101
0000
0010
0001
1000
0100
,
0010
0001
0000
0000
1000
0100
0001
0100
,
1000
0000
0000
0000
1000
0100
0010
0001
,
1000
0010
0000
0000
0001
0100
1000
0100
,
0001
0000
0000
0000
0010
0010
0010
0010
,
0010
0010
0010
0010
0010
0010
0010
0010
,
0010
0010
0000
0000
0100
0100
0100
0100
,
0100
0100
0100
0100
0100
0100
0100
0100
,
0100
0100
0000
0000
0001
0000
0100
0000
,
1000
0000
0100
0000
0001
0100
1000
0100
,
0001
0000
0000
0001
0100
0000
1000
0100
,
0000
0010
1000
0000
0010
0001
0000
0010
,
1000
0000
0010
0001
0000
0001
1000
0000
,
1000
0001
0000
0100
0001
0000
0100
1000
,
0000
1000
0001
0000
0001
1000
0000
0000
,
1100
0101
1000
0010
,
0001
0100
1000
0000
;

//---------------dance-double - ----------------
#NOTEDATA:;
#CHARTNAME:;
#STEPSTYPE:dance-double;
#DESCRIPTION:;
#CHARTSTYLE:;
#DIFFICULTY:Easy;
#METER:9;
#RADARVALUES:0.500301,0.651899,0.748945,0.000000,0.000000,332.000000,261.000000,71.000000,0.000000,0.000000,0.000000,0.000000,0.000000,0.000000,0.500301,0.651899,0.748945,0.000000,0.000000,332.000000,261.000000,71.000000,0.000000,0.000000,0.000000,0.000000,0.000000,0.000000;
#CREDIT:;
#DISPLAYBPM:200.000000;
#NOTES:
00000000
00000000
00000000
00000000
,
00000000
00000000
00000000
00000000
,
00000000
00000000
00000000
00000000
,
00000000
00000000
00000000
00000000
,
00000000
00000000
00000000
10000000
00000000
00000000
01000000
00000000
,
00000000
00010000
00000000
00000000
00001000
00000000
00000000
00000100
,
00000000
00000000
00000001
00000000
00000000
00000010
00000000
00000000
,
00001000
00000000
00000000
00010000
00000000
00000000
00100000
00000000
,
10000000
00000000
01000000
00000000
00000000
01000000
00000000
10000000
,
00000000
00100000
00000000
00000000
00100000
00000000
00010000
00000000
,
00001000
00000000
00000000
00001000
00000000
00000010
00000000
00000001
,
00000000
00000010
00000001
00000100
,
00000000
00000100
00000000
00000001
00000000
00000010
00000000
00000000
,
00000010
00000000
00001000
00000000
00010000
00000000
00000000
00010000
,
00000000
00100000
00000000
10000000
00000000
00000000
01100000
00000000
,
00000000
00000000
00010000
00000000
00000000
00001000
00000000
00000000
,
00000100
00000000
00000000
00010000
,
00011000
00000000
00101000
00000000
,
00001000
00000100
00000001
00001000
,
00001001
00000000
00000100
00000010
,
00000001
00000100
00001001
00000000
,
00010010
00000000
00010000
01000000
,
10000000
00100000
00110000
00110000
,
00001000
00000100
00000101
00001001
,
00000010
00000000
00010010
00000000
,
00010000
01000000
10000000
00100000
,
10010000
00000000
01100000
00010000
,
00001000
00000100
00001001
00000000
,
00000110
00001000
00010000
00001000
,
00000100
00000010
00001000
00011000
,
00101000
00110000
01100000
01000000
,
10000000
00100000
00010000
00001000
,
00010000
00001000
00000010
00000001
,
00000110
00001001
00000110
00000011
,
00001100
00000011
00001100
00000100
,
00000010
00001000
00010000
01000000
,
00010000
00001000
00010000
00100000
,
10010000
01100000
10010000
00110000
,
00000000
11000000
00000000
11000000
00000000
00010000
00000000
00000000
,
10000000
00000000
00000000
01100000
00000000
00000000
10010000
00000000
,
01000000
00010000
00100000
00010000
00000000
00000000
00010010
00000000
,
00000000
00001010
00000000
00000000
00000100
00000000
00000001
00000010
,
00000100
00001000
00000000
00000000
00000001
00000000
00000000
00000110
,
00000000
00000000
00001001
00000000
00000100
00001000
00000010
00001000
,
00000000
00000000
00000000
00101000
00000000
00110000
00000000
00000000
,
01000000
10000000
01000000
10000000
01000000
00000000
00100000
00000000
,
00010000
01000000
00100000
11000000
,
01010000
11000000
00100000
00010000
,
00010000
00001000
00000100
00000101
,
00000011
00000110
00000100
00000010
,
00001000
00000100
00000010
00000101
,
00001100
00000101
00000010
00001000
,
00001000
00000000
00010000
01000000
01000000
00000000
11000000
00000000
,
10100000
01100000
00010000
00001000
,
00010000
00100000
00100000
00010000
,
00001000
00000010
00000010
00001000
,
00010000
01000000
10000000
00100000
,
00010000
00001000
00010000
00001000
,
00010000
01000000
01000000
00010000
,
00001000
00000100
00000100
00001000
,
00010000
00100000
10000000
01000000
,
01100000
01100000
00100000
01000000
,
00010000
00000000
01000000
00000000
10000000
00000000
00000000
00100000
,
00000000
00010000
00001000
00000100
,
00001000
00000100
00000001
00000010
,
00001000
00000010
00000010
00000100
,
00001000
00000000
00000100
00000000
00000001
00000000
00000000
00000010
,
00000000
00001000
00010000
01000000
,
10000000
01000000
00010000
00001000
,
00000010
00000000
00000001
00000000
00000101
00000000
00000000
00001010
,
00000000
00000000
00010010
00000000
00000000
00011000
00000000
00000000
,
01001000
00000000
00000000
01010000
00000000
00000000
10100000
00000000
,
00000000
11000000
00000000
00000000
00110000
00000000
00000000
00101000
,
00000000
00000000
00011000
00000000
00000000
00010100
00000000
00000000
,
00001100
00000000
00000000
00000011
00000000
00000000
00000110
00000000
,
00000000
00001000
00000000
00000000
00011000
00000000
00000000
00010000
,
00000000
01100000
10000000
00100000
,
00010000
01000000
00000000
00000000
,
00000000
00000000
00000000
00000000
;

//---------------dance-double - ----------------
#NOTEDATA:;
#CHARTNAME:;
#STEPSTYPE:dance-double;
#DESCRIPTION:;
#CHARTSTYLE:;
#DIFFICULTY:Medium;
#METER:11;
#RADARVALUES:0.519892,0.651899,0.379747,0.084388,0.000000,345.000000,309.000000,36.000000,8.000000,0.000000,0.000000,0.000000,0.000000,0.000000,0.519892,0.651899,0.379747,0.084388,0.000000,345.000000,309.000000,36.000000,8.000000,0.000000,0.000000,0.000000,0.000000,0.000000;
#CREDIT:;
#DISPLAYBPM:200.000000;
#NOTES:
00000000
00000000
00000000
00000000
,
00000000
00000000
00000000
00000000
,
00000000
00000000
00000000
00000000
,
00000000
00000000
00000000
00000000
,
00000000
00000000
00000000
10200000
00000000
00000000
00310000
00000000
,
00000000
00012000
00000000
00000000
00003010
00000000
00000000
00000012
,
00000000
00000000
00000103
00000000
00000000
00002100
00000000
00000000
,
00013000
00000000
00000000
02010000
00000000
00000000
13000000
00000000
,
00100000
00000000
00010000
00000000
00000000
00010000
00000000
01000000
,
00000000
10000000
00000000
00000000
00100000
00000000
00010000
00000000
,
00001000
00000000
00000000
00001000
00000000
00010000
00000000
00001000
,
00000000
00000010
00000001
00000100
,
00000000
00001000
00000000
00010000
00000000
00000010
00000000
00000000
,
00010000
00000000
01000000
00000000
10000000
00000000
00000000
00100000
,
00000000
00010000
00000000
00001000
00000000
00000000
00011000
00000000
,
00000000
00000000
00001000
00000010
00000000
00000010
00000001
00000000
,
00001001
00000000
00000000
00100000
,
10000000
01000000
00010000
00001000
,
00000100
00000001
00000010
00000000
00000001
00000000
00000010
00000000
,
00001000
00000000
00010000
00000000
00100000
00010000
00001000
00010000
,
00100000
10000000
01000000
00010000
,
00001000
00000000
00000100
00000000
00000001
00001000
00000100
00000000
,
00000010
00000001
00000100
00001010
,
00010010
00000000
00001000
00010000
00001000
00000000
00000010
00000000
,
00000001
00000100
00001000
00010000
,
01000000
10000000
00100000
00000000
10000000
00000000
00100000
00000000
,
00010000
00000000
00001000
00000000
00000010
00001000
00010000
00001000
,
00000010
00000001
00000100
00001000
,
00010000
00000000
01000000
00000000
10000000
00010000
01000000
00000000
,
00100000
10000000
01000000
00110000
,
00101000
00000000
00010000
00001000
00010000
00000000
01000000
00000000
,
00100000
00010000
01000000
00100000
,
00010000
00001000
00010000
00100000
,
10010000
01000000
10010000
00001000
,
00000010
00000001
00000100
00000100
,
00000010
00001000
00000100
00000010
,
00001000
00010000
00001000
00000010
,
00001001
00000100
00001001
00020000
,
00000000
10000000
00000000
10030000
00000000
00010000
00000000
00000000
,
11000000
00000000
00000000
00100000
00000000
00000000
10000000
00000000
,
00100000
00010000
00010000
00001000
00000000
00000000
00011000
00000000
,
00000000
00000010
00000000
00000000
00000001
00000000
00000010
00001000
,
00001000
00010000
00000000
00000000
00011000
00000000
00000000
01000000
,
00000000
00000000
10000000
00000000
00100000
00010000
00010000
00001000
,
00000000
00000000
00000000
00000100
00000000
00001001
00000000
00000000
,
00000001
00000100
00001000
00010000
01000000
00000000
11000000
00000000
,
10000000
00000000
01000000
10000000
10000000
00000000
00010000
00000000
,
00010000
00000010
00000001
00000100
,
00001000
00000100
00000001
00000010
,
00001000
00010000
00001000
00000110
,
00000110
00000000
00000001
00000100
00001000
00000000
00000100
00000000
,
00000001
00000100
00001000
00010000
,
01000000
00000000
10000000
01000000
00010000
00000000
00001000
00000000
,
00000100
00000001
00000010
00000100
,
00001001
00000000
00001000
00000100
00010000
00000000
00100000
00000000
,
10000000
00000000
00010000
01000000
10000000
00000000
01000000
00000000
,
00010000
00100000
10000000
01000000
,
00010000
10010000
10100000
00010000
,
00001000
00000000
00000010
00001000
00010000
00000000
00001000
00010000
,
01000000
00000000
00010000
01000000
10000000
00000000
00100000
00000000
,
00010000
00001000
00000010
00000001
,
00000100
00000010
00000001
00001000
,
00000001
00000100
00001000
00000000
00010000
01000000
10000000
00000000
,
00010000
00010000
00000000
00000000
00001000
00010000
00001000
00000000
,
00010000
00001000
00010000
00000000
00001000
00000010
00000001
00000010
,
00000001
00001000
00000000
00000000
00000100
00010000
00001000
00010000
,
01000000
10000000
00100000
10000000
01000000
00010000
00001000
00000000
,
00001000
00010000
00000000
00000000
00001000
00010000
00100000
00010000
,
00100000
00010000
00001000
00000100
00000001
00000100
00000001
00000100
,
00001000
00010000
01000000
00000000
10000000
00000000
00000000
00100000
,
00000000
00000000
00011000
00000000
00000000
00000010
00000000
00000000
,
00011000
00000000
00000000
01000000
00000000
00000000
00011000
00000000
,
00000000
00000100
00000000
00000000
00000001
00000000
00000000
00000110
,
00000000
00000000
00011000
00000000
00000000
01100000
00000000
00000000
,
10000000
00000000
00000000
01100000
00000000
00000000
00102000
00000000
,
00000000
00003100
00000000
00000000
00020010
00000000
00000000
01030000
,
00000000
10000000
00010000
00000100
,
00000110
00001001
00000000
00000000
,
00000000
00000000
00000000
00000000
;

//---------------dance-double - ----------------
#NOTEDATA:;
#CHARTNAME:;
#STEPSTYPE:dance-double;
#DESCRIPTION:;
#CHARTSTYLE:;
#DIFFICULTY:Hard;
#METER:13;
#RADARVALUES:0.635925,0.651899,0.516878,0.084388,0.000000,422.000000,373.000000,49.000000,8.000000,0.000000,0.000000,0.000000,0.000000,0.000000,0.635925,0.651899,0.516878,0.084388,0.000000,422.000000,373.000000,49.000000,8.000000,0.000000,0.000000,0.000000,0.000000,0.000000;
#CREDIT:;
#DISPLAYBPM:200.000000;
#NOTES:
00000000
00000000
00000000
00000000
,
00000000
00000000
00000000
00000000
,
00000000
00000000
00000000
00000000
,
00000000
00000000
00000000
00000000
,
00000000
00000000
00000000
00100000
10000000
01000000
00010000
01000000
,
10000000
00000000
10100000
00000000
00100000
00010000
00001000
00010000
,
00000000
00010000
00001000
00000000
00010000
00001000
00000010
00000001
,
00000100
00000010
00000100
00000001
00000010
00000000
00000100
00000000
,
00001000
00000000
00001001
00000000
00000000
00000110
00000000
00000100
,
00001000
00010000
00000000
00000000
00011000
00000000
00010000
01000000
,
00100000
00000000
00000000
01100000
00000000
00100000
10000000
00010000
,
00000000
00000000
01010000
00000000
00100000
00010000
00001000
00000000
,
00000000
00011000
00000000
01000000
10000000
00010000
00000000
00000000
,
00110000
00000000
00010000
01000000
10000000
00000000
00000000
10100000
,
00000000
00100000
00010000
00001000
00000000
00000000
00001010
00000000
,
00000000
00000000
00001001
00000000
00000000
00011000
00000000
00000000
,
10010000
00000000
00000000
00100000
,
11000000
00000000
10010000
00000000
10000000
00100000
00010000
00000000
,
00100000
00010000
00001000
00000000
00001000
00000010
00000001
00000000
,
00001000
00000010
00000100
00000010
00001000
00000100
00000010
00001000
,
00000000
00001000
00010000
00000000
00100000
00000000
10000000
00000000
,
01000000
10000000
00100000
00000000
00000000
00011000
00000000
00000000
,
00000010
00000001
00000100
00000000
00000100
00000001
00000010
00001000
,
00010000
00001000
00010000
00001000
00000000
00001000
00000100
00000000
,
00000001
00000000
00000010
00000000
00001000
00010000
00100000
00000000
,
00100000
00010000
00001000
00000000
00100000
00001000
00010000
00000000
,
00001000
00000100
00001000
00000100
00000001
00000010
00000100
00000010
,
00000000
00000010
00001000
00000000
00010000
00000000
01000000
00000000
,
10000000
00100000
00010000
00000000
00000000
00011000
00000000
00000000
,
00010000
01000000
10000000
00000000
10000000
00100000
00010000
00100000
,
00010000
00001000
00010000
01000000
10000000
00000000
01000000
10000000
,
00000000
10000000
01000000
00000000
01000000
00010000
00001000
00010000
,
00000000
00010000
00001000
00000000
00001000
00000100
00000010
00000000
,
00001000
00000100
00000010
00001000
,
00010000
00000000
01000000
00000000
10000000
00000000
01000000
10000000
,
00000000
10000000
00100000
00000000
00100000
00010000
00001000
00010000
,
00000000
00010000
00001000
00000000
00001000
00000010
00000100
00000000
,
00000010
00001000
00010000
01000000
,
00000000
10010000
00000000
10010000
00000000
01000000
00000000
00000000
,
10010000
00000000
00000000
00100000
00000000
00000000
10000000
00000000
,
00100000
00010000
00001000
00000100
00000000
00000000
00001001
00000000
,
00000000
00000010
00000000
00000000
00000001
00000000
00000010
00001000
,
00010000
01000000
00000000
00000000
10010000
00000000
00000000
00100000
,
00000000
00000000
10000000
00000000
00100000
00010000
00001000
00000100
,
00000000
00000000
00000000
00001001
00000000
00000010
00000000
00000000
,
00000001
00000010
00001000
00010000
01000000
00000000
11000000
00000000
,
10100000
00000000
00100000
00010000
00001000
00000000
00000000
00001001
,
00000000
00000000
00000010
00000001
00000100
00000010
00001000
00000100
,
00010000
00001000
00100000
00010000
01000000
00000000
00100000
00000000
,
10000000
00000000
00010000
10000000
01000000
00000000
11000000
00000000
,
10100000
00000000
00100000
00010000
00001000
00000000
00001010
00000000
,
00000011
00000000
00000001
00000100
00001000
00000100
00001000
00010000
,
00100000
00010000
00100000
10000000
01000000
00000000
00010000
00000000
,
00001000
00000000
00000100
00000001
00000010
00000000
00001010
00000000
,
00001001
00000000
00000010
00001000
00010000
00000000
00000000
00011000
,
00000000
00000000
00010000
01000000
10000000
00100000
00010000
00100000
,
00010000
00001000
00000100
00000001
00000010
00000000
00001000
00000000
,
00000010
00000000
00000001
00000100
00001000
00000000
00011000
00000000
,
00010010
00000000
00000010
00010000
00001000
00000000
00011000
00000000
,
00011000
00000000
00010000
01000000
10000000
00010000
01000000
00100000
,
00010000
00001000
00000010
00001000
00010000
00000000
01000000
00000000
,
10000000
00000000
00100000
00000000
00010000
00001000
00010000
00100000
,
00010000
00001000
00100000
00010000
00100000
00001000
00010000
00100000
,
00010000
00001000
00000000
00000000
00001000
00000010
00000001
00001000
,
00000100
00000001
00001000
00000010
00001000
00010000
00001000
00010000
,
01000000
10000000
00000000
00000000
10000000
00100000
10000000
01000000
,
00010000
01000000
00100000
00001000
00010000
00001000
00000100
00000001
,
00001000
00000001
00000000
00000000
00000001
00001000
00000010
00100000
,
00010000
10000000
00010000
01000000
00000100
00001000
00000001
00000010
,
00000100
00001000
00000001
00000000
00000100
00000000
00000000
00021000
,
00000000
00000000
01030000
00000000
00000000
10200000
00000000
00000000
,
00310000
00000000
00000000
00000210
00000000
00000000
00000301
00000000
,
00000000
00002010
00000000
00000000
01003000
00000000
00000000
00120000
,
00000000
00000000
00030100
00000000
00000000
00002010
00000000
00000000
,
01003000
00000000
00000000
10020000
00000000
00000000
00030100
00000000
,
00000000
00002001
00000000
00000000
01003000
00000000
00000000
10010000
,
00000000
01100000
00101000
00011000
,
00000100
00000001
00000000
00000000
,
00000000
00000000
00000000
00000000
;

//---------------dance-double - ----------------
#NOTEDATA:;
#CHARTNAME:;
#STEPSTYPE:dance-double;
#DESCRIPTION:;
#CHARTSTYLE:;
#DIFFICULTY:Challenge;
#METER:9;
#RADARVALUES:0.619349,0.649789,0.464135,0.000000,0.000000,411.000000,367.000000,44.000000,0.000000,0.000000,0.000000,0.000000,0.000000,0.000000,0.619349,0.649789,0.464135,0.000000,0.000000,411.000000,367.000000,44.000000,0.000000,0.000000,0.000000,0.000000,0.000000,0.000000;
#CREDIT:;
#DISPLAYBPM:200.000000;
#NOTES:
00000000
00000000
00000000
00000000
,
00000000
00000000
00000000
00000000
,
00000000
00000000
00000000
00000000
,
00000000
00000000
00000000
00000000
,
00000000
00000000
00000000
00000000
10000000
01000000
00010000
00000000
,
00000000
00000000
00000000
00001000
00000100
00000001
00000000
00000000
,
00000000
00000000
00000001
00000100
00001000
00000000
00000000
00000000
,
00000000
00010000
01000000
10000000
00000000
10010000
00000000
00000000
,
10000000
01000000
00010000
00001000
00000100
00000000
00000000
00000110
,
00000000
00000110
00000000
00000110
00000000
00000000
00000001
00000100
,
00001000
00010000
01000000
00000000
00000000
01100000
00000000
01100000
,
00000000
01100000
00000000
00000000
10000000
01000000
00010000
00001000
,
00000100
00000000
00000000
00000110
00000000
00000101
00000000
00000110
,
00000000
00000000
00000001
00000100
00001000
00010000
01000000
00000000
,
00000000
01100000
00000000
11000000
00000000
01100000
00000000
00000000
,
00000000
00000000
00100000
00010000
00000000
01000000
00010000
00000000
,
10000000
00000000
00000000
00010000
,
00100000
00000000
10000000
00000000
10000000
01000000
00010000
00000000
,
00010000
01000000
10000000
00000000
10000000
00100000
00010000
00000000
,
00001000
00000000
00000110
00000000
00000001
00000100
00000001
00000000
,
00001000
00000001
00001000
00000000
00000010
00000000
00000001
00000000
,
00000001
00000100
00001000
00000000
00001000
00000100
00000001
00000000
,
00000001
00000100
00001000
00000000
00000101
00000000
00001100
00000000
,
00000100
00010000
00001000
00000000
00010000
00001000
00000100
00000000
,
00000101
00000000
00001100
00000000
00000010
00000001
00000010
00000000
,
00000100
00000001
00000100
00000000
00000010
00001000
00000010
00000000
,
00010010
00000000
00011000
00000000
00010000
00001000
00010000
00000000
,
01000000
11000000
00110000
10000000
,
00100000
10000000
01000000
00000000
01000000
10000000
00100000
00000000
,
00100000
10000000
01000000
00000000
11000000
00000000
00010000
00000000
,
00001000
00000000
00001000
00000100
00000001
00000000
00000001
00000100
,
00001000
00000000
00000110
00000000
00000000
00000000
00001000
00010000
,
01000000
00000000
01100000
00000000
00000000
00000000
10000000
01000000
,
00010000
00000000
00001000
00000100
00000001
00000000
00000100
00000000
,
00001000
00000000
00010000
00000000
00000000
00000000
00000100
00010000
,
00001000
00000000
00101000
00000000
00000000
00000000
00001000
00010000
,
00000100
00000000
00010010
00000000
00000000
00000000
00010000
00001000
,
01000000
00101000
00000000
00011000
,
00000000
00000000
00000000
00000100
00001000
00000000
00000000
00000000
,
00000000
00000000
00000000
00010000
01000000
10000000
01000000
00010000
,
00000000
00000000
00001000
00000100
00000001
00000100
00001000
00000000
,
00000000
00010000
01000000
10000000
01000000
00010000
00000000
00000000
,
00001000
00000010
00000001
00000010
00001000
00000000
00000000
00010000
,
00100000
10000000
00100000
00010000
00000000
00000000
00001000
00000100
,
00000001
00000010
00001000
00000000
00000000
00010000
01000000
10000000
,
00100000
00010000
00000000
00000000
00001000
00000000
00000110
00000000
,
00000001
00000000
00001000
00000010
00000001
00000000
00000001
00000010
,
00001000
00000000
00000001
00000100
00001000
00000000
00010000
00000000
,
01100000
00000000
10000000
00100000
00010000
01000000
10000000
00000000
,
01100000
10000000
00010000
01100000
,
10000000
00000000
00010000
00100000
10000000
00000000
10000000
00100000
,
00010000
00000000
10000000
01000000
00010000
00000000
00001000
00000000
,
00000110
00000000
00000001
00000010
00001000
00000100
00000001
00000000
,
00000110
00001000
00010000
01000000
,
00010000
00000000
00001000
00010000
00000010
00000000
00010000
00001000
,
00000100
00000000
00000010
00010000
00001000
00000000
01000000
00000000
,
00011000
00000000
00010000
00100000
01000000
00001000
00010000
00000000
,
00000100
00011000
00100000
00011000
,
00000100
00000000
00000100
00010000
00001000
00000000
01000000
00001000
,
00010000
00000000
00001000
00000100
00001000
00000000
00000110
00000000
,
00001000
00000000
00010000
00100000
10000000
00010000
01000000
00000000
,
11000000
00000000
10000000
00000000
00100000
10000000
01000000
00100000
,
00010000
01000000
00100000
00010000
00001000
00000100
00000010
00001000
,
00000001
00000100
00000000
00000000
00000010
00001000
00010000
00000010
,
00001000
00000100
00000010
00001000
00010000
01000000
00100000
00010000
,
10000000
01000000
00000000
00000000
10000000
01000000
00010000
01000000
,
00010000
00001000
00000100
00000001
00000100
00001000
00000100
00001000
,
00000100
00000001
00000000
00000000
00000001
00000010
00001000
00000010
,
00001000
00010000
00100000
10000000
00100000
00010000
00100000
00010000
,
00100000
10000000
00000000
00000000
01010000
00000000
10000000
00000000
,
11000000
00010000
00001000
00000100
,
00000001
00000000
00000000
00000100
00000001
00000000
00000100
00001000
,
00000000
00010000
00010000
00000000
01000000
01000000
00000000
10000000
,
01000000
00000000
00010000
01000000
00000000
00010000
00010000
00000000
,
00001000
00001000
00000000
00000100
00000001
00000000
00000100
00001000
,
00000000
00000010
00000010
00000000
00000100
00000100
00000000
00000000
,
00000101
00001000
00010000
01000000
,
11000000
00000000
00000000
00000000
;

//---------------dance-single - edit----------------
#NOTEDATA:;
#CHARTNAME:;
#STEPSTYPE:dance-single;
#DESCRIPTION:edit;
#CHARTSTYLE:;
#DIFFICULTY:Edit;
#METER:18;
#RADARVALUES:1.094033,1.348892,0.232068,0.063291,0.854430,726.000000,704.000000,22.000000,6.000000,0.000000,0.000000,0.000000,0.000000,0.000000,1.094033,1.348892,0.232068,0.063291,0.854430,726.000000,704.000000,22.000000,6.000000,0.000000,0.000000,0.000000,0.000000,0.000000;
#CREDIT:;
#DISPLAYBPM:200.000000;
#NOTES:
// measure 0
0000
0000
0000
0000
,  // measure 1
0000
0000
0000
0000
,  // measure 2
0000
0000
0000
0000
,  // measure 3
0000
0000
0000
0000
,  // measure 4
0000
0000
0000
0000
0010
1000
0010
1000
,  // measure 5
0010
0100
0010
0100
0010
1000
0010
0100
,  // measure 6
0010
1000
0010
0100
0010
1000
0010
0100
,  // measure 7
0001
0010
0001
0010
0100
0010
0100
0010
,  // measure 8
0001
0010
0001
0010
0000
0011
0000
0010
,  // measure 9
1000
0100
0010
0000
1100
0000
0100
1000
,  // measure 10
0010
0100
0000
0101
0000
0001
0010
0100
,  // measure 11
1000
0000
1100
0000
0100
1000
0010
0100
,  // measure 12
0000
0101
0000
0001
1000
0010
0001
0000
,  // measure 13
1001
0000
1000
0001
0010
1000
0000
1100
,  // measure 14
0000
1000
0100
0010
0001
0000
0101
0000
,  // measure 15
0000
0000
0100
0100
0000
0010
0010
0000
,  // measure 16
1000
0000
0100
0000
0000
0000
0000
0000
0000
0000
0000
0000
1000
0001
0100
0001
,  // measure 17
1000
0001
0100
0001
1000
0000
0001
0000
0010
0100
1000
0100
0010
0100
1000
0000
,  // measure 18
0100
0000
1000
0000
0010
0000
0100
0000
0001
0100
0001
0100
0010
0000
0100
0000
,  // measure 19
0100
0001
0100
0100
1000
1000
0100
0100
,  // measure 20
0010
0010
0001
1000
0010
0010
1000
0001
,  // measure 21
0010
0010
0001
1000
0010
0010
1000
0001
,  // measure 22
0010
0000
0010
0000
0100
0010
0100
0000
1000
0001
1000
0000
0001
0010
0001
0000
,  // measure 23
0010
0100
0010
0100
1000
0000
1000
0000
0010
0000
0100
0000
0001
0010
0100
1000
,  // measure 24
0100
1000
0010
0100
0001
0000
1000
0001
0010
0100
1000
0100
0010
0000
0001
0000
,  // measure 25
0001
0000
0100
0000
1000
0000
0001
0000
0100
1000
0010
1000
0010
0000
0010
0000
,  // measure 26
0001
0010
0001
0000
0010
1000
0010
0000
0001
0010
0001
0000
0010
1000
0010
0000
,  // measure 27
0100
1000
0100
1000
0010
0000
0100
0001
0100
0000
1000
0100
1000
0000
0100
0001
,  // measure 28
0100
0000
1000
0100
1000
0000
0100
0001
0100
0000
1000
0100
1000
0000
0010
0000
,  // measure 29
0100
0010
0100
0010
0001
0000
0001
0010
0100
0000
0010
0100
1000
0000
0010
0100
,  // measure 30
1000
0100
0010
0001
1000
0000
0001
0000
0100
0000
0010
0000
1000
0000
1000
0000
,  // measure 31
0001
0000
0001
0000
1000
0000
0100
0000
0010
0001
0010
0000
0100
0000
0100
0000
,  // measure 32
0010
0000
0010
0000
0001
0000
0010
0000
0100
1000
0100
0000
0010
0000
0010
0000
,  // measure 33
0100
0000
0100
0000
1000
0000
0010
0000
0100
0001
0100
0000
0010
0000
0010
0000
,  // measure 34
1000
0000
1000
0000
0100
0000
0001
0000
0010
0000
0100
0000
1000
0100
1000
0000
,  // measure 35
0010
0100
0010
0000
0001
0000
0010
0000
0100
1000
0100
1000
0001
0010
0001
0000
,  // measure 36
0100
1000
0100
0000
0010
0000
0100
0000
0010
1000
0010
1000
0001
0010
0001
0000
,  // measure 37
0100
1000
0100
0000
0001
0100
0010
1000
0100
0000
0000
0000
0100
0000
0000
0000
,  // measure 38
0100
0000
0000
0000
0100
0000
0000
0000
1000
0100
1000
0100
1000
0100
1000
0100
,  // measure 39
1000
0100
1000
0100
1000
0100
1000
0100
1000
0000
0100
0000
0010
0000
0001
0000
,  // measure 40
1000
0000
0001
0000
0010
0001
0010
0001
0010
0001
0010
0001
0010
0001
0010
0001
,  // measure 41
0010
0001
0010
0001
0010
0001
0010
0001
0010
0000
0001
0000
1000
0000
0010
0000
,  // measure 42
1000
0010
1000
0010
1000
0010
1000
0010
1000
0010
1000
0010
1000
0010
1000
0010
,  // measure 43
1000
0010
1000
0010
1000
0000
0010
0000
0100
0000
0001
0000
0100
0001
0100
0001
,  // measure 44
0100
0001
0100
0001
0100
0001
0100
0001
0100
0001
0100
0001
0100
0001
0100
0001
,  // measure 45
0100
0001
0100
0001
0100
0001
1000
0001
1000
0100
0010
0001
1000
0000
1000
0000
,  // measure 46
1010
1000
0010
1000
0001
0001
1000
1000
,  // measure 47
0010
0000
0001
0000
0001
0000
1000
0000
0010
0100
0010
0000
0100
0000
0001
0000
,  // measure 48
1000
0100
1000
0000
0010
0000
0100
0000
0001
0010
0001
0000
0100
0000
0010
0000
,  // measure 49
0100
0010
0100
0000
1000
0000
0010
0000
0100
0001
0100
0000
1000
0100
1000
0000
,  // measure 50
0010
1000
0010
0000
0100
0001
0100
0001
0010
0000
0001
0000
1000
0000
0010
0000
,  // measure 51
0100
0000
0100
0000
0100
0010
0100
0010
0100
0000
0010
0000
0010
0000
0100
0000
,  // measure 52
0100
0000
1000
0000
1000
0000
0001
0000
0001
1000
0000
0000
0100
1000
0000
0000
,  // measure 53
0010
0100
0000
0000
0001
0010
0000
0000
0001
0010
0100
1000
0001
0000
1000
0000
,  // measure 54
0001
0000
0100
0000
0010
1000
0010
1000
0100
0000
0010
0000
0001
0000
0100
0000
,  // measure 55
0010
1000
0010
0000
0001
0000
0010
0000
0100
1000
0100
0000
0010
0000
0001
0000
,  // measure 56
1000
0010
1000
0000
0010
0000
0100
0000
0001
0010
0001
0000
0100
0000
0010
0000
,  // measure 57
1000
0100
1000
0000
0001
0000
0100
0000
0010
1000
0010
0000
0100
1000
0100
0000
,  // measure 58
0001
0010
0001
0000
1000
0010
1000
0010
0100
0000
0010
0000
0010
0000
0100
0000
,  // measure 59
0100
0000
0001
0000
0001
0000
1000
0000
1000
0100
0000
0000
0001
0100
0000
0000
,  // measure 60
1000
0010
0000
0000
0001
0010
0001
0010
0100
0000
0100
0000
1000
0000
1000
0000
,  // measure 61
0010
0010
0100
0000
0100
1000
0001
0010
,  // measure 62
0100
1000
0001
1000
0010
0100
0000
0010
,  // measure 63
0000
0010
0010
0010
1000
0001
0100
0010
,  // measure 64
1000
0001
0100
0010
1000
0001
0000
0010
,  // measure 65
0000
0100
0010
0000
0010
1001
0010
1001
,  // measure 66
0010
1001
0010
1001
0010
1001
0010
1001
,  // measure 67
0000
0010
0010
0010
0100
1001
0010
1001
,  // measure 68
0100
1001
0010
1001
0100
1001
0100
1001
,  // measure 69
0100
0000
1001
0000
0100
0000
0000
0000
1000
0100
0010
0001
2000
0000
0001
0000
,  // measure 70
3001
0010
0100
1000
0002
0000
1000
0000
1003
0100
0010
0001
2000
0000
0001
0000
,  // measure 71
3001
0010
0100
1000
0002
0000
1000
0000
1003
0100
0010
0001
2000
0000
0001
0000
,  // measure 72
3001
1000
0100
0010
0002
0000
1000
0000
1003
0001
0100
0010
1000
0000
0100
0000
,  // measure 73
1000
0000
0010
0000
0100
0000
0010
0000
0001
0000
1000
0000
0010
1000
0100
0010
,  // measure 74
0001
0010
0100
0000
1000
0000
0100
0000
0010
0000
0001
0000
1000
0100
0010
0100
,  // measure 75
1000
0100
0010
0000
0001
0000
0010
0000
0001
0000
0010
0000
1000
0001
0100
0001
,  // measure 76
0010
0001
0100
0000
0001
0000
0010
0000
0100
0000
1000
0000
0100
1000
0100
0000
,  // measure 77
0010
0100
0010
0000
0001
0010
0100
1000
0001
0000
0000
0000
0000
0000
0000
0000
;
