#VERSION:0.83;
#TITLE:PARANOiA ETERNAL(X-Special);
#SUBTITLE:;
#ARTIST:STM 200;
#TITLETRANSLIT:;
#SUBTITLETRANSLIT:;
#ARTISTTRANSLIT:;
#GENRE:;
#ORIGIN:;
#CREDIT:;
#BANNER:PARANOiA ETERNAL(X-Special).png;
#BACKGROUND:PARANOiA ETERNAL(X-Special)-bg.png;
#PREVIEWVID:;
#JACKET:PARANOiA ETERNAL(X-Special)-jacket.png;
#CDIMAGE:;
#DISCIMAGE:;
#LYRICSPATH:;
#CDTITLE:;
#MUSIC:PARANOiA ETERNAL(X-Special).ogg;
#OFFSET:0.000000;
#SAMPLESTART:54.599998;
#SAMPLELENGTH:15.000000;
#SELECTABLE:YES;
#DISPLAYBPM:200.000000;
#BPMS:0.000=200.000;
#STOPS:;
#DELAYS:;
#WARPS:;
#TIMESIGNATURES:0.000=4=4;
#TICKCOUNTS:0.000=4;
#COMBOS:0.000=1;
#SPEEDS:0.000=1.000=0.000=0;
#SCROLLS:0.000=1.000;
#FAKES:;
#LABELS:0.000=Song Start;
#BGCHANGES:;
#KEYSOUNDS:;
#ATTACKS:
;

//---------------dance-single - ----------------
#NOTEDATA:;
#CHARTNAME:;
#STEPSTYPE:dance-single;
#DESCRIPTION:;
#CHARTSTYLE:;
#DIFFICULTY:Challenge;
#METER:13;
#RADARVALUES:0.738397,0.692642,0.400844,0.327004,0.000000,490.000000,452.000000,38.000000,31.000000,0.000000,0.000000,0.000000,0.000000,0.000000,0.738397,0.692642,0.400844,0.327004,0.000000,490.000000,452.000000,38.000000,31.000000,0.000000,0.000000,0.000000,0.000000,0.000000;
#CREDIT:;
#DISPLAYBPM:200.000000;
#NOTES:
0000
0000
0000
0000
,
0000
0000
0000
0000
,
0000
0000
0000
0000
,
0000
0000
0000
0000
,
0000
0000
0000
1000
0200
0000
0301
0000
,
0000
0001
0200
0000
1300
0000
0000
1000
,
0200
0000
0310
0000
0000
0001
0200
0000
,
0310
0000
0000
1100
0000
0000
0101
0000
,
0010
1000
0001
0100
0000
1100
0000
0010
,
1000
0001
0100
0000
0101
0000
0010
1000
,
0100
0001
0000
1001
0000
0100
0001
1000
,
0010
0000
1001
0000
0010
1000
0001
0100
,
0000
0101
0000
0010
1000
0001
0100
0000
,
0110
0000
0010
1000
0001
0100
0000
1001
,
0000
0100
0001
1000
0010
0000
0110
0000
,
0000
0000
1000
1000
0000
0001
0001
0000
,
2002
0000
0000
0000
0000
3003
0100
0000
,
0011
0000
1010
0000
1000
0100
0001
0100
,
1000
0010
0000
1000
0001
0100
0010
1000
,
0010
0100
0001
0010
0100
0010
0001
0000
,
1100
0000
0101
0000
0100
0010
0001
1000
,
0010
1000
0200
0000
0300
0200
0000
0300
,
0100
1000
0010
1000
0100
1000
0100
0010
,
0001
0100
1000
0000
0101
0000
1100
0000
,
1100
0000
0101
0000
0001
0010
1000
0010
,
0001
0100
0000
0001
1000
0010
0100
0001
,
0100
0010
1000
0100
0010
0100
1000
0000
,
0011
0000
1010
0000
0010
0100
1000
0001
,
0100
0001
0020
0000
0030
0020
0000
0030
,
0010
0001
0100
0001
0010
0001
0010
0100
,
1000
0010
0001
0000
1001
0000
0010
0001
,
1000
0100
1000
0100
0010
0001
0010
0001
,
1000
0100
1000
0100
0010
0001
0010
0001
,
1000
0100
0010
0001
0010
0100
1000
0100
,
0001
0000
1100
0000
0101
0000
0010
1000
,
0001
1000
0001
0010
1000
0001
1000
0010
,
0100
0001
0100
0010
1000
0010
0100
1000
,
2000
0200
3300
0020
,
0000
0032
0000
1003
0000
0110
0000
0000
,
1100
0000
0000
0110
0000
0000
0011
0000
,
0100
1000
1000
1000
0000
0000
0101
0000
,
0000
0110
0000
0000
1010
0000
0010
0001
,
0001
0001
0000
0010
0001
0000
0100
0010
,
0000
0001
1000
0001
0100
0010
0010
0010
,
0100
1000
0100
0001
0100
1000
0100
0010
,
0001
1000
0100
0100
0200
0000
0301
0000
,
1010
0000
0100
0001
0010
0001
0100
0001
,
1000
0000
1000
0010
0001
0010
1000
0100
,
0010
0001
1000
0010
0001
0000
0010
1000
,
0001
0010
0100
1000
0001
0010
0100
0001
,
0100
1000
0001
1000
0002
0000
1003
0020
,
0000
0000
1030
0100
0010
0001
0010
0100
,
1000
0010
0100
0001
0100
1000
0200
0000
,
0320
2030
3010
1010
,
0100
0001
0010
0001
0100
0001
1000
0100
,
1000
0010
0001
0010
1000
0100
0010
0001
,
1000
0010
0001
0001
0010
1000
0001
0010
,
0100
1000
0001
0010
0100
0001
0100
1000
,
0001
1000
0100
0010
0002
0000
1003
0200
,
0000
0300
0010
0001
0010
0100
1000
0010
,
0100
0001
0100
1000
0100
0000
0110
0000
,
0001
0100
0010
0000
0001
1000
0010
0001
,
0010
1000
0100
0001
0100
1000
0001
0100
,
0100
0100
0000
0000
1000
0001
0100
1000
,
0100
0001
0010
1000
0010
0001
1000
0010
,
0010
0010
0000
0000
0001
1000
0010
0001
,
0010
1000
0001
0010
0100
1000
0001
0100
,
0100
0100
0000
0000
0010
0010
0010
0010
,
0010
0010
0010
0010
0010
0010
0010
0010
,
0010
0010
0010
0000
0020
0030
1002
0000
,
1003
0010
0100
1000
0100
0010
2000
0000
,
3001
0010
0100
0001
0100
0010
0002
0000
,
1003
0010
0001
0100
0001
0010
2000
0000
,
3001
0010
1000
0100
1000
0010
0002
0000
,
2003
0000
3010
1000
0200
0000
0310
0001
,
0200
0000
0301
0010
1000
0100
1000
0010
,
0001
0100
1000
0100
0001
0000
0101
0000
,
1100
1001
0000
0000
,
0000
0000
0000
0000
;

//---------------dance-double - ----------------
#NOTEDATA:;
#CHARTNAME:;
#STEPSTYPE:dance-double;
#DESCRIPTION:;
#CHARTSTYLE:;
#DIFFICULTY:Challenge;
#METER:13;
#RADARVALUES:0.690175,0.692642,0.337553,0.094937,0.000000,458.000000,426.000000,32.000000,9.000000,0.000000,0.000000,0.000000,0.000000,0.000000,0.690175,0.692642,0.337553,0.094937,0.000000,458.000000,426.000000,32.000000,9.000000,0.000000,0.000000,0.000000,0.000000,0.000000;
#CREDIT:;
#DISPLAYBPM:200.000000;
#NOTES:
00000000
00000000
00000000
00000000
,
00000000
00000000
00000000
00000000
,
00000000
00000000
00000000
00000000
,
00000000
00000000
00000000
00000000
00000000
00010000
00000000
00000000
,
00000000
00000000
00000000
00000000
00010000
10000000
01000000
00000000
,
00000000
00000000
00000000
00010000
00000100
00001000
00000000
00000000
,
00000000
00000000
00000001
00000100
00000010
00000000
00000000
00000000
,
00000000
00001000
00000001
00001000
00000001
00000010
00000100
00001000
,
00000001
00000100
00001000
00000100
00000000
00000110
00000000
00000001
,
00000100
00001000
00010000
00000000
00011000
00000000
00001000
00010000
,
00100000
01000000
00000000
11000000
00000000
00100000
00010000
10000000
,
01000000
00000000
11000000
00000000
00100000
00010000
00001000
00000100
,
00000000
00001100
00000000
00001000
00010000
00001000
00100000
00000000
,
00011000
00000000
00001000
00000100
00001000
00000001
00000000
00001001
,
00000000
00000001
00000010
00000100
00001000
00000000
00012000
00000000
,
00000000
00000000
00013000
00020000
00000000
00031000
00002000
00000000
,
00023000
00000000
00030000
00000000
00000000
00000000
00001000
00000100
,
00000010
00000000
00000001
00000100
00000010
00001000
00000100
00000000
,
00001000
00001000
00000000
00010000
01000000
10000000
00010000
00000000
,
01000000
00010000
00100000
01000000
10000000
00000000
00010000
00010000
,
00010000
00000000
00100000
01000000
00100000
00000000
10000000
01000000
,
00100000
00010000
01000000
00000000
00010000
00010000
00000000
00001000
,
00000100
00000001
00001000
00000000
00000100
00001000
00000010
00000100
,
00000001
00000000
00001000
00001000
00001000
00000000
00010000
01000000
,
00100000
00000000
10000000
01000000
00100000
00010000
01000000
00000000
,
00010000
00010000
00000000
00001000
00000100
00000001
00001000
00000000
,
00000100
00001000
00000010
00000100
00000001
00000000
00001000
00001000
,
00001000
00000000
00000001
00000010
00000100
00000000
00001000
00010000
,
00100000
01000000
00100000
00010000
00000000
10000000
10000000
00000000
,
01000000
00010000
00001000
00000100
00000000
00001000
00000100
00000010
,
00000100
00001000
00000001
00000000
00001000
00000000
00010000
00100000
,
01000000
10000000
01000000
00100000
00010000
00100000
00010000
00001000
,
00000100
00001000
00000100
00000010
00000001
00000010
00000001
00000010
,
00000000
00000010
00000100
00001000
00000010
00000100
00000001
00000010
,
00000100
00001000
00010000
01000000
00000000
00100000
10000000
01000000
,
00010000
01000000
00100000
00010000
00001000
00010000
00001000
00000100
,
00000010
00000001
00000100
00000010
00001000
00010000
00001000
00100000
,
00020000
00000000
00000000
00032000
,
00000000
00203000
00000000
01000000
00000000
01300000
00000000
00000000
,
10010000
00000000
00000000
00110000
00000000
00000000
00001100
00000000
,
00000010
00000001
00000001
00000001
00000000
00000000
00001001
00000000
,
00000000
00001100
00000000
00000000
00110000
00000000
01000000
10000000
,
10000000
10000000
00000000
00000000
01100000
00000000
00000000
01010000
,
00000000
00000000
00001100
00000000
00010000
00001000
00000010
00000001
,
00000000
00000000
00000000
00001100
00000000
00011000
00000000
00000000
,
00010000
00001000
00000100
00000001
00000010
00000000
00011000
00000000
,
00001100
00000000
00000100
00001000
00010000
01000000
00000000
10010000
,
00000000
00000000
01000000
10000000
00100000
00010000
00100000
00010000
,
00001000
00000100
00001000
00000100
00000001
00000000
00000001
00000100
,
00001000
00000000
00001000
00010000
00100000
00000000
00100000
01000000
,
10000000
00000000
00100000
10000000
01000000
00000000
11000000
00000000
,
00110000
00000000
10000000
00100000
00010000
00001000
00000100
00001000
,
00010000
01000000
10000000
01000000
00010000
00000000
00010000
00001000
,
00000100
00001000
00000100
00000001
00000010
00000000
00000001
00000010
,
00001000
00000000
00000010
00000001
00000200
00000000
00000000
00000002
,
00000303
00000000
00000001
00000010
00000100
00000001
00000100
00001000
,
00010000
01000000
10000000
00100000
00010000
00000000
10000000
00100000
,
01000000
00000000
00010000
00001000
00000100
00000000
00001001
00000000
,
00001100
00000000
00000010
00001000
00010000
00000000
00001100
00000000
,
00000011
00000000
00000001
00000010
00001000
00010000
00100000
01000000
,
00010000
01000000
00100000
00010000
00001000
00000010
00000001
00000000
,
00001100
00000000
00000101
00000000
00001000
00010000
00001000
00000010
,
00001000
00010000
00000010
00001000
00000010
00010000
00001000
00000010
,
00001000
00010000
00000000
00000000
00001000
00010000
01000000
10000000
,
00100000
00010000
00001000
00000100
00000001
00000010
00001000
00010000
,
00100000
01000000
00000000
00000000
10000000
00100000
01000000
00100000
,
00010000
00001000
00000100
00000001
00000010
00000001
00000100
00001000
,
00010000
00001000
00000000
00000000
00010000
00010000
00010000
00010000
,
00010000
00010000
00010000
00010000
00001000
00001000
00001000
00001000
,
00001000
00001000
00001000
00001000
00001000
00000000
00000000
00000001
,
00000000
00000000
00001000
00000000
00000000
01000000
00000000
00000000
,
00010000
00000000
00000000
00000010
00000000
00000000
00010000
00000000
,
00000000
10000000
00000000
00000000
00011000
00000000
00000000
00000001
,
00000000
00000000
00011000
00000000
00000000
01000000
10000000
01000000
,
10000000
01000000
00100000
01000000
00100000
00010000
00100000
00010000
,
00001000
00010000
00001000
00000100
00000010
00000100
00000010
00000001
,
00000010
00000100
00000001
00000100
00000010
00000100
00001000
00010000
,
01000000
10000000
00010000
00000000
00000000
00000000
00000000
00000000
,
00000000
00000000
00000000
00000000
;

//---------------dance-single - Edit----------------
#NOTEDATA:;
#CHARTNAME:;
#STEPSTYPE:dance-single;
#DESCRIPTION:Edit;
#CHARTSTYLE:;
#DIFFICULTY:Edit;
#METER:15;
#RADARVALUES:0.837854,0.817510,0.253165,0.000000,0.100211,556.000000,532.000000,24.000000,0.000000,0.000000,0.000000,0.000000,0.000000,0.000000,0.837854,0.817510,0.253165,0.000000,0.100211,556.000000,532.000000,24.000000,0.000000,0.000000,0.000000,0.000000,0.000000,0.000000;
#CREDIT:;
#DISPLAYBPM:200.000000;
#NOTES:
// measure 0
0000
0000
0000
0000
,  // measure 1
0000
0000
0000
0000
,  // measure 2
0000
0000
0000
0000
,  // measure 3
0000
0000
0000
0000
,  // measure 4
0000
0000
0000
0100
1000
0001
1000
0100
,  // measure 5
1000
0001
1000
0100
0010
1000
0001
1000
,  // measure 6
0010
1000
0001
1000
0010
1000
0100
1000
,  // measure 7
0001
1000
0010
1000
0100
1000
0100
1000
,  // measure 8
0100
1000
0100
1000
0010
0001
0010
0001
,  // measure 9
0010
0001
0010
0001
1000
0001
1000
0001
,  // measure 10
1000
0001
1000
0001
0010
0001
1000
0100
,  // measure 11
1000
0010
0100
0000
1000
0001
1000
0001
,  // measure 12
1000
0001
1000
0001
1000
0100
0001
0100
,  // measure 13
1000
0100
0001
0100
1000
0001
1000
0001
,  // measure 14
1000
0001
1000
0001
1000
0100
0010
0001
,  // measure 15
0000
0000
0110
1001
0000
1001
0110
0000
,  // measure 16
1001
0000
0000
0000
0000
0000
0010
0100
,  // measure 17
0001
0001
1000
0100
1000
0100
0010
0001
,  // measure 18
1000
1000
0000
0000
0001
0100
0010
0010
,  // measure 19
0100
0001
1000
0010
1000
0001
0100
0010
,  // measure 20
0100
0000
0001
0100
0010
1000
0001
1000
,  // measure 21
0010
0010
0100
0001
1000
0010
0100
0001
,  // measure 22
1000
0000
0000
0000
1000
0100
0000
0000
0001
0100
0000
0000
1000
0100
0000
0000
,  // measure 23
0001
0100
0000
0000
1000
0100
0000
0000
0001
0100
0000
0000
1000
0000
0100
0000
,  // measure 24
0001
0100
1000
0100
0001
0100
1000
0010
,  // measure 25
0001
0010
1000
0010
0001
0010
1000
0100
,  // measure 26
0001
0100
1000
0100
0001
0100
1000
0010
,  // measure 27
0100
0001
0010
0100
1000
0001
0110
0010
,  // measure 28
0001
0100
0010
1000
0100
0010
0001
1000
,  // measure 29
0010
0100
0001
0010
0100
1000
0001
0100
,  // measure 30
0010
0000
0010
0001
0100
0000
1001
0000
,  // measure 31
0100
0000
0101
0000
1010
0000
0100
0010
,  // measure 32
0100
0101
1100
0101
,  // measure 33
0001
0000
0011
0000
1100
0000
1000
0010
,  // measure 34
0100
0000
0101
0000
1010
0000
1000
0100
,  // measure 35
0010
0000
1010
0000
0101
0000
0001
1000
,  // measure 36
0100
0000
0010
1000
0001
0000
1000
0001
,  // measure 37
0100
0000
0010
0000
0100
0000
0001
1000
,  // measure 38
0001
0000
0000
0000
0000
1000
0100
1000
,  // measure 39
0100
1000
0100
1000
0100
0010
0100
0010
,  // measure 40
0100
0010
0100
0010
0100
0001
0100
0001
,  // measure 41
0100
0000
0001
0000
0100
0000
0001
0000
0100
0001
1000
0001
0100
0000
0010
0000
,  // measure 42
0100
0010
0100
0010
0100
0010
1000
0100
,  // measure 43
1000
0100
1000
0100
1000
0100
0001
0100
,  // measure 44
0001
0100
0001
0100
0001
0100
1000
0010
,  // measure 45
1000
0010
1000
0010
1000
0000
0100
0000
,  // measure 46
0010
0001
0100
0001
1000
0001
0100
0001
,  // measure 47
0010
0001
0001
0000
1000
0010
0010
1000
,  // measure 48
0010
1000
0010
1000
0010
1000
0010
0100
,  // measure 49
0001
1000
1000
1000
0001
0100
0010
0100
,  // measure 50
1000
0100
0001
0100
1000
0010
1000
0100
,  // measure 51
0001
0000
0001
0100
0001
0010
1000
1000
,  // measure 52
0001
0000
0100
0000
1000
0000
0001
0000
1000
0100
0000
0000
0001
0100
0000
0000
,  // measure 53
1000
0100
0000
0000
0001
0100
0000
0000
1000
0000
0100
0000
0010
0000
0001
0000
,  // measure 54
1000
0100
1000
0100
1000
0100
1000
0100
,  // measure 55
0010
0000
0001
0000
0010
0000
0001
0000
1000
0100
1000
0000
0001
0000
0100
0000
,  // measure 56
0010
0000
1000
0000
0010
0000
1000
0000
0001
0100
0001
0000
0010
0000
0100
0000
,  // measure 57
1000
0000
0001
0000
1000
0000
0001
0000
0010
0100
0010
0000
0001
0000
1000
0000
,  // measure 58
0010
0100
0010
0000
1000
0000
0001
0000
0010
0100
0010
0000
0001
0000
1000
0000
,  // measure 59
0010
0000
0100
0000
0010
0000
0100
0000
0001
0010
0001
0000
0100
0000
1000
0000
,  // measure 60
0010
0000
0001
0000
0010
0000
0001
0000
1000
0010
1000
0000
0100
0000
0010
0000
,  // measure 61
0001
1000
1001
0000
0010
0001
0000
0100
,  // measure 62
0001
1000
0100
0000
0010
0001
1000
0000
,  // measure 63
1001
0000
0000
0000
0010
1000
0000
0100
,  // measure 64
1000
0001
0100
0000
0010
1000
0001
0000
,  // measure 65
1001
0000
0001
0010
0100
1000
0001
0100
,  // measure 66
1000
1100
0100
0010
1000
1000
0100
0010
,  // measure 67
0001
0001
0100
0110
0010
0010
0010
0010
,  // measure 68
0010
0010
0010
0010
0010
0010
0010
0010
,  // measure 69
0010
0010
0010
0010
0010
1000
0100
0001
,  // measure 70
1000
0010
0001
0010
1000
0001
1000
0001
,  // measure 71
0100
0010
0010
0010
0100
0001
0101
0001
,  // measure 72
1000
0001
1000
0001
0100
0100
0010
0010
,  // measure 73
0010
0001
0100
0001
1000
0001
1000
0001
,  // measure 74
0001
0000
1000
0000
0100
0010
0001
0000
,  // measure 75
1000
0000
0010
0000
0100
0000
0010
1000
,  // measure 76
0100
0001
0010
0100
0001
1000
0001
0010
,  // measure 77
0100
1000
0001
1000
0010
0000
0000
0000
;
