#VERSION:0.83;
#TITLE:PAPARAZZI;
#SUBTITLE:(Dance Edit);
#ARTIST:Girls' Generation;
#TITLETRANSLIT:;
#SUBTITLETRANSLIT:;
#ARTISTTRANSLIT:;
#GENRE:;
#ORIGIN:;
#CREDIT:;
#BANNER:;
#BACKGROUND:PAPARAZZI (Dance Edit)-bg.png;
#PREVIEWVID:;
#JACKET:PAPARAZZI (Dance Edit)-jacket.jpg;
#CDIMAGE:;
#DISCIMAGE:;
#LYRICSPATH:;
#CDTITLE:;
#MUSIC:PAPARAZZI (Dance Edit)-mp3.mp3;
#OFFSET:0.500000;
#SAMPLESTART:197.000000;
#SAMPLELENGTH:12.000000;
#SELECTABLE:YES;
#BPMS:0.000=131.000,
4.000=129.000,
409.000=64.500,
416.500=129.000;
#STOPS:;
#DELAYS:;
#WARPS:;
#TIMESIGNATURES:0.000=4=4;
#TICKCOUNTS:0.000=4;
#COMBOS:0.000=1;
#SPEEDS:0.000=1.000=0.000=0;
#SCROLLS:0.000=1.000;
#FAKES:;
#LABELS:0.000=Song Start;
#BGCHANGES:0.000=PAPARAZZI (Dance Edit)-bg.png=1.000=0=0=1=====,
2.000=PAPARAZZI (Dance Edit).mp4=1.000=0=0=1=====,
496.500=PAPARAZZI (Dance Edit)-bg.png=1.000=0=0=1=====,
99999=-nosongbg-=1.000=0=0=0 // don't automatically add -songbackground-
;
#KEYSOUNDS:;
#ATTACKS:
;

//---------------dance-single - ----------------
#NOTEDATA:;
#CHARTNAME:;
#STEPSTYPE:dance-single;
#DESCRIPTION:;
#CHARTSTYLE:;
#DIFFICULTY:Challenge;
#METER:14;
#RADARVALUES:0.496439,0.843947,0.320974,0.299575,0.070614,812.000000,737.000000,75.000000,70.000000,0.000000,0.000000,0.000000,0.000000,0.000000,0.496439,0.843947,0.320974,0.299575,0.070614,812.000000,737.000000,75.000000,70.000000,0.000000,0.000000,0.000000,0.000000,0.000000;
#CREDIT:;
#NOTES:
0000
0000
0000
0000
,
0000
0000
0000
0000
,
0000
0000
0000
0000
,
0000
0000
0000
0000
,
0000
0000
0000
0000
,
0000
0000
0000
0000
,
0000
0000
0000
0000
,
0000
0000
0000
0000
,
0000
0200
0000
1300
0100
0001
0000
1001
,
0000
0020
0000
1030
0010
0001
0000
1001
,
0000
0002
0000
0103
0010
1000
0000
0110
,
0100
0010
0001
0100
0010
1000
0000
1001
,
0000
2000
0000
0001
0000
0001
0000
3001
,
0000
0020
0000
0100
0000
0100
0100
0130
,
0100
0002
0000
0010
0000
0010
0000
0013
,
0000
0200
0000
1000
0000
1000
0000
1300
,
0000
0010
0100
0010
1000
0001
1000
0100
,
0010
0100
0001
1000
0001
0100
0020
1000
,
1030
0000
0010
1000
0010
0001
0100
0001
,
1000
0010
1000
0100
0001
0100
0010
1000
,
0200
0000
0310
0001
0100
0010
1000
0100
,
0010
1000
0100
0010
0001
0100
0010
1000
,
0100
0000
1000
0100
0010
0001
0100
0010
,
1000
0010
0100
0001
1000
0020
0230
0320
,
0230
0310
0000
1001
0000
0100
0000
0110
,
0100
0010
1000
0010
0001
0000
0001
0101
,
0000
0100
0010
1000
0010
0100
0010
0001
,
0010
0200
0000
1300
0200
0000
0010
0310
,
0100
0001
0000
0110
0000
1000
0000
1001
,
0001
0200
0310
2000
3100
0000
0010
1001
,
0000
0000
0100
0000
0010
1000
0010
0000
1000
0000
0100
0000
0010
0100
0010
0000
,
0001
0000
0100
0000
1000
0100
1000
0000
0010
0001
0010
0000
0001
0000
0100
0000
,
0000
1000
0100
0001
0100
1000
0010
0100
,
0002
0000
1003
0010
0100
0001
0000
0100
,
1100
0100
1000
0100
0010
0001
0100
1000
,
0100
0220
0330
0022
0033
0202
0303
1100
,
0000
1000
0001
0100
1000
0100
0010
0000
,
1001
0000
0100
0010
1000
0010
0100
0110
,
0010
0001
1000
0010
0100
0001
1000
0001
,
0100
0220
0330
2020
3030
2200
3300
0101
,
0000
0010
1000
0010
0001
0010
1000
0010
,
0001
0100
1000
0100
0001
0100
1000
0200
,
0000
0301
1000
0001
0100
0001
1000
0001
,
0010
0001
1000
0001
0010
0001
1000
0001
,
0200
0000
0310
1000
0100
1000
0010
1000
,
0100
0010
0001
0010
0100
1000
0000
2000
,
0020
3030
0010
0001
0100
0010
1000
0001
,
0100
0000
0020
0000
0000
0000
1030
0100
1000
0000
0002
0000
0000
0000
0013
1000
,
0010
1001
0001
0100
0010
2000
0000
3001
,
1000
0100
0000
0010
1000
0002
0000
0103
,
0010
1000
0000
0010
0001
0200
0000
1300
,
0100
0001
0000
0100
0001
0020
0000
1030
,
0010
0100
0010
0001
0010
1000
0010
0001
,
0010
1000
0100
0001
0100
1000
0100
0110
,
0010
0000
0001
0100
0010
1000
0001
0010
,
0100
1000
0100
0001
0100
1000
0010
0011
,
0010
0000
1000
0001
0100
0001
0010
0001
,
0100
0010
1000
0100
0010
0001
0100
0101
,
0100
0000
0010
1000
0100
0010
0001
0010
,
1000
0100
0010
0001
0100
0010
1000
1010
,
0010
0200
0000
0302
0000
2003
0000
3020
,
0000
0032
0000
0103
2000
0000
0100
3100
,
0000
1000
0100
1100
0001
0100
0101
0100
,
0000
0020
0000
1030
0010
0000
0001
0011
,
0000
0101
0000
1100
0000
1010
0000
0011
,
0000
0001
0100
1000
0010
0000
0100
0110
,
0000
0010
0010
1000
1000
0100
0100
0001
,
0001
1000
1000
0010
0010
0110
0000
1001
,
0000
0000
0100
0000
0010
1000
0010
0000
0100
0000
0001
0000
0010
0000
0100
1000
,
0200
0000
0310
0001
1000
0010
0100
0110
,
0010
0000
1000
0001
0100
0001
0010
0001
,
0100
0110
0000
1010
0000
1100
0000
0101
,
0000
0000
0010
0000
0001
0100
0001
0000
0010
0000
0100
0000
1000
0001
1000
0000
,
0001
0000
0010
0000
1000
0010
1000
0000
0100
0000
0001
0000
0100
0010
0100
0000
,
0010
1000
0100
0010
0001
0100
0010
0001
,
0010
0110
0000
1010
0000
1100
0000
1001
,
0000
0002
0013
0100
1000
0020
0130
1000
,
0010
0200
0301
0010
0100
2000
3100
0010
,
0000
0001
0100
0010
1000
0001
0010
0001
,
0200
0000
0000
0310
0200
0000
0310
0100
,
0010
2000
0000
0001
0000
0000
0000
3001
,
0010
0200
0000
1000
0000
0000
0000
1300
,
0100
0020
0000
0001
0000
0000
0000
0031
,
0100
0000
0002
0000
0000
0000
1003
0000
0001
0000
0100
0010
0100
0010
0100
0010
,
0100
0010
0002
0000
0000
0000
1000
0000
0000
0000
0000
0000
0000
0000
1003
0000
,
0010
0200
0000
0001
0000
0000
0000
0301
,
0010
2000
0000
3100
0001
0020
0000
0031
,
0100
2000
0000
3100
0001
0020
0100
0130
,
0000
0110
0000
0010
1000
1001
0000
0001
,
0100
1100
1000
0100
0001
0000
0101
0000
,
0000
1000
0010
0100
0001
0010
0001
0100
,
0010
1000
0100
0001
0100
1000
0000
1001
,
0000
0010
1000
0001
0100
0110
0100
0110
,
0010
0001
0100
0010
1000
1010
0000
0010
,
1000
0001
0000
0010
0001
0101
0000
0010
,
1000
0000
0000
0000
0000
0000
0000
0000
0000
0000
0000
0000
0000
0000
0000
0000
0000
0000
0000
0000
0000
0000
0000
0000
0100
0000
0000
0000
0000
0000
0000
0000
0000
0000
0000
0000
0000
0000
0000
0000
0000
0000
0000
0000
0000
0000
0000
0000
0010
0000
0000
0000
0000
0000
0000
0000
0000
0000
0000
0000
0000
0000
0000
0000
0000
0000
0000
0000
0000
0000
0000
0000
0001
0000
0000
0000
0000
0000
0000
0000
0000
0000
0000
0000
0000
0000
0000
0000
0000
0000
0000
0000
0000
0000
0000
0000
0100
0000
0000
0000
0000
0000
0000
0000
0000
0000
0000
0000
0000
0000
0000
0000
0000
0000
0000
0000
0000
0000
0000
0000
0110
0000
0000
0000
0000
0000
0000
0000
0000
0000
0000
0000
0000
0000
0000
0000
0000
0000
0000
0000
0000
0000
0000
0000
0000
0000
0000
0000
0000
1010
0000
0000
0000
0000
0000
0000
0000
0000
0000
0000
0000
0000
0000
0000
0000
0000
0000
0000
0010
0000
0000
0000
0000
0000
0000
0000
0000
0000
0000
0000
0000
0000
0000
0000
0000
0000
0000
0000
0000
0000
0000
0000
,
0100
0001
0000
0001
0010
1010
0000
1000
,
0001
0100
0010
1000
0001
0110
0000
1001
,
0000
0220
0000
0000
0000
0000
0000
0000
,
0000
0000
0000
0000
,
0000
0000
0000
0000
,
0000
0000
0000
0000
,
0330
0000
0000
0000
0010
0001
0100
0010
1000
0010
0100
0010
0001
0100
0010
1000
,
0100
0010
0001
0000
0100
0010
1000
0010
0100
0001
0010
0100
1000
0001
0100
1001
,
0000
0110
0000
0000
1001
0000
0000
0000
0000
0000
0000
0000
0001
0000
0000
0000
0100
0000
0000
0000
0010
0000
0000
0000
1000
0000
0000
0000
0100
0000
0000
0000
,
0010
0001
0000
1000
0001
0100
0110
0000
,
1000
1010
0000
0010
0100
0001
0010
0100
,
1000
0001
0100
0000
0101
0000
1100
0000
,
1010
0000
0010
1000
0100
0010
0001
0101
,
0000
0001
0010
0100
1000
0010
0100
0010
,
1000
0000
0001
1000
0010
0100
0001
1000
,
0100
0010
0001
0000
0101
0000
1100
0000
,
1010
0000
1000
0010
0100
0001
1000
0010
,
0100
0001
1000
0100
0010
0001
1000
0100
,
0010
0001
0100
1000
0100
0001
0100
1000
,
0100
0001
0000
0001
0100
1000
0100
0010
,
0100
0101
0001
0010
0001
0100
0010
1000
,
0001
0100
0000
0010
1000
0001
0100
0000
,
0110
0000
0010
0001
0100
0010
1000
0100
,
0010
0000
0001
0000
0200
0000
0000
0000
0310
0001
0010
0000
2000
0000
0000
0000
,
3001
1000
0001
0000
2002
0000
0000
0000
0000
0000
0000
0000
0000
0000
0000
0000
,
0000
0000
0000
0000
,
0000
0000
0000
0000
,
0000
3003
0000
0000
;

//---------------dance-single - ----------------
#NOTEDATA:;
#CHARTNAME:;
#STEPSTYPE:dance-single;
#DESCRIPTION:;
#CHARTSTYLE:;
#DIFFICULTY:Hard;
#METER:13;
#RADARVALUES:0.478709,0.791200,0.406567,0.291016,0.042796,783.000000,688.000000,95.000000,68.000000,0.000000,0.000000,0.000000,0.000000,0.000000,0.478709,0.791200,0.406567,0.291016,0.042796,783.000000,688.000000,95.000000,68.000000,0.000000,0.000000,0.000000,0.000000,0.000000;
#CREDIT:;
#NOTES:
// measure 0
0000
0000
0000
0000
,  // measure 1
0000
0000
0000
0000
,  // measure 2
0000
0000
0000
0000
,  // measure 3
0000
0000
0000
0000
,  // measure 4
0000
0000
0000
0000
,  // measure 5
0000
0000
0000
0000
,  // measure 6
0000
0000
0000
0000
,  // measure 7
0000
0000
0000
0000
,  // measure 8
0000
0020
0000
1030
0010
0000
0001
0100
,  // measure 9
0000
2000
0000
3001
1000
0000
1000
0100
,  // measure 10
0000
0200
0000
0301
0100
0000
0100
1000
,  // measure 11
0000
0002
0000
1003
0001
0000
0001
0100
,  // measure 12
0000
1010
0000
0010
0001
0100
0000
1000
,  // measure 13
0001
0100
0001
1000
0001
0010
0010
0100
,  // measure 14
0100
1100
0000
0001
1000
0010
0000
0010
,  // measure 15
0100
0001
0010
0001
0100
1000
1000
0010
,  // measure 16
0010
0000
0100
0010
0100
0001
0010
0001
,  // measure 17
1000
0010
1000
0100
0010
0200
0302
2003
,  // measure 18
3002
0003
0100
1000
0010
1000
0100
0010
,  // measure 19
0001
0100
0001
0010
1000
0020
0032
0203
,  // measure 20
0320
0030
1000
0010
0100
0001
1000
0010
,  // measure 21
0001
0010
1000
0100
0001
0200
2300
3020
,  // measure 22
0230
0300
0010
0001
0100
0001
0010
1000
,  // measure 23
0100
1000
0010
0100
0001
0200
0320
2030
,  // measure 24
3200
0301
0000
0101
0000
0110
0000
1010
,  // measure 25
0000
1000
0100
0010
0001
0000
0001
1001
,  // measure 26
0000
0011
0000
0101
0000
1100
0000
1010
,  // measure 27
0000
1000
0100
0001
0100
0000
0010
0110
,  // measure 28
0000
0020
0000
0230
0000
2300
0000
3001
,  // measure 29
1000
0200
0310
0200
0310
0000
0010
0110
,  // measure 30
0000
0010
0010
0100
0100
0001
0001
1000
,  // measure 31
1000
0001
0010
0100
1000
0010
0000
1010
,  // measure 32
0000
1000
0001
0100
0010
0100
1000
0010
,  // measure 33
0100
0000
0110
0010
0001
0100
0000
0001
,  // measure 34
1001
0000
1000
0010
0001
0010
1000
0100
,  // measure 35
0001
0200
0000
2300
0000
3200
0000
0301
,  // measure 36
0000
0010
0001
0100
0010
1000
1100
0100
,  // measure 37
0000
0100
0010
0001
0100
0010
1000
0001
,  // measure 38
0000
0001
0100
0010
1000
0010
0001
0010
,  // measure 39
1000
0020
0000
0032
0000
0023
0000
1030
,  // measure 40
0000
1010
1000
0010
0001
0011
0001
0100
,  // measure 41
0010
0110
0100
1000
0001
0011
0010
0200
,  // measure 42
0000
0310
1000
0100
0010
0001
0010
1000
,  // measure 43
0002
0000
1003
0001
0200
0000
0310
1000
,  // measure 44
0001
0100
1000
0010
0001
1000
0100
0001
,  // measure 45
0010
0000
0010
0001
0100
0001
0000
1001
,  // measure 46
0000
1000
0010
0100
0010
1000
0100
0010
,  // measure 47
0100
2000
0000
3100
0010
0002
0000
0103
,  // measure 48
0000
1001
0001
0010
1000
0100
0000
0110
,  // measure 49
0000
1001
0000
0001
0010
0100
0000
1010
,  // measure 50
0000
1100
0000
1000
0010
0100
0000
0101
,  // measure 51
0000
0011
0000
0010
0001
0100
0001
0010
,  // measure 52
0100
1000
0010
0100
0010
0001
0100
0001
,  // measure 53
1000
0100
1000
0010
0100
0002
0023
0230
,  // measure 54
2300
3000
0010
0001
0100
0010
1000
0100
,  // measure 55
0001
0100
1000
1000
0100
0002
2003
3200
,  // measure 56
0320
0030
0010
0001
0100
0010
1000
0010
,  // measure 57
0100
0001
1000
0010
0001
0200
0320
2030
,  // measure 58
3002
0003
1000
0010
0001
0010
1000
0010
,  // measure 59
0001
0100
1000
0100
0001
0200
2300
3002
,  // measure 60
0203
0301
0000
1001
0000
1000
0000
1010
,  // measure 61
0000
0200
0000
0010
0020
0000
0330
0110
,  // measure 62
0000
0001
0100
0010
1000
0010
0100
0001
,  // measure 63
0000
1010
0000
0001
0011
0000
0000
0101
,  // measure 64
0000
1010
0000
1100
0000
0011
0000
0101
,  // measure 65
0000
0110
0010
0001
1000
0000
0000
1001
,  // measure 66
0000
1000
0010
0100
0001
1000
0010
0001
,  // measure 67
0010
0100
0010
0001
0010
0100
0000
1100
,  // measure 68
0000
1000
0001
0100
0010
1000
0100
0010
,  // measure 69
0001
0000
0011
0010
0100
1000
0010
1000
,  // measure 70
1010
0000
0010
0001
0100
0010
1000
0100
,  // measure 71
0010
0001
0010
1000
0100
1000
0000
1001
,  // measure 72
0000
1000
0001
0100
0001
0010
0001
0100
,  // measure 73
0000
0010
1000
0100
1000
0001
1000
0010
,  // measure 74
0000
0100
1000
0100
0001
0100
1000
0100
,  // measure 75
0010
0001
0000
0101
0000
1100
0000
1010
,  // measure 76
0000
1000
0001
1000
0001
0100
0010
0100
,  // measure 77
0010
0001
1000
0001
1000
0010
0000
0110
,  // measure 78
0000
0010
0001
0010
0001
0100
0001
0100
,  // measure 79
0002
0000
0003
1000
0002
0000
0103
0100
,  // measure 80
0001
0010
0000
1010
0000
1100
0000
0101
,  // measure 81
0001
0011
0000
1010
0000
0011
0000
0101
,  // measure 82
0100
1100
0000
0000
1010
0000
0011
0000
,  // measure 83
0101
0000
0000
0000
0100
0000
0010
0000
1000
0000
0010
0100
0010
0000
0100
0010
,  // measure 84
0100
0010
0100
0000
0000
0000
0000
0000
0110
0000
0000
0000
1001
0000
0000
0000
,  // measure 85
0010
0110
0000
0000
1001
0000
0210
0000
,  // measure 86
0301
1001
0000
0010
0100
0001
0000
0010
,  // measure 87
1000
0100
0000
0010
0001
0100
0001
0010
,  // measure 88
0000
1010
0000
0000
0000
1100
0000
0000
,  // measure 89
0000
0101
0000
0000
0000
0011
0000
0000
,  // measure 90
0000
1010
0000
0000
0000
1100
0000
0000
,  // measure 91
0000
0110
0000
0000
0000
0011
0000
0000
,  // measure 92
0000
0101
0000
0101
0000
1010
0000
1010
,  // measure 93
0000
1000
0001
0100
0001
0010
0000
0011
,  // measure 94
0000
1010
0000
1000
0001
0100
0000
0010
,  // measure 95
0001
1000
0001
0100
0010
0000
0110
0000
,  // measure 96
0000
0110
0100
0010
1000
0001
0000
0010
,  // measure 97
0100
0001
0010
0100
0000
0101
0000
1100
,  // measure 98
0000
2020
0000
0000
0000
0000
0000
0000
,  // measure 99
0000
0000
0000
0000
,  // measure 100
0000
0000
0000
0000
,  // measure 101
0000
0000
0000
0000
,  // measure 102
3030
0000
0000
0000
1000
0100
0010
0001
0000
0001
1000
0010
0100
0001
1000
0010
,  // measure 103
0010
0000
0000
0000
0100
0000
0000
0000
0100
0000
0000
0000
0000
0000
0000
0000
0001
0000
0000
0000
0010
0000
0000
0000
0100
0000
0000
0000
1000
0000
0000
0000
0000
0000
0000
0000
0010
0000
0000
0000
0001
0000
0000
0000
0100
0000
0000
0000
0010
0000
0000
0000
1000
0000
0000
0000
0100
0000
0000
0000
0100
0010
0000
0000
,  // measure 104
0000
0000
1000
0001
0000
0000
0000
0000
0100
0010
0000
0000
0000
0000
0000
0000
0000
0000
0000
0000
0000
0000
0000
0000
0010
0000
0000
0000
0000
0000
0000
0000
0001
0000
0000
0000
0000
0000
0000
0000
0100
0000
0000
0000
0000
0000
0000
0000
0001
0000
0000
0000
0000
0000
0000
0000
0010
0000
0000
0000
0000
0000
0000
0000
,  // measure 105
1000
0100
0000
0010
0100
0001
1000
0000
,  // measure 106
1001
1001
0000
0010
1000
0010
0100
0001
,  // measure 107
0010
0100
2000
0000
3200
0000
0320
0000
,  // measure 108
0031
0000
0010
0001
0100
0001
0010
0002
,  // measure 109
0000
0100
0103
1000
0100
1000
0010
1000
,  // measure 110
0200
0000
0000
0310
0001
0100
0001
0010
,  // measure 111
1000
0100
0010
0000
0011
0000
0101
0000
,  // measure 112
1100
0000
0010
1000
0010
1000
0001
0100
,  // measure 113
0001
0100
1000
0010
1000
0010
0100
0001
,  // measure 114
0100
0000
0010
0001
0100
0010
1000
0001
,  // measure 115
0100
0110
0000
0010
1000
1001
0001
0010
,  // measure 116
0001
0101
0000
0100
0010
1000
0001
0100
,  // measure 117
0010
1010
0000
1000
0001
0100
0010
0000
,  // measure 118
1010
0000
1000
0100
0010
0001
0100
0010
,  // measure 119
1000
0001
0020
0000
0031
1000
0200
0000
,  // measure 120
0310
0100
0220
0000
0000
0000
0000
0000
,  // measure 121
0000
0000
0000
0000
,  // measure 122
0000
0000
0000
0000
,  // measure 123
0000
0330
0000
0000
;

//---------------dance-single - ----------------
#NOTEDATA:;
#CHARTNAME:;
#STEPSTYPE:dance-single;
#DESCRIPTION:;
#CHARTSTYLE:;
#DIFFICULTY:Medium;
#METER:10;
#RADARVALUES:0.345429,0.421973,0.222542,0.175466,0.017119,565.000000,513.000000,52.000000,41.000000,0.000000,0.000000,0.000000,0.000000,0.000000,0.345429,0.421973,0.222542,0.175466,0.017119,565.000000,513.000000,52.000000,41.000000,0.000000,0.000000,0.000000,0.000000,0.000000;
#CREDIT:;
#NOTES:
0000
0000
0000
0000
,
0000
0000
0000
0000
,
0000
0000
0000
0000
,
0000
0000
0000
0000
,
0000
0000
0000
0000
,
0000
0000
0000
0000
,
0000
0000
0000
0000
,
0000
0000
0000
0000
,
0000
2000
0000
0001
0000
0000
0000
3001
,
0000
0200
0000
0010
0000
0000
0000
0310
,
0000
0020
0000
0100
0000
0000
0000
0130
,
0000
0002
0000
1000
0000
0000
0000
1003
,
0000
0001
0000
0001
0000
0100
0000
0100
,
0000
0010
0000
0010
0000
1000
0010
1000
,
0010
0100
0000
0100
0000
1000
0000
1000
,
0000
0001
0000
0001
0000
1000
0001
1000
,
0001
0010
0000
0010
0000
0001
0000
0001
,
0000
0100
0000
0100
0000
1000
0100
1000
,
0100
0010
0000
0010
0000
0001
0000
0001
,
0000
0010
0000
0010
0000
0001
0010
0100
,
0010
0001
0000
0001
0000
1000
0000
1000
,
0000
0010
0000
0010
0000
0100
0010
0100
,
0010
1000
0000
1000
0000
0001
0000
0001
,
0000
0010
0000
0010
0000
1000
0010
0001
,
0010
2000
0000
3020
0000
0230
0000
0302
,
0000
2003
0000
3001
1000
0000
0000
1100
,
0000
1000
0000
1000
0000
0010
0000
0010
,
0000
0200
0000
0310
0200
0000
0300
0000
,
0000
0010
0000
0010
0000
1000
0000
1000
,
0001
1000
0100
0001
0100
1000
0000
1100
,
0000
1000
0000
1000
0000
0010
0000
0010
,
0000
0001
0010
0001
0010
0100
0000
1001
,
0000
1000
0000
0010
1000
0010
0000
0100
,
0001
0000
0100
0001
0100
0001
0000
1001
,
0000
1010
0000
1100
0000
0101
0000
0011
,
0000
0210
0000
1000
0000
0301
0000
0110
,
0000
0010
0000
0100
0010
0100
0000
1000
,
0010
0000
1000
0010
0100
0001
1000
0001
,
0000
0000
0001
0100
0001
0010
0100
1000
,
0010
1000
0000
1100
0000
0101
0000
0011
,
0000
0010
0001
0010
0000
0001
0100
0001
,
0000
0100
1000
0100
0000
1000
0010
1000
,
0000
0010
0100
1000
0010
0001
0010
0100
,
0010
0000
0010
0100
0010
0000
1000
0001
,
1000
0001
0000
0010
1000
0010
0000
0001
,
1000
0000
1000
0100
0010
0001
0000
0101
,
0000
0100
0010
1000
0010
0100
0001
1000
,
0100
0020
0000
0031
0000
0200
0000
0310
,
0000
1001
0000
1000
0010
0001
0000
1001
,
0000
0011
0000
0001
0010
1000
0000
1100
,
0000
1010
0000
1000
0100
0001
0000
0101
,
0000
0011
0000
0020
0000
0100
0000
0130
,
0000
1000
0000
1000
0000
0001
0000
0001
,
0000
0100
0000
0100
0000
0010
0100
0010
,
0100
0001
0000
0001
0000
0010
0000
0010
,
0000
1000
0000
1000
0000
0100
0010
0100
,
0010
0001
0000
0001
0000
1000
0000
1000
,
0000
0010
0000
0010
0000
0100
0001
0100
,
0001
1000
0000
1000
0000
0010
0000
0010
,
0000
0100
0000
0100
0000
0001
0010
0001
,
0010
0100
0000
1100
0000
1000
0000
1001
,
0000
0002
0000
1003
0002
0000
0000
1003
,
0000
1000
0010
1000
0000
0010
0001
0010
,
0000
0001
0100
0001
0000
0100
1000
0100
,
0000
1100
0000
1010
0000
1100
0000
1010
,
0000
1000
0010
0100
0001
0000
0000
0101
,
0000
0100
0000
0100
0000
0010
0000
0010
,
0000
1000
0001
1000
0001
2000
0000
3001
,
0000
0010
0000
0010
0100
0001
0000
1000
,
0001
0000
0001
0100
0010
1000
0100
0010
,
0001
0000
0010
0001
0100
0010
1000
0100
,
0010
0001
0000
0101
0000
1100
0000
1010
,
0000
1000
0000
0001
1000
0100
0010
0001
,
0000
0010
0000
1000
0010
0001
0010
0100
,
0000
0010
0000
0001
0100
0001
0010
0001
,
0100
0010
0000
1010
0000
1100
0000
1001
,
0000
1000
0000
1000
0000
0001
0000
0001
,
0000
0100
0000
0100
0000
0020
0000
0130
,
0000
1000
0000
0001
1000
0001
0000
0100
,
0020
0000
0130
0010
0200
0000
0310
1000
,
0001
0200
0000
0000
0000
0000
0000
0300
,
0000
2000
0000
0000
0000
0000
0000
3000
,
0000
0020
0000
0000
0000
0000
0000
0030
,
0000
0002
0000
1003
0000
0010
0100
0010
,
0100
0020
0000
0000
0000
0000
0000
0030
,
0000
0002
0000
0000
0000
0000
0000
0003
,
0000
0100
0000
0010
1000
0001
0000
0010
,
0001
1000
0000
0100
0010
0100
0010
0100
,
0000
0110
0000
0000
0000
1001
0000
0000
,
0000
0110
0000
0000
0000
1001
0000
0000
,
0000
1010
0000
0000
0000
1100
0000
0000
,
0000
0101
0000
0000
0000
0011
0000
0000
,
0000
0010
1000
0001
0100
0010
0000
0100
,
0010
1000
0001
0100
0000
0220
0000
0330
,
0000
0010
0000
0010
0000
0100
0000
0100
,
0000
1000
0000
1000
0002
0000
1003
0000
,
0000
1000
0000
1000
0010
1000
0000
0010
,
0001
0010
0100
1000
0000
1010
0000
1100
,
0000
0202
0000
0000
0000
0000
0000
0000
,
0000
0000
0000
0000
,
0000
0000
0000
0000
,
0000
0000
0000
0000
,
0303
0000
0000
0000
0001
0000
0000
0001
0000
0000
0000
0010
0000
0000
0000
0010
,
0000
0000
0000
0100
0000
0000
0000
0100
0000
0000
0000
1000
0000
0000
0000
1000
,
0000
0001
0000
0000
1000
0000
0000
0000
0000
0000
0000
0000
0000
0000
0000
0000
0001
0000
0000
0000
0000
0000
0000
0000
0010
0000
0000
0000
0000
0000
0000
0000
,
1000
0010
0000
0010
0100
0001
1000
0000
,
1001
0000
0000
0001
1000
0000
0100
0001
,
0010
0002
0203
0320
,
1030
0000
0010
0100
,
0001
1000
0000
1000
0100
0010
0001
0000
,
1001
0000
0000
1000
0010
0000
0001
0010
,
1000
1010
1100
0202
,
0303
0010
0010
0100
,
0100
0000
1000
0000
1000
0000
0001
1000
,
0001
0000
0000
0010
1000
0010
1000
0010
,
0100
0010
0000
0010
0100
0010
0000
0010
,
0001
0010
0000
0000
0001
0000
0001
0000
,
0100
0010
0100
0000
1000
0000
1000
0000
,
0010
1000
0010
0000
0100
0000
0100
0000
,
0001
0000
2000
0000
3010
0100
0002
0000
,
1003
0010
0220
0000
0000
0000
0000
0000
,
0000
0000
0000
0000
,
0000
0000
0000
0000
,
0000
0330
0000
0000
;

//---------------dance-single - ----------------
#NOTEDATA:;
#CHARTNAME:;
#STEPSTYPE:dance-single;
#DESCRIPTION:;
#CHARTSTYLE:;
#DIFFICULTY:Easy;
#METER:6;
#RADARVALUES:0.160181,0.342853,0.145508,0.145508,0.000000,262.000000,228.000000,34.000000,34.000000,0.000000,0.000000,0.000000,0.000000,0.000000,0.160181,0.342853,0.145508,0.145508,0.000000,262.000000,228.000000,34.000000,34.000000,0.000000,0.000000,0.000000,0.000000,0.000000;
#CREDIT:;
#NOTES:
0000
0000
0000
0000
,
0000
0000
0000
0000
,
0000
0000
0000
0000
,
0000
0000
0000
0000
,
0000
0000
0000
0000
,
0000
0000
0000
0000
,
0000
0000
0000
0000
,
0000
0000
0000
0000
,
0000
1000
0000
0000
0000
0000
0000
0000
,
0000
0001
0000
0000
0000
0000
0000
0000
,
0000
0100
0000
0000
0000
0000
0000
0000
,
0000
0010
0000
0000
0000
0000
0000
0000
,
0000
2000
0000
0000
0000
0000
0000
3000
,
0000
0002
0000
0000
0000
0000
0000
0003
,
0000
0020
0000
0000
0000
0000
0000
0030
,
0000
0200
0000
0000
0000
0000
0000
0300
,
0000
1000
0000
0000
0000
1000
0000
0000
,
0000
0001
0000
0000
0000
0002
0000
0000
,
0003
0010
0000
0000
0000
0010
0000
0000
,
0000
0100
0000
0000
0000
0200
0000
0000
,
0300
0010
0000
0000
0000
0010
0000
0000
,
0000
0001
0000
0000
0000
0002
0000
0000
,
0003
0100
0000
0000
0000
0100
0000
0000
,
0000
1000
0000
0000
0000
2000
0000
0000
,
3000
0010
0000
0000
0000
0110
0000
0000
,
0000
0100
0000
0000
0000
0110
0000
0000
,
0000
0001
0000
0000
0000
1001
0000
0000
,
0000
1000
0000
0000
0000
1001
0000
0000
,
0000
0010
0000
0000
0000
0011
0000
0000
,
0000
1000
0000
0000
0000
1010
0000
0000
,
0000
1000
0000
0000
0000
1100
0000
0000
,
0000
0100
0000
0000
0000
0101
0000
0000
,
0000
0001
0000
0000
0000
0001
0000
0000
,
0000
1000
0000
0000
0000
1000
0000
0000
,
0000
0010
0000
0000
0000
0010
0000
0000
,
0000
0100
0000
0010
0000
0100
0000
0000
,
0000
0001
0000
0000
0000
0001
0000
0000
,
0000
1000
0000
0000
0000
1000
0000
0000
,
0000
0100
0000
0000
0000
0100
0000
0000
,
0000
0010
0000
0100
0000
0010
0000
0000
,
0000
1000
0000
0000
0000
0001
0000
0000
,
0000
0100
0000
0000
0000
0010
0000
0100
,
0000
0010
0000
0000
0000
0001
0000
0000
,
0000
0200
0000
0000
0000
0000
0000
0000
,
0300
1000
0000
0000
0000
1000
0000
0000
,
0000
0001
0000
0000
0000
0001
0000
0000
,
0000
0010
0000
0100
0000
0010
0000
1000
,
0000
0001
0000
1001
0000
1000
0000
1001
,
0000
0100
0000
0000
0000
0010
0000
0000
,
0000
1000
0000
0000
0000
0100
0000
0000
,
0000
0010
0000
0000
0000
0001
0000
0000
,
0000
0100
0000
0000
0000
0010
0000
0000
,
0000
1000
0000
0000
0000
0010
0000
0000
,
0000
0001
0000
0000
0000
0200
0000
0000
,
0300
0010
0000
0000
0000
0010
0000
0000
,
0000
1000
0000
0000
0000
2000
0000
0000
,
3000
0100
0000
0000
0000
0100
0000
0000
,
0000
0001
0000
0000
0000
0002
0000
0000
,
0003
1000
0000
0000
0000
1000
0000
0000
,
0000
0010
0000
0000
0000
0020
0000
0000
,
0030
0100
0000
0000
0000
0100
0000
0000
,
0000
2000
0000
0000
0000
0000
0000
3000
,
0000
0010
0000
0000
0000
0010
0000
0000
,
0000
0002
0000
0000
0000
0000
0000
0003
,
0000
0110
0000
0110
0000
0110
0000
0110
,
0000
0100
0000
0010
0000
0100
0000
0001
,
0000
0010
0000
0000
0000
0010
0000
0000
,
0000
1000
0000
0001
0000
1000
0000
1001
,
0000
0010
0000
0000
0000
0010
0000
0000
,
0000
0100
0000
0000
0000
0100
0000
0000
,
0000
1000
0000
0001
0000
1000
0000
0001
,
0000
1010
0000
0101
0000
0110
0000
0000
,
0000
0010
0000
0000
0000
0010
0000
0000
,
0000
0100
0000
0000
0000
0100
0000
0000
,
0000
1000
0000
0001
0000
1000
0000
0001
,
0000
0011
0000
1100
0000
1001
0000
0000
,
0000
2000
0000
0000
3000
0002
0000
0000
,
0003
0200
0000
0000
0300
0020
0000
0000
,
0030
1000
0000
1000
0000
0001
0000
0002
,
0003
0000
0000
0000
1001
0000
0000
1000
,
0000
0020
0000
0000
0000
0000
0000
0030
,
0000
0002
0000
0000
0000
0000
0000
0003
,
0000
0200
0000
0000
0000
0000
0000
0300
,
0000
2000
0000
0000
0000
0000
0000
0000
,
3000
0020
0000
0000
0000
0000
0000
0030
,
0000
0002
0000
0000
0000
0000
0000
0003
,
0000
2000
0000
3000
0000
0010
0000
0100
,
0000
0001
0000
0010
0000
1000
0000
1001
,
0000
0100
0000
0000
0000
0110
0000
0000
,
0000
0010
0000
0000
0000
0110
0000
0000
,
0000
1000
0000
0001
0000
1000
0000
0000
,
0000
0001
0000
1000
0000
0001
0000
0000
,
0000
0010
0000
0100
0000
0010
0000
0000
,
0000
0100
0000
0010
0000
0100
0000
0000
,
0000
0010
0000
0000
0000
0010
0000
0000
,
0000
0100
0000
0000
0000
0100
0000
0000
,
0000
1000
0000
0000
0000
1000
0000
0000
,
0000
0001
0000
0000
0000
0100
0000
0010
,
0000
2002
0000
0000
0000
0000
0000
0000
,
0000
0000
0000
0000
,
0000
0000
0000
0000
,
0000
0000
0000
0000
,
3003
0000
0000
0000
,
0000
0000
0000
0000
,
0000
0000
0010
0000
,
0010
0000
0100
0000
,
0100
0000
1000
0000
,
1000
1001
1001
1001
,
0000
0001
0000
0001
,
0000
0100
0000
0100
,
0000
0010
0000
0010
,
0000
1010
1010
1010
,
0000
1000
0000
1000
,
0000
0001
0000
0001
,
0000
0010
0000
0010
,
0000
0200
0300
0020
,
0030
1000
0000
1000
,
0000
0001
0000
0001
,
0000
0010
0000
0010
,
0000
0200
0300
1001
,
0000
0220
0000
0000
,
0000
0000
0000
0000
,
0000
0000
0000
0000
,
0000
0330
0000
0000
;
