#TITLE:Open;
#SUBTITLE:;
#ARTIST:DUB PISTOLS;
#TITLETRANSLIT:;
#SUBTITLETRANSLIT:;
#ARTISTTRANSLIT:;
#GENRE:;
#CREDIT:;
#BANNER:Open.png;
#BACKGROUND:Open-bg.png;
#LYRICSPATH:;
#CDTITLE:;
#MUSIC:Open.ogg;
#OFFSET:0.000000;
#SAMPLESTART:19.816999;
#SAMPLELENGTH:15.000000;
#SELECTABLE:YES;
#BPMS:0.000000=109.000000
;
#STOPS:
;
#BGCHANGES:;
#KEYSOUNDS:;
#ATTACKS:;

//---------------dance-single - ----------------
#NOTES:
     dance-single:
     :
     Beginner:
     2:
     0.099364,0.134141,0.000000,0.000000,0.000000,70.000000,70.000000,0.000000,0.000000,0.000000,0.000000,0.099364,0.134141,0.000000,0.000000,0.000000,70.000000,70.000000,0.000000,0.000000,0.000000,0.000000:
0000
0000
0000
0000
,
0000
0000
0000
0000
,
0000
0000
0000
0000
,
0000
0000
0000
0000
,
0000
0000
0000
0000
,
1000
0000
0000
0000
,
0001
0000
0000
0000
,
1000
0000
1000
0000
,
0001
0000
0000
0000
,
0010
0000
0000
0000
,
0100
0000
0000
0000
,
0010
0000
0010
0000
,
0100
0000
0000
0000
,
0001
0000
0000
0000
,
0010
0000
0000
0000
,
0001
0000
0001
0000
,
0100
0000
0000
0000
,
1000
0000
0000
0000
,
0010
0000
0000
0000
,
1000
0000
1000
0000
,
0100
0000
0000
0000
,
0001
0001
0001
0000
,
0010
0000
0000
0000
,
1000
0000
1000
0000
,
0100
0000
0000
0000
,
1000
1000
1000
0000
,
0010
0000
0000
0000
,
0001
0000
0000
0000
,
1000
0000
0000
0000
,
0001
0000
0001
0000
,
1000
0000
1000
0000
,
0001
0000
1000
0000
,
0001
0001
0001
0000
,
1000
0000
1000
0000
,
0001
0000
0001
0000
,
1000
0000
0001
0000
,
1000
1000
1000
0000
,
0010
0000
0010
0000
,
0100
0000
0100
0000
,
0010
0000
0100
0000
,
0010
0010
0010
0000
,
0100
0000
0100
0000
,
0010
0000
0010
0000
,
0100
0000
0010
0000
,
0100
0100
0100
0000
,
0100
0000
0000
0000
;

//---------------dance-single - ----------------
#NOTES:
     dance-single:
     :
     Easy:
     4:
     0.176016,0.201212,0.000000,0.000000,0.000000,124.000000,124.000000,0.000000,0.000000,0.000000,0.000000,0.176016,0.201212,0.000000,0.000000,0.000000,124.000000,124.000000,0.000000,0.000000,0.000000,0.000000:
0000
0000
0000
0000
,
0000
0000
0000
0000
,
0000
0000
0000
0000
,
0000
0000
0000
0000
,
0000
0000
0000
0000
,
0001
0001
0100
0000
,
1000
0100
1000
0000
,
0001
0001
0100
0000
,
1000
0000
1000
0000
,
0100
0000
1000
0000
,
0010
0000
0001
0000
,
0100
0000
0001
0000
,
0010
0000
1000
0000
,
1000
0000
1000
0000
,
0100
0010
0100
0000
,
1000
0010
0001
0100
,
0010
0010
0100
0000
,
0001
0000
0001
0000
,
0100
0010
0100
0000
,
0001
0010
1000
0100
,
0010
0010
0100
0000
,
1000
0000
1000
0000
,
0100
0010
0100
0000
,
0001
0100
1000
0010
,
0100
0100
0010
0000
,
0001
0000
0001
0000
,
0100
0010
0100
0000
,
1000
0100
0001
0010
,
0001
0000
0000
0000
,
1000
1000
0001
0001
,
1000
0001
1000
0001
,
1000
1000
0001
0001
,
1000
1000
1000
0000
,
0001
0001
1000
1000
,
0001
1000
0001
1000
,
0001
0001
1000
1000
,
0001
0001
0001
0000
,
0100
0100
0010
0010
,
0100
0010
0100
0010
,
0100
0100
0010
0000
,
0100
0100
0100
0000
,
0010
0010
0100
0100
,
0010
0100
0010
0100
,
0010
0010
0100
0000
,
0010
0010
0010
0000
,
0010
0000
0000
0000
;

//---------------dance-single - ----------------
#NOTES:
     dance-single:
     :
     Medium:
     6:
     0.235635,0.246609,0.039746,0.059618,0.000000,166.000000,162.000000,4.000000,6.000000,0.000000,0.000000,0.235635,0.246609,0.039746,0.059618,0.000000,166.000000,162.000000,4.000000,6.000000,0.000000,0.000000:
0000
0000
0000
0000
,
0000
0000
0000
0000
,
0000
0000
0000
0000
,
0000
0000
0000
0000
,
0000
0000
0000
0000
,
0010
0010
0000
0000
0100
0100
0000
0000
,
0001
0001
0000
0000
1000
1000
0000
0000
,
0001
0001
0000
0000
0100
0100
0000
0000
,
0010
0001
1000
0010
,
1000
0100
0000
0000
0010
0001
0000
0000
,
1000
0010
0000
0000
0100
0001
0000
0000
,
0010
0100
0000
0000
0001
1000
0000
0000
,
0100
0010
0000
0000
1000
0001
0000
0000
,
0100
0010
0010
0000
,
0100
1000
0001
0000
0010
0000
0000
0000
,
1000
0100
1000
0000
0001
0100
0001
0000
,
0010
1000
0001
0000
,
0001
1000
0100
0000
,
0001
0010
1000
0000
0100
0000
0000
0000
,
0001
0010
0001
0000
1000
0010
1000
0000
,
0010
0100
1001
0000
,
0001
1000
0011
0000
,
0010
0001
0100
0000
0100
0000
0000
0000
,
0100
1000
0010
0100
,
0001
0100
0001
0000
,
0001
0010
1001
0000
,
1000
0100
0001
0000
1000
0000
0000
0000
,
0010
1000
0100
0010
,
2002
0000
0000
3003
,
0010
0010
0001
0000
0100
0000
0001
0000
,
0010
0010
1000
0000
0100
0000
1000
0000
,
0001
0002
0000
0000
1000
2000
3003
0000
,
0010
0100
0001
0010
,
0100
0100
1000
0000
0010
0000
0100
0000
,
0001
0001
1000
0000
0010
0000
0100
0000
,
0001
0002
0000
0000
0010
0020
0033
0000
,
0100
1000
0010
0100
,
0100
0001
0000
0000
1000
0010
0000
0000
,
1000
0100
0000
0000
0010
0001
0000
0000
,
0100
0001
0000
0000
1000
0010
0000
0000
,
0010
1000
0100
0001
,
0010
0010
0001
0000
0100
0000
0010
0000
,
0001
0001
0010
0000
0100
0000
0010
0000
,
0100
0010
0000
0000
0001
0100
0000
0000
,
1000
0001
0100
0010
,
0001
1000
0000
0000
0000
0000
0000
0000
;

//---------------dance-single - ----------------
#NOTES:
     dance-single:
     :
     Hard:
     12:
     0.515274,0.605313,0.834658,0.158983,0.000000,363.000000,279.000000,84.000000,16.000000,0.000000,0.000000,0.515274,0.605313,0.834658,0.158983,0.000000,363.000000,279.000000,84.000000,16.000000,0.000000,0.000000:
0000
0000
0000
0000
,
0000
0000
0000
0000
,
0000
0000
0000
0000
,
0000
0000
0000
0000
,
0000
0000
0000
0000
,
1100
2100
3001
0000
0011
0012
0103
0000
,
1010
1010
0001
0010
0100
0010
0110
0000
,
1000
1000
0101
0000
0010
0010
1100
0000
,
0001
0001
0110
0001
0010
0100
1001
0000
,
0011
0012
1003
0000
1100
2100
3010
0000
,
0101
0101
1000
0100
0010
0100
0110
0000
,
0001
0001
1010
0000
0100
0100
0011
0000
,
1000
1000
0110
1000
0100
0010
1001
0000
,
0010
0001
0100
1000
0100
0001
0010
0100
,
0010
0001
1000
0001
0100
0010
0100
0001
,
0010
0100
0010
1000
0010
0100
0010
0001
,
1000
0010
0100
0001
1100
1001
0101
0000
,
1000
0100
0001
0100
0010
0100
0010
0100
,
1000
0100
0001
0100
0010
0100
0010
0100
,
1000
0010
0100
0001
0010
0100
1000
0010
,
0100
0100
0010
0100
1001
0110
1001
0000
,
1010
0101
1100
0010
,
0100
1000
0010
0001
0010
1000
0100
0000
,
0010
0020
0001
0032
0100
0203
0010
0310
,
1000
0100
0010
0100
1010
0110
0101
0000
,
1001
0110
1001
0100
,
0001
0010
1000
0010
0001
0100
1000
0000
,
0100
0200
0001
0302
0010
0023
0100
0130
,
2002
0000
3003
0000
0011
1010
0110
0000
,
0101
0102
1003
0000
1010
2010
3100
0000
,
0011
0011
1000
0010
0100
0010
0110
0000
,
0001
0001
1100
0000
0010
0010
0101
0000
,
1000
1000
0110
1000
0010
0100
1001
0000
,
1010
2010
3001
0000
0101
0102
0013
0000
,
1100
1100
0001
0100
0010
0100
0110
0000
,
1000
1000
0011
0000
0100
0100
1010
0000
,
0001
0001
0110
0001
0100
0010
1001
0000
,
0010
1000
0010
1000
0001
0100
0001
0100
,
0001
0010
0001
0010
0100
1000
0100
1000
,
0010
1000
0100
0010
0001
0100
0010
1000
,
0100
0010
0001
0100
0010
0100
1001
0000
,
1010
1010
0100
0001
0011
0011
0100
1000
,
1001
1001
0100
0010
0101
1001
1100
0000
,
0110
0110
1000
0100
1010
1010
0100
0001
,
0011
0011
1000
0010
0110
1001
0110
0100
,
1001
1001
0000
0000
0000
0000
0000
0000
;

//---------------dance-double - ----------------
#NOTES:
     dance-double:
     :
     Easy:
     4:
     0.151885,0.178855,0.009936,0.000000,0.000000,107.000000,106.000000,1.000000,0.000000,0.000000,0.000000,0.151885,0.178855,0.009936,0.000000,0.000000,107.000000,106.000000,1.000000,0.000000,0.000000,0.000000:
00000000
00000000
00000000
00000000
,
00000000
00000000
00000000
00000000
,
00000000
00000000
00000000
00000000
,
00000000
00000000
00000000
00000000
,
00000000
00000000
00000000
00000000
,
00000001
00000000
00001000
00000000
,
00000010
00000000
00000100
00001000
,
00010000
00000000
01000000
00000000
,
00100000
00000000
00010000
01000000
,
00001000
00000000
00010000
00000000
,
00000010
00000000
00001000
00000001
,
00000100
00000000
00001000
00000000
,
00010000
00000000
00001000
00010000
,
00001000
00001000
01000000
00000000
,
00100000
10000000
01000000
00000000
,
00100000
00000000
01000000
00000000
,
00100000
00010000
00001000
00000000
,
00000100
00000100
00000001
00000000
,
00000010
00000001
00001000
00000000
,
00000100
00000000
00010000
00000000
,
00001000
00100000
00010000
00000000
,
01000000
01000000
00100000
00000000
,
10000000
00010000
01000000
00000000
,
00001000
00000000
00010000
00000000
,
00000010
00001000
00000100
00000000
,
00000010
00000010
00000100
00000000
,
00001000
00000010
00000100
00000000
,
00001000
00000000
00000000
00000000
,
00010000
00000000
00000000
00000000
,
00100000
00000000
10000000
00000000
,
00010000
00000000
00100000
00010000
,
00001000
00000000
00000010
00000000
,
00000001
00000000
00001000
00000001
,
00001000
00000000
00000100
00000000
,
00010000
00000000
00001000
00010000
,
01000000
00000000
00100000
00000000
,
10000000
00000000
00010000
01000000
,
00100000
00100000
01000000
00000000
,
00010000
00010000
00001000
00000000
,
00000010
00000010
00000001
00000000
,
00000100
00000100
00001000
00000000
,
00010000
00010000
01000000
00000000
,
10000000
10000000
00100000
00000000
,
00010000
00010000
00001000
00000000
,
00001000
00010000
00001000
00000000
,
00011000
00000000
00000000
00000000
;

//---------------dance-double - ----------------
#NOTES:
     dance-double:
     :
     Medium:
     6:
     0.234215,0.246609,0.019873,0.059618,0.000000,165.000000,163.000000,2.000000,6.000000,0.000000,0.000000,0.234215,0.246609,0.019873,0.059618,0.000000,165.000000,163.000000,2.000000,6.000000,0.000000,0.000000:
00000000
00000000
00000000
00000000
,
00000000
00000000
00000000
00000000
,
00000000
00000000
00000000
00000000
,
00000000
00000000
00000000
00000000
,
00000000
00000000
00000000
00000000
,
00000010
00000010
00000100
00000000
00000001
00000000
00000100
00000000
,
00001000
00010000
00100000
10000000
,
00010000
00010000
01000000
00000000
10000000
10000000
01000000
00000000
,
00010000
00001000
00000100
00000001
,
00000010
00000010
00000001
00000000
00001000
00000000
00000100
00000000
,
00010000
00001000
00100000
00010000
,
10000000
20000000
00000000
00000000
00010000
00020000
30030000
00000000
,
00100000
00010000
01000000
00010000
,
00001000
00010000
00001000
00000000
,
00000100
00000010
00000001
00000000
00000100
00000000
00000000
00000000
,
00000001
00000100
00001000
01000000
,
00100000
01000000
00010000
00000000
10000000
00000000
00000000
00000000
,
00010000
10000000
01000000
00000000
,
00010000
00001000
00010000
00000000
00001000
00000000
00000000
00000000
,
00000010
00001000
00000100
00010000
,
00001000
00000100
00000001
00000000
00001001
00000000
00000000
00000000
,
00000010
00000001
00001000
00000000
,
00000010
00010000
00001000
00000000
01000000
00000000
00000000
00000000
,
00010000
00100000
01000000
10000000
,
00010000
01000000
00010000
00000000
00100000
00000000
00000000
00000000
,
00010000
00001000
00010000
00000000
,
00000010
00000100
00001000
00000000
00000001
00000000
00000000
00000000
,
00000010
00000001
00000100
00001000
,
00022000
00000000
00000000
00033000
,
00100000
00100000
01000000
00000000
10000000
00000000
01000000
00000000
,
00010000
00001000
00000010
00000001
,
00001000
00001000
00000100
00000000
00000001
00000001
00000100
00000000
,
00001000
00010000
01000000
10000000
,
00100000
00100000
10000000
00000000
00010000
00000000
01000000
00000000
,
00001000
00010000
00000010
00001000
,
00000001
00000002
00000000
00000000
00001000
00002000
00003003
00000000
,
00000010
00001000
00000001
00001000
,
00000100
00001000
00000000
00000000
00010000
00001000
00000000
00000000
,
00100000
00010000
00000000
00000000
10000000
00100000
00000000
00000000
,
01000000
00010000
00001000
00000100
,
00000010
00000001
00000100
00000001
,
00000010
00001000
00000000
00000000
00000100
00010000
00000000
00000000
,
00001000
00100000
00000000
00000000
01000000
10000000
00000000
00000000
,
00100000
10000000
01000000
00010000
,
00001000
00000100
00000001
00000010
,
00000100
00000100
00000000
00000000
00000000
00000000
00000000
00000000
;

//---------------dance-double - ----------------
#NOTES:
     dance-double:
     :
     Hard:
     10:
     0.435782,0.493218,0.367647,0.019873,0.000000,307.000000,270.000000,37.000000,2.000000,0.000000,0.000000,0.435782,0.493218,0.367647,0.019873,0.000000,307.000000,270.000000,37.000000,2.000000,0.000000,0.000000:
00000000
00000000
00000000
00000000
,
00000000
00000000
00000000
00000000
,
00000000
00000000
00000000
00000000
,
00000000
00000000
00000000
00000000
,
00000000
00000000
00000000
00000000
,
00100000
00010000
10000000
00000000
01000000
00010000
00001000
00000000
,
00000100
00000001
00000010
00001000
00010000
00100000
10000000
00000000
,
00100000
00010000
00001000
00000000
00100000
01000000
00010000
00000000
,
00001000
00000010
00000001
00001000
00000010
00000100
00001000
00000000
,
00010000
01000000
00100000
00000000
00001000
00010000
00100000
00000000
,
00010000
00001000
00000100
00001000
00010000
00001000
00000010
00000000
,
00000001
00000100
00010000
00000000
01000000
00001000
00010000
00000000
,
00000100
00001000
00010000
00100000
01000000
00010000
00100000
00000000
,
01000000
10000000
01000000
10000000
00100000
10000000
00100000
10000000
,
01000000
00010000
00001000
00000010
00000001
00000100
00000010
00000100
,
00000001
00000100
00001000
00000100
00000001
00000100
00001000
00000100
,
00000010
00010000
00001000
00100000
00010000
01000000
00100000
00000000
,
00010000
00100000
00010000
00100000
00010000
01000000
00010000
01000000
,
00100000
00010000
00001000
00000010
00000001
00001000
00000010
00000100
,
00000010
00001000
00000100
00010000
00000010
00001000
00000100
00010000
,
01000000
00010000
00001000
00010000
00100000
10000000
01000000
00000000
,
01010000
10100000
00110000
01000000
,
00100000
00010000
00001000
00000010
00010000
00001000
00000100
00000000
,
00000001
00000001
00000010
00000010
00000100
00000100
00001000
00001000
,
00010000
00010000
01000000
01000000
00100000
10000000
01000000
00000000
,
10010000
01100000
10010000
00100000
,
10000000
00100000
01000000
00001000
00010000
00000100
00001000
00000000
,
00000001
00000001
00000100
00000100
00001000
00010000
00001000
00000010
,
00002002
00000000
00003003
00000000
00000100
00000010
00000110
00000000
,
00000100
00001000
00000001
00000000
00000010
00001000
00010000
00000000
,
00100000
10000000
01000000
00010000
00001000
00000100
00000001
00000000
,
00000100
00001000
00010000
00000000
00000100
00000010
00001000
00000000
,
00010000
01000000
10000000
00010000
01000000
00100000
00010000
00000000
,
00001000
00000010
00000100
00000000
00010000
00001000
00000100
00000000
,
00001000
00010000
00100000
00010000
00001000
00010000
01000000
00000000
,
10000000
00100000
00001000
00000000
00000010
00010000
00001000
00000000
,
00100000
00010000
00001000
00000100
00000010
00001000
00000100
00000000
,
00000011
00000011
00000100
00000000
00011000
00011000
00100000
00000000
,
10010000
10010000
01000000
00100000
00001000
00010000
00110000
00000000
,
10100000
10100000
01000000
00000000
00011000
00011000
00000010
00000000
,
00001001
00001001
00000100
00000010
00010000
00001000
00001010
00000000
,
00010100
00010100
00001000
00000000
00101000
00101000
00010000
00000000
,
11000000
11000000
00100000
01000000
10000000
01000000
00110000
00000000
,
01001000
01001000
00010000
00000000
00010010
00010010
00001000
00000000
,
00000101
00000101
00000010
00000100
00000001
00000100
00001000
00010000
,
11000000
11000000
00000000
00000000
00000000
00000000
00000000
00000000
;

//---------------dance-single - ----------------
#NOTES:
     dance-single:
     :
     Challenge:
     15:
     0.777879,1.031275,1.997218,0.546502,0.397456,548.000000,347.000000,201.000000,55.000000,108.000000,0.000000,0.777879,1.031275,1.997218,0.546502,0.397456,548.000000,347.000000,201.000000,55.000000,108.000000,0.000000:
// measure 0
0000
0000
0000
0000
,  // measure 1
0000
0000
0000
0000
,  // measure 2
0000
0000
0000
0000
,  // measure 3
0000
0000
0000
0000
,  // measure 4
0000
0000
0000
0000
0000
0000
0000
0000
0000
0000
0000
0000
1100
1100
1100
0000
,  // measure 5
1010
2020
3030
MMMM
0101
0202
0303
MMMM
,  // measure 6
1100
0000
1100
0000
0110
0000
0011
0011
0011
0000
0000
0000
MMMM
0000
0000
0000
,  // measure 7
0011
2020
3030
MMMM
1100
0202
0303
MMMM
,  // measure 8
1010
0000
0110
0000
0101
0000
1001
1001
1001
0000
1010
0000
1100
0000
MMMM
0000
,  // measure 9
0011
0022
0033
MMMM
1100
2200
3300
MMMM
,  // measure 10
1010
0000
0101
0000
1100
0000
0110
0110
0110
0000
0000
0000
MMMM
0000
0000
0000
,  // measure 11
0110
2002
3003
MMMM
1001
0220
0330
MMMM
,  // measure 12
1001
0000
0110
0000
1100
0000
1010
1010
1010
0000
0101
0110
0000
0000
MMMM
0000
,  // measure 13
0001
0010
0100
1000
0010
0000
MMMM
0000
1000
0100
1000
0200
0000
1300
0000
1000
,  // measure 14
0010
0000
0100
0001
1000
0000
0010
0100
0001
1000
0100
0000
0110
0000
MMMM
0000
,  // measure 15
0010
0000
0100
0001
1000
0000
0010
0100
0001
0000
1000
0100
0010
0001
0010
0000
,  // measure 16
0110
1001
0110
0000
1010
MMMM
0101
0000
,  // measure 17
0020
0130
0020
1030
0020
0130
0020
0031
,  // measure 18
2000
3010
2000
3100
2000
3001
2000
3010
,  // measure 19
0200
1300
0200
0310
0200
0301
0200
0310
,  // measure 20
0002
0103
0002
0013
1002
1003
0101
MMMM
,  // measure 21
0020
0000
0130
0001
0020
0000
0031
0100
0020
0000
1030
0100
0020
0000
0130
1000
,  // measure 22
0002
0000
0013
0100
0002
0000
0103
0010
0002
0000
1003
0100
0002
0010
1003
0010
,  // measure 23
0200
0000
0310
0001
0200
0000
1300
0010
0200
0000
0301
0010
0200
0000
1300
0010
,  // measure 24
2000
0000
3100
0000
2000
0010
3100
2000
0000
3001
0000
0000
MMMM
0000
0000
0101
,  // measure 25
0000
0000
1100
0000
0000
0100
0010
0001
0100
0010
1000
0000
1100
0000
0100
0001
,  // measure 26
MMMM
0010
0001
0100
0010
1000
0100
0010
1000
0000
0010
0000
0011
0000
0100
0010
,  // measure 27
2000
0000
3100
0000
2000
0000
3010
0000
2000
0000
3001
0010
0100
1000
0010
0100
,  // measure 28
2000
0000
3100
0000
1010
0000
0010
0100
0001
0000
0001
0010
0000
0000
MMMM
0000
,  // measure 29
0110
0000
0101
0000
1100
1100
1100
0000
1010
0000
0110
0000
0101
0101
0101
0000
,  // measure 30
1100
0000
0110
0000
0011
0011
0011
0000
0101
0000
1010
0000
MMMM
0000
0000
0000
,  // measure 31
1010
0000
1100
0000
1010
1010
1010
0000
0110
0000
1001
0000
0110
0110
0110
0000
,  // measure 32
1001
0000
0110
0000
1001
1001
1001
0000
0011
0000
1100
0011
0000
0000
MMMM
0000
,  // measure 33
0101
0220
0330
MMMM
1010
2002
3003
MMMM
,  // measure 34
0011
0000
0101
0000
1100
1100
1010
1010
1100
0000
0101
0000
MMMM
0000
0000
0000
,  // measure 35
0110
0000
1001
0000
0011
0011
0011
0000
1001
0000
1100
0000
1010
1010
1010
0000
,  // measure 36
0110
0000
0101
0000
1100
0000
1010
1010
1010
0000
0101
1100
0101
0110
1010
0000
,  // measure 37
0101
0101
1100
1100
1010
1010
1001
1001
,  // measure 38
0011
0011
0110
0110
1001
1001
MMMM
0000
,  // measure 39
1010
0101
1010
0000
1100
0000
0011
0000
1001
0110
1001
0000
0110
0000
MMMM
0000
,  // measure 40
0101
0000
1010
0000
1100
0000
0101
1010
0101
0000
1100
0011
0101
1001
1010
0000
,  // measure 41
0110
0000
0011
0000
1001
0000
1100
0000
1010
0000
0011
0000
0011
0110
1100
0110
,  // measure 42
0011
0000
0101
0000
1010
0000
0101
0101
1100
0000
1100
0000
MMMM
0000
0000
0000
,  // measure 43
1010
1010
1010
1010
0100
0000
0011
0000
1100
1100
1100
1100
0010
0000
1100
0000
,  // measure 44
0011
0011
0011
0011
1000
0000
0110
0000
0101
0101
0101
0101
0010
0000
1001
0000
,  // measure 45
0110
0110
0000
0000
0000
0000
0000
0000
;
