#TITLE:おどるポンポコリン;
#SUBTITLE:;
#ARTIST:CAPTAIN JACK;
#TITLETRANSLIT:ODORU PONPOKOLIN;
#SUBTITLETRANSLIT:;
#ARTISTTRANSLIT:;
#GENRE:;
#CREDIT:;
#BANNER:ODORU PONPOKOLIN.png;
#BACKGROUND:ODORU PONPOKOLIN-bg.png;
#LYRICSPATH:;
#CDTITLE:;
#MUSIC:ODORU PONPOKOLIN.ogg;
#OFFSET:0.000000;
#SAMPLESTART:69.278000;
#SAMPLELENGTH:15.000000;
#SELECTABLE:YES;
#DISPLAYBPM:142.000000;
#BPMS:0.000000=142.000000
,4.000000=142.022995
;
#STOPS:
;
#BGCHANGES:;
#KEYSOUNDS:;
#ATTACKS:;

//---------------dance-single - ----------------
#NOTES:
     dance-single:
     :
     Easy:
     3:
     0.096211,0.142859,0.000000,0.000000,0.000000,66.000000,66.000000,0.000000,0.000000,0.000000,0.000000,0.096211,0.142859,0.000000,0.000000,0.000000,66.000000,66.000000,0.000000,0.000000,0.000000,0.000000:
0000
0000
0000
0000
,
0000
0000
0000
0000
,
0000
0000
0000
0000
,
1000
0000
0000
0000
,
1000
0000
0000
0000
,
0001
0000
0000
0000
,
0001
0000
0000
0000
,
0010
0000
0010
0000
,
0010
0000
0010
0000
,
0001
0000
0000
0000
,
1000
0000
0000
0000
,
0100
0000
0000
0000
,
0010
0000
0000
0000
,
0001
0000
0000
0000
,
1000
0000
0000
0000
,
0100
0000
0000
0000
,
0010
0000
0000
0000
,
0001
0000
0000
0000
,
0001
0000
0000
0000
,
1000
0000
0000
0000
,
1000
0000
0000
0000
,
0100
0000
0000
0000
,
0010
0000
0000
0000
,
0001
0000
0000
0000
,
1000
0000
0000
0000
,
0001
0000
0000
0000
,
1000
0000
1000
0000
,
0001
0000
0000
0000
,
1000
0000
1000
0000
,
0001
0000
0000
0000
,
1000
0000
0000
0000
,
0001
0000
0000
0000
,
1000
0000
1000
0000
,
0010
0000
0000
0000
,
0100
0000
0100
0000
,
0010
0000
0000
0000
,
0100
0000
0100
0000
,
0010
0000
0000
0000
,
0100
0000
0000
0000
,
0010
0000
0000
0000
,
0010
0000
0000
0000
,
1000
0000
0000
0000
,
0001
0000
0001
0000
,
1000
0000
0000
0000
,
0001
0000
0001
0000
,
1000
0000
0000
0000
,
0001
0000
0000
0000
,
1000
0000
0000
0000
,
0001
0000
0001
0000
,
0010
0000
0000
0000
,
0100
0000
0100
0000
,
0010
0000
0000
0000
,
0100
0000
0100
0000
,
0010
0000
0000
0000
,
0001
0000
0000
0000
,
1000
0000
0000
0000
,
0100
0000
0000
0000
;

//---------------dance-single - ----------------
#NOTES:
     dance-single:
     :
     Medium:
     9:
     0.316330,0.342861,0.275513,0.000000,0.000000,217.000000,190.000000,27.000000,0.000000,0.000000,0.000000,0.316330,0.342861,0.275513,0.000000,0.000000,217.000000,190.000000,27.000000,0.000000,0.000000,0.000000:
0000
0000
0000
0000
,
0000
0000
0000
0000
,
0000
0000
0000
0000
,
1000
0100
0001
0100
,
0010
0100
0010
0100
,
0001
1000
0100
0000
,
0010
0001
0100
0010
,
1000
0100
0001
0010
,
1000
0100
0010
1001
,
0001
1000
0100
0001
,
1000
0010
0100
0000
,
0001
0001
1000
1000
,
0010
0100
0010
0000
,
1000
0100
0010
0001
,
1000
0010
0100
0000
,
0001
0001
1000
1000
,
0100
0010
0100
0000
,
1000
0001
0110
0000
,
0001
1000
0010
0100
,
0001
1000
0110
0000
,
1000
0100
0010
0001
,
1000
1000
0100
0100
,
0010
0010
0001
0001
,
1000
0010
0100
0001
,
0010
0000
0000
0000
,
0100
1001
0010
1001
,
0010
0100
0001
1000
,
0010
1001
0100
1001
,
0010
0100
1000
0001
,
0100
0010
1001
0000
,
0100
0100
0010
0010
,
1001
0000
0000
0000
,
0001
1000
0001
1000
,
0100
1001
0010
1001
,
0010
0100
0001
1000
,
0010
1001
0100
1001
,
0010
0100
1000
0001
,
0100
0010
1001
0000
,
0100
0100
0010
0010
,
1001
0000
0000
0000
,
0100
0000
0000
0000
,
0010
1001
0100
1001
,
0010
0001
1000
0100
,
0010
1001
0100
1001
,
0010
1000
0001
0100
,
0010
1001
0100
0000
,
1000
0100
0001
0100
,
1001
0100
0010
0001
,
1000
1000
0100
0010
,
0001
1001
1000
1001
,
0010
0100
1000
0010
,
1001
0100
0010
1001
,
0100
0100
0010
0010
,
1001
0100
0010
0000
,
1000
0100
0010
0001
,
1000
0001
0100
0010
,
1001
0000
0000
0000
;

//---------------dance-single - ----------------
#NOTES:
     dance-single:
     :
     Hard:
     12:
     0.520413,0.485719,0.061225,0.000000,0.163267,357.000000,351.000000,6.000000,0.000000,0.000000,0.000000,0.520413,0.485719,0.061225,0.000000,0.163267,357.000000,351.000000,6.000000,0.000000,0.000000,0.000000:
0000
0000
0000
0000
,
0000
0000
0000
0000
,
0000
0000
0000
0000
,
1000
0100
0001
0100
1000
0100
0001
0100
,
1000
0010
0000
0010
0100
0001
0010
0000
,
0100
1000
0010
0100
0001
0000
0000
1000
,
0000
1000
0100
0010
0001
0010
1000
0000
,
0010
0010
1000
1000
0100
0100
0001
0001
,
0010
0010
1000
1000
0100
0000
0110
0000
,
1000
0000
0100
0010
0001
0000
0100
0010
,
1000
0001
0000
0001
0000
1000
0001
1000
,
0010
0000
0100
0001
0010
0000
0100
1000
,
0001
0100
0000
0100
0000
0010
1000
0100
,
0010
0000
0001
1000
0100
0000
1000
0001
,
0010
0100
0000
0100
0000
1000
0001
0100
,
0010
1000
0010
1000
0001
0100
0001
0100
,
0010
1000
0000
0101
0000
0010
0010
1000
,
0000
1000
0100
1000
0100
0000
0101
0000
,
0001
0001
0001
0100
0000
0010
0000
1000
,
0000
0100
0010
0001
1000
0000
1100
0000
,
0100
0100
0100
0010
0000
0001
0000
1000
,
1000
0000
0001
0000
0100
0010
0000
1000
,
0000
0000
0100
0000
0010
0001
0000
1100
,
0000
0100
0100
0100
,
0100
0001
0000
0001
0010
1000
0100
0001
,
1000
0000
0000
1000
0100
0000
0010
0000
0001
0000
0000
0001
1000
0000
0010
0000
,
0000
0000
0100
0010
0100
0000
0010
0000
1000
0000
0001
0000
1000
0000
0000
0000
,
0010
0000
0000
0010
0001
0000
1000
0000
0100
0000
0000
0100
0001
0000
1000
0000
,
0000
0000
0100
0010
0100
0000
0100
0000
0001
0000
1000
0000
0001
0000
0000
0000
,
0100
0000
0000
0100
1000
0000
0001
0000
1000
0000
0000
0000
1000
0000
0100
0000
,
0000
0000
0010
0100
0010
0000
0010
0000
0100
0000
0010
0000
0001
0000
1000
0000
,
0010
0100
0010
0100
0010
0100
0010
0100
,
0000
0000
0100
0010
0100
0000
0100
0000
1000
0000
0001
0000
0100
0000
0010
0000
,
1000
0000
0000
1000
0100
0000
0010
0000
0001
0000
0000
0001
0100
0000
0010
0000
,
0000
0000
1000
0001
1000
0000
1000
0000
0001
0000
0100
0000
0010
0000
0000
0000
,
1000
0000
0000
1000
0001
0000
0100
0000
1000
0000
0000
1000
0001
0000
0100
0000
,
0000
0000
0010
0100
0010
0000
0010
0000
1000
0000
0001
0000
0100
0000
0000
0000
,
0010
0000
0000
0010
1000
0000
0001
0000
0100
0000
0000
0000
0100
0000
0010
0000
,
0000
0010
1000
0100
0010
0000
0001
0100
,
1000
0000
0100
0000
,
0010
0000
0010
0001
0000
0001
0010
0000
,
0001
0000
0000
0001
1000
0000
0100
0000
0001
0000
0000
0001
0010
0000
0100
0000
,
0000
0000
0001
0100
0001
0000
0001
0000
1000
0000
0100
0000
0010
0000
0000
0000
,
0001
0000
0000
0001
1000
0000
0100
0000
0001
0000
0000
0001
0010
0000
0100
0000
,
0000
0000
0001
1000
0001
0000
0001
0000
1000
0000
0100
0000
0010
0000
0000
0000
,
0001
0000
0000
0001
1000
0000
0100
0000
0010
0000
0000
0000
0100
0000
0001
0000
,
0000
0000
0001
1000
0001
0000
0001
0000
0100
0000
0010
0000
1000
0000
0100
0000
,
0010
0010
0010
0010
0010
0010
0010
0010
,
0000
0000
0001
1000
0001
0000
0001
0000
0010
0000
1000
0000
0100
0000
0010
0000
,
1000
0000
0000
1000
0001
0000
0010
0000
0100
0000
0000
0100
0001
0000
1000
0000
,
0000
0000
0100
1000
0100
0000
0100
0000
0010
0000
1000
0000
0001
0000
0000
0000
,
0010
0000
0000
0010
1000
0000
0100
0000
0001
0000
0000
0001
0010
0000
0100
0000
,
0000
0000
0001
0100
0001
0000
0001
0000
0010
0000
0100
0000
1000
0000
0000
0000
,
0001
0000
0000
0001
1000
0000
0010
0000
0100
0000
0000
0000
1000
0000
0001
0000
,
0000
0001
1000
0100
0010
0000
0001
0100
,
0010
0000
0000
0000
1000
0000
0100
0001
,
1001
0000
0000
0000
;

//---------------dance-double - ----------------
#NOTES:
     dance-double:
     :
     Easy:
     1:
     0.097669,0.142859,0.000000,0.000000,0.000000,67.000000,67.000000,0.000000,0.000000,0.000000,0.000000,0.097669,0.142859,0.000000,0.000000,0.000000,67.000000,67.000000,0.000000,0.000000,0.000000,0.000000:
00000000
00000000
00000000
00000000
,
00000000
00000000
00000000
00000000
,
00000000
00000000
00000000
00000000
,
00010000
00000000
00000000
00000000
,
00001000
00000000
00000000
00000000
,
00010000
00000000
00000000
00000000
,
00001000
00000000
00000000
00000000
,
00100000
00000000
00100000
00000000
,
00100000
00000000
00100000
00000000
,
00010000
00000000
00000000
00000000
,
10000000
00000000
00000000
00000000
,
01000000
00000000
00000000
00000000
,
00100000
00000000
00000000
00000000
,
00010000
00000000
00000000
00000000
,
00100000
00000000
00000000
00000000
,
00001000
00000000
00000000
00000000
,
00010000
00000000
00000000
00000000
,
00000100
00000000
00000000
00000000
,
00000010
00000000
00000000
00000000
,
00000001
00000000
00000000
00000000
,
00001000
00000000
00000000
00000000
,
00000100
00000000
00000000
00000000
,
00010000
00000000
00000000
00000000
,
00001000
00000000
00000000
00000000
,
00010000
00000000
00001000
00000000
,
00100000
00000000
00000000
00000000
,
00010000
00000000
00010000
00000000
,
01000000
00000000
00000000
00000000
,
00001000
00000000
00001000
00000000
,
00010000
00000000
00000000
00000000
,
00000010
00000000
00000000
00000000
,
00000100
00000000
00000000
00000000
,
00000001
00000000
00000001
00000000
,
00001000
00000000
00000000
00000000
,
00000100
00000000
00000100
00000000
,
00010000
00000000
00000000
00000000
,
00001000
00000000
00001000
00000000
,
00100000
00000000
00000000
00000000
,
01000000
00000000
00000000
00000000
,
10000000
00000000
00000000
00000000
,
00010000
00000000
00000000
00000000
,
01000000
00000000
00000000
00000000
,
00001000
00000000
00001000
00000000
,
00010000
00000000
00000000
00000000
,
00000010
00000000
00000010
00000000
,
00001000
00000000
00000000
00000000
,
00000001
00000000
00000000
00000000
,
00001000
00000000
00000000
00000000
,
00000010
00000000
00000010
00000000
,
00010000
00000000
00000000
00000000
,
00001000
00000000
00001000
00000000
,
00100000
00000000
00000000
00000000
,
00010000
00000000
00010000
00000000
,
01000000
00000000
00000000
00000000
,
00001000
00000000
00000000
00000000
,
00010000
00000000
00000000
00000000
,
00000010
00000000
00000000
00000000
,
00000000
00000000
00000000
00000000
;

//---------------dance-double - ----------------
#NOTES:
     dance-double:
     :
     Medium:
     4:
     0.310499,0.314289,0.153063,0.000000,0.000000,213.000000,198.000000,15.000000,0.000000,0.000000,0.000000,0.310499,0.314289,0.153063,0.000000,0.000000,213.000000,198.000000,15.000000,0.000000,0.000000,0.000000:
00000000
00000000
00000000
00000000
,
00000000
00000000
00000000
00000000
,
00000000
00000000
00000000
00000000
,
10000000
01000000
00100000
00010000
,
00010000
01000000
00001000
00010000
,
00000100
00000010
00000001
00000000
,
00001000
00001000
00000100
00000100
,
00010000
00001000
00100000
01000000
,
00010000
00001000
00000010
00000010
,
00000001
00000100
00001000
00000100
,
00010000
00001000
00100000
00000000
,
00010000
00010000
10000000
10000000
,
01000000
00100000
00010000
00000000
,
01000000
00001000
00010000
00000010
,
00001000
00000001
00000010
00000000
,
00000100
00000100
00010000
00010000
,
00001000
00010000
00000010
00000000
,
00000100
00000001
00001000
00001000
,
00000100
00010000
00001000
00011000
,
00100000
01000000
10000000
10000000
,
00010000
01000000
00001000
00011000
,
00000010
00000010
00000100
00000100
,
00000001
00000010
00000100
00001000
,
00000010
00010000
00001000
01000000
,
10010000
00000000
01000000
01000000
,
00100000
00001000
00000010
00001000
,
00010000
00010000
00001000
00011000
,
00100000
00001000
00000010
00001000
,
00010000
00001000
00010000
00011000
,
00000100
00000010
00001001
00000000
,
00000100
00010000
00001000
00100000
,
01000000
01000000
10000000
10000000
,
00100000
00010000
00001000
00000010
,
00001000
00010000
00100000
00010000
,
00001000
00001000
00010000
00011000
,
00010000
00001000
00000010
00001000
,
00010000
00001000
00010000
00011000
,
00100000
01000000
10010000
00000000
,
01000000
01000000
00100000
10000000
,
00010000
00000000
00100000
00000000
,
00001000
00000000
00000000
00000000
,
00000010
00001000
00010000
00100000
,
00010000
00010000
00001000
00011000
,
00000010
00001000
00010000
00100000
,
00010000
00001000
00010000
00011000
,
00000010
00000100
00001001
00000000
,
00000010
00000100
00001000
00000010
,
00010000
00010000
00001000
00001000
,
00100000
10000000
01000000
00010000
,
00001000
00000010
00001000
00010000
,
00100000
00100000
00010000
00011000
,
00000010
00001000
00010000
00100000
,
10000000
10000000
01000000
10010000
,
00100000
00001000
00010000
00000000
,
00000010
00000010
00000100
00000100
,
00000001
00001000
00000100
00010000
,
00011000
00000000
00000000
00000000
,
00000000
00000000
00000000
00000000
;

//---------------dance-double - ----------------
#NOTES:
     dance-double:
     :
     Hard:
     7:
     0.498547,0.485719,0.010204,0.000000,0.000000,342.000000,341.000000,1.000000,0.000000,0.000000,0.000000,0.498547,0.485719,0.010204,0.000000,0.000000,342.000000,341.000000,1.000000,0.000000,0.000000,0.000000:
00000000
00000000
00000000
00000000
,
00000000
00000000
00000000
00000000
,
00000000
00000000
00000000
00000000
,
10000000
01000000
00100000
00010000
10000000
01000000
00100000
00010000
,
00000000
01000000
00000000
01000000
00001000
00010000
00000010
00000000
,
00001000
00000001
00000010
00000100
00001000
00000000
00000010
00000000
,
00010000
00001000
01000000
00001000
00010000
00000000
00000010
00000000
,
00001000
00000100
00000001
00000010
00001000
00000100
00000001
00000010
,
00001000
00000100
00000001
00000010
00010000
00000000
00001000
00000000
,
00100000
00010000
01000000
00100000
10000000
01000000
00100000
00000000
,
00001000
00010000
00000100
00010000
00001000
00010000
00000100
00000000
,
00000010
00000001
00000100
00000010
00001000
00000100
00000010
00000001
,
00001000
00000010
00000000
00000010
00000000
00000100
00000100
00000000
,
00000010
00001000
00000100
00000010
00000001
00000100
00000010
00000000
,
00010000
00001000
01000000
00001000
00010000
00001000
01000000
00000000
,
00100000
10000000
01000000
00100000
00010000
01000000
00100000
10000000
,
00010000
00100000
00000000
00100000
00000000
01000000
10000000
01000000
,
10000000
00000000
10000000
00010000
01000000
00100000
01000000
00000000
,
00001000
00000000
00001000
00010000
00000010
00001000
00000100
00000000
,
00000010
00000000
00000010
00000001
00000100
00000010
00001000
00000000
,
00000100
00000000
00000100
00010000
00001000
00100000
00010000
00000000
,
10000000
10000000
00100000
00100000
01000000
01000000
00010000
00010000
,
00100000
00100000
00001000
00001000
00010000
00010000
00000100
00000100
,
00000010
00000001
00000100
00000010
00001000
00000100
00010000
00001000
,
00100000
00000000
00010000
00000000
10000000
01000000
10000000
00000000
,
00010000
00010000
01000000
01000000
00001000
00001000
01000000
01000000
,
00000000
00100000
10000000
01000000
00010000
00001000
00100000
00000000
,
00010000
00010000
01000000
01000000
00001000
00001000
00010000
00010000
,
00000000
00000010
00001000
00000001
00000010
00000100
00001000
00000000
,
00000010
00000010
00000100
00000100
00000001
00000000
00001000
00000000
,
00000100
00010000
00001000
00000000
00100000
00001000
00010000
00000000
,
00000010
00010000
00001000
00000000
01000000
00001000
00010000
00000000
,
00000010
00001000
00000100
00000010
00000001
00000100
00000010
00000100
,
00000001
00000001
00001000
00001000
00000100
00000100
00010000
00010000
,
00000000
00001000
00100000
00010000
01000000
00001000
00010000
00000000
,
00000010
00000010
00001000
00001000
00000001
00000001
00000100
00000100
,
00000000
00000010
00001000
00000100
00000010
00001000
00010000
00000000
,
00100000
00100000
10000000
10000000
00010000
00000000
00100000
00000000
,
00001000
00010000
00000100
00000000
00010000
00001000
00100000
00000000
,
00001000
00010000
00000010
00000000
00010000
00001000
01000000
00000000
,
00100000
00000000
00000000
00000000
,
10000000
10000000
01000000
01000000
00100000
00100000
00010000
00010000
,
00000000
10000000
01000000
00100000
00010000
01000000
00010000
00000000
,
00100000
00100000
00001000
00001000
00010000
00010000
00000100
00000100
,
00000000
00001000
00000001
00000100
00000010
00001000
00000001
00000000
,
00000010
00000010
00000100
00000100
00001000
00000000
00000010
00000000
,
00010000
00001000
01000000
00000000
00001000
00010000
00000010
00000000
,
00010000
00001000
00100000
00000000
00001000
00010000
00000100
00000000
,
00000010
00000001
00001000
00000100
00010000
00001000
00100000
00000000
,
00010000
00000000
10000000
00000000
01000000
00100000
01000000
00000000
,
10000000
00000000
00010000
01000000
00001000
00010000
00000010
00000000
,
00001000
00000000
00000001
00000000
00000010
00000100
00000010
00000000
,
00000001
00000000
00001000
00000100
00010000
00001000
00100000
00000000
,
00010000
00000000
10000000
00000000
00100000
01000000
00010000
00000000
,
00100000
00001000
00010000
00000000
00000100
00010000
00001000
00000000
,
01000000
00001000
00010000
00000000
00000010
00010000
00001000
00000000
,
00011000
00000000
00000000
00000000
,
00000000
00000000
00000000
00000000
;

//---------------dance-single - ----------------
#NOTES:
     dance-single:
     :
     Beginner:
     1:
     0.078718,0.085715,0.000000,0.000000,0.000000,54.000000,54.000000,0.000000,0.000000,0.000000,0.000000,0.078718,0.085715,0.000000,0.000000,0.000000,54.000000,54.000000,0.000000,0.000000,0.000000,0.000000:
0000
0000
0000
0000
,
0000
0000
0000
0000
,
0000
0000
0000
0000
,
1000
0000
0000
0000
,
0100
0000
0000
0000
,
0010
0000
0000
0000
,
0001
0000
0000
0000
,
0010
0000
0000
0000
,
0100
0000
0000
0000
,
1000
0000
0000
0000
,
0010
0000
0000
0000
,
0001
0000
0000
0000
,
0100
0000
0000
0000
,
0010
0000
0000
0000
,
1000
0000
0000
0000
,
0010
0000
0000
0000
,
0001
0000
0000
0000
,
0100
0000
0000
0000
,
0010
0000
0000
0000
,
1000
0000
0000
0000
,
0100
0000
0000
0000
,
0001
0000
0000
0000
,
0010
0000
0000
0000
,
0001
0000
0000
0000
,
0100
0000
0000
0000
,
1000
0000
0000
0000
,
0010
0000
0000
0000
,
0100
0000
0000
0000
,
0001
0000
0000
0000
,
0010
0000
0000
0000
,
0001
0000
0000
0000
,
0100
0000
0000
0000
,
0010
0000
0000
0000
,
1000
0000
0000
0000
,
0010
0000
0000
0000
,
0001
0000
0000
0000
,
0100
0000
0000
0000
,
0010
0000
0000
0000
,
1000
0000
0000
0000
,
0010
0000
0000
0000
,
0100
0000
0000
0000
,
0001
0000
0000
0000
,
0010
0000
0000
0000
,
1000
0000
0000
0000
,
0100
0000
0000
0000
,
0001
0000
0000
0000
,
1000
0000
0000
0000
,
0100
0000
0000
0000
,
0010
0000
0000
0000
,
0001
0000
0000
0000
,
0100
0000
0000
0000
,
0010
0000
0000
0000
,
1000
0000
0000
0000
,
0100
0000
0000
0000
,
0010
0000
0000
0000
,
0001
0000
0000
0000
,
0100
0000
0000
0000
;

//---------------dance-single - ----------------
#NOTES:
     dance-single:
     :
     Challenge:
     14:
     0.699716,0.771436,0.469393,0.000000,0.392861,480.000000,434.000000,46.000000,0.000000,0.000000,0.000000,0.699716,0.771436,0.469393,0.000000,0.392861,480.000000,434.000000,46.000000,0.000000,0.000000,0.000000:
// measure 0
0000
0000
0000
0000
,  // measure 1
0000
0000
0000
0000
,  // measure 2
0000
0000
0000
0000
,  // measure 3
1001
0000
0000
0001
0100
0000
0010
0000
0110
0000
0000
0100
1000
0000
0100
0000
,  // measure 4
1000
0000
1000
0000
0100
0000
0100
0000
1000
0001
0100
0000
0010
0000
0000
0000
,  // measure 5
0110
0000
0000
0010
0100
0000
0001
0000
1001
0000
0000
1000
0001
0000
0100
0000
,  // measure 6
0000
0010
1000
0001
0100
0000
0101
0001
,  // measure 7
1000
1000
0010
0010
0100
0100
0001
0001
,  // measure 8
1001
1001
1001
1001
1001
0000
1001
0000
,  // measure 9
1001
0000
0000
0001
0010
0000
0100
0000
1000
0000
0000
0100
1000
0000
0001
0000
,  // measure 10
0100
0000
0010
0000
1000
0000
0001
0000
0010
0000
0000
0010
0100
0000
1000
0000
,  // measure 11
0000
1000
0001
0100
0010
1000
0001
0100
,  // measure 12
0010
0100
0000
0110
0000
0010
0010
0100
,  // measure 13
0001
0010
0001
1000
0001
0100
0001
0010
,  // measure 14
0100
1000
0000
1000
0100
0001
0000
0001
,  // measure 15
0000
0001
0100
1000
0010
0100
0001
1000
,  // measure 16
0100
0100
0000
0110
0000
0110
0000
0010
,  // measure 17
0000
0010
0100
0001
1000
1001
1001
0000
,  // measure 18
0010
0001
0000
0100
0010
1010
1010
1000
,  // measure 19
0000
0100
1000
0010
0100
0110
0110
0000
,  // measure 20
0010
0100
0001
0010
0000
0011
1001
0101
,  // measure 21
0001
0000
0010
0001
1000
0000
0001
0000
0100
0000
0001
1000
0100
0000
0010
0000
,  // measure 22
0001
0000
0000
0001
0100
0000
0010
1000
0100
0000
1000
0000
0000
0000
1000
0000
,  // measure 23
0100
0000
1000
0000
0100
0010
0100
0010
0001
0000
1000
0000
0001
1000
0001
1000
,  // measure 24
0001
0000
1000
0000
0000
0000
0001
0100
0010
0000
1000
0000
1001
0000
0001
0000
,  // measure 25
0010
1000
0000
0000
0001
0000
0100
0000
0010
1000
0000
0000
0001
0000
0100
0000
,  // measure 26
0010
0000
0100
1000
0010
0000
0100
0000
0101
0000
1100
0000
0101
0000
0101
0000
,  // measure 27
1000
0100
0000
0000
0010
0000
0001
0000
1000
0100
0000
0000
0010
0000
0001
0000
,  // measure 28
1000
0000
0001
0000
0010
0000
0001
0010
0100
0000
1100
0000
1100
0000
1000
0000
,  // measure 29
0010
1000
0000
0000
0001
0000
0100
0000
0010
1000
0000
0000
0001
0000
0100
0000
,  // measure 30
0000
0010
0000
1000
0100
0001
0010
0100
,  // measure 31
0010
0000
0010
0000
0100
0010
0100
0010
0001
0000
0001
0000
1000
0001
1000
0001
,  // measure 32
1000
0000
0001
0000
0000
0000
1000
0100
0001
0000
0100
0000
1100
0000
1010
0000
,  // measure 33
0100
0001
0000
0000
1000
0000
0010
0000
0100
0001
0000
0000
1000
0000
0010
0000
,  // measure 34
0100
0000
0001
0010
0100
0000
0010
0100
1000
0000
1001
0000
1001
0000
0001
0000
,  // measure 35
0001
0010
0000
0000
0100
0000
1000
0000
0001
0010
0000
0000
0100
0000
1000
0000
,  // measure 36
0000
0000
0001
0000
0001
0000
1000
0000
1000
0000
0010
1000
0001
0000
1000
0000
,  // measure 37
0100
0001
0000
0000
1000
0000
0010
0000
0100
0001
0000
0000
1000
0000
0010
0000
,  // measure 38
0000
0010
0001
0100
1000
0010
0100
0010
,  // measure 39
0100
0000
0001
0000
1000
0000
0010
1000
,  // measure 40
0001
0010
0000
0010
0001
0000
0010
0001
0000
0001
0010
0000
0100
1000
0001
0010
,  // measure 41
0100
1000
0000
0000
0001
0010
0100
1000
0010
1000
0000
0000
0010
1000
0001
0100
,  // measure 42
0010
0000
0100
0010
1000
0000
0010
0100
0001
0000
1001
0000
1001
0000
1000
0000
,  // measure 43
0001
0010
0000
0000
0100
1000
0001
0010
0100
1000
0000
0000
0010
0100
0001
0000
,  // measure 44
0000
0000
0010
0000
0001
0000
1000
0010
0100
0000
0001
0000
0101
0000
0100
0000
,  // measure 45
0001
0010
0000
0000
0010
0100
0001
1000
0100
1000
0000
0000
0010
0100
0001
0010
,  // measure 46
0100
1000
0000
1000
1000
0100
0100
0001
,  // measure 47
0010
0000
0100
0000
0010
0100
0010
0100
1000
0000
0001
0000
1000
0001
1000
0001
,  // measure 48
0100
0000
0000
0000
0000
0000
0010
0000
0000
0000
0000
0000
0000
0000
0000
0000
0000
0000
0010
0000
0000
0100
0000
0000
0001
0000
0000
0000
0000
0000
1000
0000
0000
0000
0000
0000
0001
0000
0000
0000
0010
0000
0000
0000
0100
0000
0000
0000
,  // measure 49
1000
0100
1000
0100
0010
0001
0010
0001
,  // measure 50
0000
0101
0000
0001
1000
0010
0110
0100
,  // measure 51
0001
1000
0001
1000
0100
0010
0100
0010
,  // measure 52
0000
0000
0110
0000
0110
0000
0110
0000
1001
0000
0001
1000
0100
0000
0100
0000
,  // measure 53
1100
0000
0000
0100
1000
0000
0010
0000
0100
0000
0000
0001
0010
0000
0010
0000
,  // measure 54
0000
0001
0010
1000
0100
0010
0001
0100
,  // measure 55
0010
0000
0010
0000
1000
0000
1000
0000
0001
0000
0001
0000
0001
0100
0010
1000
,  // measure 56
1100
0000
0000
0000
;
