#VERSION:0.83;
#TITLE:ORDINARY WORLD;
#SUBTITLE:;
#ARTIST:AURORA featuring NAIMEE COLEMAN;
#TITLETRANSLIT:;
#SUBTITLETRANSLIT:;
#ARTISTTRANSLIT:;
#GENRE:;
#ORIGIN:;
#CREDIT:;
#BANNER:ORDINARY WORLD.png;
#BACKGROUND:ORDINARY WORLD-bg.png;
#PREVIEWVID:;
#JACKET:ORDINARY WORLD-jacket.png;
#CDIMAGE:;
#DISCIMAGE:;
#LYRICSPATH:;
#CDTITLE:;
#MUSIC:ORDINARY WORLD.ogg;
#OFFSET:0.000000;
#SAMPLESTART:58.889999;
#SAMPLELENGTH:15.000000;
#SELECTABLE:YES;
#DISPLAYBPM:139.000000;
#BPMS:0.000=138.502;
#STOPS:;
#DELAYS:;
#WARPS:;
#TIMESIGNATURES:0.000=4=4;
#TICKCOUNTS:0.000=4;
#COMBOS:0.000=1;
#SPEEDS:0.000=1.000=0.000=0;
#SCROLLS:0.000=1.000;
#FAKES:;
#LABELS:0.000=Song Start;
#BGCHANGES:;
#KEYSOUNDS:;
#ATTACKS:
;

//---------------dance-single - ----------------
#NOTEDATA:;
#CHARTNAME:;
#STEPSTYPE:dance-single;
#DESCRIPTION:;
#CHARTSTYLE:;
#DIFFICULTY:Beginner;
#METER:1;
#RADARVALUES:0.060791,0.132980,0.000000,0.000000,0.000000,40.000000,40.000000,0.000000,0.000000,0.000000,0.000000,0.000000,0.000000,0.000000,0.060791,0.132980,0.000000,0.000000,0.000000,40.000000,40.000000,0.000000,0.000000,0.000000,0.000000,0.000000,0.000000,0.000000;
#CREDIT:;
#DISPLAYBPM:139.000000;
#NOTES:
0000
0000
0000
0000
,
0000
0000
0000
0000
,
0000
0000
0000
0000
,
0000
0000
0000
0000
,
1000
0000
0000
0000
,
0001
0000
0000
0000
,
0010
0000
0000
0000
,
0010
0000
0000
0000
,
0100
0000
0000
0000
,
0000
0000
0000
0000
,
1000
0000
0000
0000
,
0000
0000
0000
0000
,
0001
0000
0000
0000
,
0000
0000
0000
0000
,
0010
0000
0000
0000
,
0000
0000
0000
0000
,
0100
0000
0000
0000
,
0000
0000
0000
0000
,
0010
0000
0100
0000
,
0000
0000
0000
0000
,
0100
0000
0100
0000
,
0000
0000
0000
0000
,
1000
0000
0000
0000
,
0010
0000
0000
0000
,
1000
0000
1000
0000
,
0010
0000
0000
0000
,
0001
0000
0000
0000
,
0000
0000
0000
0000
,
1000
0000
0000
0000
,
0000
0000
0000
0000
,
1000
0000
0000
0000
,
0000
0000
0000
0000
,
0001
0000
0000
0000
,
0000
0000
0000
0000
,
0010
0000
0000
0000
,
0100
0000
0000
0000
,
0010
0000
0000
0000
,
0100
0000
0000
0000
,
1000
0000
0000
0000
,
0001
0000
0000
0000
,
0010
0000
0001
0000
,
1000
0000
0100
0000
,
0010
0000
0000
0000
,
0010
0000
0000
0000
,
0001
0000
0000
0000
,
0001
0000
0000
0000
,
1000
0000
0000
0000
,
1000
0000
0000
0000
,
0010
0000
0000
0000
,
0000
0000
0000
0000
,
0100
0000
0000
0000
;

//---------------dance-single - ----------------
#NOTEDATA:;
#CHARTNAME:;
#STEPSTYPE:dance-single;
#DESCRIPTION:;
#CHARTSTYLE:;
#DIFFICULTY:Easy;
#METER:3;
#RADARVALUES:0.112463,0.239364,0.053192,0.000000,0.000000,74.000000,69.000000,5.000000,0.000000,0.000000,0.000000,0.000000,0.000000,0.000000,0.112463,0.239364,0.053192,0.000000,0.000000,74.000000,69.000000,5.000000,0.000000,0.000000,0.000000,0.000000,0.000000,0.000000;
#CREDIT:;
#DISPLAYBPM:139.000000;
#NOTES:
0000
0000
0000
0000
,
0000
0000
0000
0000
,
0000
0000
0000
0000
,
0000
0000
0000
0000
,
1000
0000
0000
0000
,
0001
0000
0000
0000
,
0010
0000
0000
0000
,
0010
0000
0000
0000
,
0100
0000
0000
0000
,
0000
0000
0000
0000
,
1000
0000
0000
0000
,
0001
0000
0000
0000
,
1000
0000
0000
0000
,
0001
0000
0000
0000
,
0010
0000
0000
0000
,
0010
0000
0000
0000
,
0100
0000
0000
0000
,
0000
0000
0000
0000
,
0001
0000
0000
0000
,
0010
0000
0000
0000
,
0001
0000
0001
0000
,
0010
0000
0100
0000
,
1000
0000
0000
0000
,
0010
0000
0000
0000
,
1000
0000
1000
0000
,
0010
0000
0100
0000
,
1001
0000
0000
0000
,
0000
0000
0000
0000
,
1001
0000
0000
0000
,
0000
0000
0000
0000
,
1001
0000
0000
0000
,
0000
0000
0000
0000
,
1001
0000
0000
0000
,
0000
0000
0000
0000
,
0010
0000
0100
0000
,
0100
0000
0010
0000
,
0010
0000
0100
0000
,
0100
0000
0010
0000
,
0010
0010
0001
0001
,
1000
1000
0100
0100
,
0010
0010
0001
0001
,
1000
1000
0100
0100
,
0001
0000
0000
0000
,
1000
0000
0000
0000
,
0001
0000
1000
0000
,
0001
1000
0001
1000
,
0010
0000
0000
0000
,
0100
0000
0000
0000
,
0010
0000
0100
0000
,
0010
0100
0010
0100
,
1001
0000
0000
0000
;

//---------------dance-single - ----------------
#NOTEDATA:;
#CHARTNAME:;
#STEPSTYPE:dance-single;
#DESCRIPTION:;
#CHARTSTYLE:;
#DIFFICULTY:Medium;
#METER:8;
#RADARVALUES:0.229486,0.356121,0.106384,0.170215,0.000000,151.000000,141.000000,10.000000,16.000000,0.000000,0.000000,0.000000,0.000000,0.000000,0.229486,0.356121,0.106384,0.170215,0.000000,151.000000,141.000000,10.000000,16.000000,0.000000,0.000000,0.000000,0.000000,0.000000;
#CREDIT:;
#DISPLAYBPM:139.000000;
#NOTES:
0000
0000
0000
0000
,
0000
0000
0000
0000
,
0000
0000
0000
0000
,
0000
0000
0000
0000
,
2000
0000
0000
0000
,
0000
0000
0000
3000
,
0002
0000
0000
0000
,
0000
0000
0000
0003
,
0000
0100
0000
0100
,
0000
0100
0000
0100
,
2000
0000
0000
3000
,
0002
0000
2000
3003
,
0010
0000
0100
0000
,
0010
0000
0100
0100
,
1000
0000
2000
0100
,
3001
0000
0002
0100
,
1003
0000
2000
0100
,
3001
0000
0002
0100
,
1003
0000
1000
0000
,
0010
0000
0100
0000
,
0001
0000
0001
0000
,
0010
0000
0100
0000
,
1000
1000
1000
0000
,
0010
0000
0100
0000
,
0001
0001
0001
0000
,
0100
0100
0100
0000
,
0010
2000
0100
0100
,
0010
0100
0010
3010
,
0001
0000
0100
0000
,
1000
0000
0100
0000
,
1001
0010
2000
0100
,
0010
0010
0100
3100
,
1001
0010
0002
0100
,
0010
0010
0100
0103
,
0001
0001
1000
0100
,
1000
1000
0001
0100
,
0010
1000
0100
0010
,
0100
1000
0010
0100
,
0002
0010
0100
1003
,
2000
0010
0100
3001
,
1000
1100
0001
0101
,
1000
0101
1000
0101
,
0001
0001
1000
0100
,
1000
1000
0001
0100
,
0010
1000
0100
0010
,
0100
1000
0010
0100
,
0002
0010
0100
1003
,
2000
0010
0100
3001
,
1000
1100
0001
0101
,
1000
0101
1000
0101
,
0001
0000
0001
0000
,
0100
0000
0100
0000
;

//---------------dance-single - ----------------
#NOTEDATA:;
#CHARTNAME:;
#STEPSTYPE:dance-single;
#DESCRIPTION:;
#CHARTSTYLE:;
#DIFFICULTY:Hard;
#METER:12;
#RADARVALUES:0.509124,0.634648,0.191491,0.361706,0.207449,335.000000,317.000000,18.000000,34.000000,0.000000,0.000000,0.000000,0.000000,0.000000,0.509124,0.634648,0.191491,0.361706,0.207449,335.000000,317.000000,18.000000,34.000000,0.000000,0.000000,0.000000,0.000000,0.000000;
#CREDIT:;
#DISPLAYBPM:139.000000;
#NOTES:
0000
0000
0000
0000
,
0000
0000
0000
0000
,
0000
0000
0000
0000
,
0000
0000
0000
0000
,
1001
0000
0010
1000
0001
1000
0100
0001
,
0100
0001
1000
0100
0010
0100
1000
0000
,
1001
0000
0010
0001
1000
0001
0100
1000
,
0100
1000
0001
0100
0010
0100
0001
0000
,
0001
0000
0000
0001
0000
0000
0002
0000
0100
0000
0000
0100
0000
0000
0203
0000
,
1000
0000
0000
1000
0000
0000
2300
0000
0010
0000
0000
0010
0000
0000
3010
0000
,
0010
0000
1000
0010
0001
0000
0010
0000
0100
0000
1000
0000
0010
0000
0001
0000
,
1000
1000
1000
0200
0001
0001
0301
0100
,
0010
0000
1000
0010
0001
0000
0010
0000
0100
0000
1000
0000
0010
0000
0100
0000
,
0001
0000
0000
0001
0000
0000
0001
0000
1000
0000
0000
1000
0000
0000
1000
0000
,
0010
0000
1000
0100
0010
0000
0001
0000
0100
0000
1000
0000
0010
0000
1000
0000
,
0001
0001
0001
0200
1000
1000
1300
0100
,
0001
0000
0000
0001
0000
0000
0001
0000
0010
0000
0000
0010
0000
0000
0010
0000
,
0100
0000
0000
0100
0000
0000
0100
0000
1000
0000
0000
1000
0000
0000
1000
0000
,
1100
0000
0100
0020
0002
0030
0013
0000
,
0101
0000
0100
2000
0020
3000
1030
0000
,
1100
0000
0010
0200
0002
0003
0301
0000
,
1000
0000
0000
0100
0000
0000
0010
0000
0010
0000
0000
0100
0000
0000
1000
0000
,
2100
0000
0010
3020
0001
0000
0130
0000
,
0012
0000
1000
2003
0100
0000
3010
0000
,
1000
0000
0000
0100
0000
0000
0010
0000
0100
0000
0000
0010
0000
0000
1000
0000
,
0001
0000
0000
0100
0000
0000
0010
0000
0100
0000
0000
0010
0000
0000
0001
0000
,
1000
0000
1001
0000
0100
1000
0001
1000
,
0100
0000
0001
0000
1000
0000
0001
0000
0100
0000
1000
0010
0001
0000
0000
0000
,
0011
0000
1100
0000
0001
0100
0010
0000
,
0001
0000
0100
0000
0010
0000
1000
0000
0001
0000
0100
0010
1000
0000
0000
0000
,
0101
1100
0011
1001
,
1010
0101
1100
1001
,
1000
0000
0000
0010
0000
0000
0100
0000
0001
0000
0000
0010
0000
0000
0100
0000
,
1000
0000
0000
0010
0000
0000
0100
0000
0001
0000
0010
0100
1000
0000
0100
0000
,
0002
0203
2300
3020
,
0130
0001
0010
0100
0010
0001
0100
0001
,
2000
3200
0302
0023
,
0130
1000
0010
0100
0010
1000
0100
1000
,
0001
0100
0001
0100
0001
0100
1000
0100
,
0001
0010
0001
0010
0001
0010
1000
0010
,
0010
0000
0001
0010
0100
0000
1000
0000
0100
0000
0001
0010
0100
0000
0010
0000
,
1000
0000
0001
0010
0100
0000
0001
0100
1000
0000
0100
0010
0001
0010
0100
0000
,
2000
3200
0302
0023
,
0130
1000
0010
0100
0010
1000
0100
1000
,
0002
0203
2300
3020
,
0130
0001
0010
0100
0010
0001
0100
0001
,
1000
0100
1000
0100
1000
0100
0001
0010
,
1000
0010
1000
0000
1000
0010
0001
0000
,
0010
0000
0000
0010
0000
0000
0010
0000
0001
0000
0000
0001
0000
0000
0001
0000
,
0100
0000
0000
0100
0000
0000
0100
0000
1000
0000
0000
1000
0000
0000
1000
0000
,
1000
0000
0000
1000
0000
0000
2000
0000
0100
0000
0000
0100
0000
0000
3200
0000
,
0001
0000
0000
0001
0000
0000
0302
0000
0010
0000
0000
0010
0000
0000
0013
0000
;

//---------------dance-double - ----------------
#NOTEDATA:;
#CHARTNAME:;
#STEPSTYPE:dance-double;
#DESCRIPTION:;
#CHARTSTYLE:;
#DIFFICULTY:Easy;
#METER:4;
#RADARVALUES:0.158056,0.239364,0.053192,0.000000,0.000000,104.000000,99.000000,5.000000,0.000000,0.000000,0.000000,0.000000,0.000000,0.000000,0.158056,0.239364,0.053192,0.000000,0.000000,104.000000,99.000000,5.000000,0.000000,0.000000,0.000000,0.000000,0.000000,0.000000;
#CREDIT:;
#DISPLAYBPM:139.000000;
#NOTES:
00000000
00000000
00000000
00000000
,
00000000
00000000
00000000
00000000
,
00000000
00000000
00000000
00000000
,
00000000
00000000
00000000
00000000
,
00010000
00000000
01000000
00000000
,
00010000
00000000
01000000
00000000
,
00010000
00000000
00001000
00000000
,
00010000
00000000
00001000
00000000
,
00000100
00000000
00000000
00000000
,
00000000
00000000
00000000
00000000
,
00001001
00000000
00000000
00000000
,
00001001
00000000
00000000
00000000
,
00001000
00000000
00000100
00000000
,
00001000
00000000
00000100
00000000
,
00001000
00000000
00010000
00000000
,
00001000
00000000
00010000
00000000
,
01000000
00000000
00000000
00000000
,
00000000
00000000
00000000
00000000
,
10010000
00000000
01000000
00000000
,
00010000
00000000
00001000
00000000
,
00000100
00000000
00000001
00000000
,
00000100
00000000
00001000
00000000
,
00000110
00000000
00000001
00000000
,
00000100
00000000
00001000
00000000
,
00010000
00000000
01000000
00000000
,
10000000
00000000
00100000
00000000
,
10010000
00000000
00000000
00000000
,
00000000
00000000
00000000
00000000
,
10000000
00000000
00000000
00000000
,
00000000
00000000
00000000
00000000
,
00010000
00000000
00000000
00000000
,
00010000
00000000
00000000
00000000
,
00001000
00000000
00000100
00000000
,
00000001
00000001
00000001
00000001
,
00000100
00000001
00000100
00000001
,
00000100
00001000
00010000
01000000
,
10000000
01000000
10000000
01000000
,
10000000
01000000
00010000
00001000
,
00001000
00000000
00001000
00000000
,
00010000
00000000
00010000
00000000
,
00001000
00000000
00001000
00000000
,
00001000
00000100
00000001
00000001
,
00000100
00000010
00001000
00000100
,
00000010
00000001
00000100
00000010
,
00000001
00000001
00001000
00001000
,
00000001
00000100
00001000
00010000
,
01000000
00000000
10000000
00000000
,
01000000
00000000
00010000
00000000
,
00001000
00000000
00000100
00000000
,
00000001
00000001
00001000
00001000
,
00000001
00000000
00000000
00000000
,
00000000
00000000
00000000
00000000
;

//---------------dance-double - ----------------
#NOTEDATA:;
#CHARTNAME:;
#STEPSTYPE:dance-double;
#DESCRIPTION:;
#CHARTSTYLE:;
#DIFFICULTY:Medium;
#METER:5;
#RADARVALUES:0.258361,0.383515,0.202130,0.361706,0.000000,170.000000,151.000000,19.000000,34.000000,0.000000,0.000000,0.000000,0.000000,0.000000,0.258361,0.383515,0.202130,0.361706,0.000000,170.000000,151.000000,19.000000,34.000000,0.000000,0.000000,0.000000,0.000000,0.000000;
#CREDIT:;
#DISPLAYBPM:139.000000;
#NOTES:
00000000
00000000
00000000
00000000
,
00000000
00000000
00000000
00000000
,
00000000
00000000
00000000
00000000
,
00000000
00000000
00000000
00000000
,
20000000
30000000
02000000
03000000
,
00200000
00300000
00020000
00030000
,
00002000
00003000
00000200
00000300
,
00000020
00000030
00000002
00000003
,
00002002
00000000
00000000
00000000
,
00000000
00000000
00000000
00003003
,
00000220
00000000
00000000
00000330
,
00002002
00000000
00000000
00003003
,
00000002
00000003
00000020
00000030
,
00000200
00000300
00002000
00003000
,
00020000
00030000
00200000
00300000
,
02000000
03000000
20000000
30000000
,
20020000
00000000
00000000
00000000
,
00000000
00000000
00000000
30030000
,
10000000
01000000
00100000
01000000
,
00010000
00001000
00000100
00000100
,
00000210
00000010
00000010
00000310
,
00002001
00000001
00000001
00003001
,
00000010
00001200
00000001
00001300
,
00000020
00000001
00001000
00000031
,
00000110
00001000
00010000
00010000
,
01000000
01000000
01000000
01000000
,
00200000
00000000
00000000
00000000
,
00000000
00000000
00000000
00300000
,
20000000
00000000
00000000
30000000
,
02000000
00000000
00000000
03000000
,
00020000
00000000
00000000
00030000
,
00002000
00003000
00000200
00000300
,
00000001
00000010
00000100
00001000
,
00000100
00000001
00001100
00000001
,
00000100
00000001
00001000
00000000
00000100
00000000
00000101
00000000
,
00001000
00010000
01000000
00000000
10000000
00000000
01000000
00000000
,
00100000
00010000
10000000
00000000
00100000
00000000
01010000
00000000
,
00100000
00010000
00001000
00000000
00000100
00000000
00000001
00000000
,
00000100
00000010
00000001
00000000
00001000
00000000
00000001
00000000
,
00000010
00000100
00001000
00000000
00010000
00001000
00000100
00000000
,
00000110
00001001
00000010
00000100
,
00001100
00000010
00000101
00000010
,
00001000
00000010
00000100
00000000
00000010
00000100
00001000
00000000
,
00010000
00100000
10000000
01100000
,
10000000
01000000
00100000
00000000
00100000
01000000
00010000
00000000
,
00001000
00000000
00000100
00000000
00001000
00000100
00000001
00000000
,
00001000
00000010
00000100
00000000
00001000
00000010
00000001
00000000
,
00000110
00001000
00010000
01100000
,
01000000
00100000
00010000
00000000
00100000
00010000
01000000
00000000
,
11000000
00000000
00010000
00000000
00001000
00000100
00000001
00000000
,
00001000
00000000
00000001
00000000
,
00000010
00000000
00000100
00000000
,
00000000
00000000
00000000
00000000
;

//---------------dance-double - ----------------
#NOTEDATA:;
#CHARTNAME:;
#STEPSTYPE:dance-double;
#DESCRIPTION:;
#CHARTSTYLE:;
#DIFFICULTY:Hard;
#METER:7;
#RADARVALUES:0.454412,0.465696,0.138299,0.074469,0.000000,299.000000,286.000000,13.000000,7.000000,0.000000,0.000000,0.000000,0.000000,0.000000,0.454412,0.465696,0.138299,0.074469,0.000000,299.000000,286.000000,13.000000,7.000000,0.000000,0.000000,0.000000,0.000000,0.000000;
#CREDIT:;
#DISPLAYBPM:139.000000;
#NOTES:
00000000
00000000
00000000
00000000
,
00000000
00000000
00000000
00000000
,
00000000
00000000
00000000
00000000
,
00000000
00000000
00000000
00000000
,
00001000
00000100
00000010
00001000
,
00000100
00000010
00001000
00010000
,
00100000
01000000
00010000
00100000
,
01000000
00010000
00001000
00000100
,
00000200
00000300
00002000
00003000
,
00020000
00030000
02000000
03000000
,
00100000
00010000
01000000
00000000
00100000
01000000
00010000
00100000
,
01000000
00010000
00001000
00010000
00100000
00010000
00001000
00000000
,
00000100
00001000
00010000
01000000
00010000
00001000
00000100
00000000
,
00000010
00000100
00000001
00000100
00000010
00000100
00000001
00000000
,
00000010
00001000
00000100
00000000
00000010
00000100
00001000
00000010
,
00000100
00001000
00010000
00001000
00000010
00001000
00010000
00000000
,
01000000
10000000
01000000
00010000
01000000
00100000
00001000
00010000
,
00001000
00000100
00000010
00000100
00000001
00001000
00000100
00000000
,
00001010
00000000
00001100
00000000
00000010
00001000
00000100
00000000
,
00000010
00001000
00010000
00000000
00010010
00000000
00011000
00000000
,
00000010
00002000
00010000
00000000
00000010
00000000
00013000
00000000
,
00001000
00010000
01000000
00100000
00010000
10000000
01000000
00000000
,
00110000
00000000
01010000
00000000
00100000
00010000
01000000
00000000
,
00100000
00010000
00001000
00000000
00101000
00000000
00011000
00000000
,
01000000
00010000
00001000
00000100
00001000
00000100
00000001
00000100
,
00001000
00010000
01000000
00010000
01000000
00010000
00001000
00000000
,
00000010
00010000
00001000
00000000
00000010
00001000
00010000
00000000
,
00000100
00001000
00000100
00000000
00000010
00001000
00000100
00000000
,
00000110
00001000
00010000
01100000
,
00010000
00001000
00010000
01100000
,
01000000
00020000
00001000
00000000
01000000
00000000
00031000
00000000
,
00010000
00002000
00000100
00000000
00010000
00000000
00003100
00000000
,
00000110
00000000
00001000
00000000
00000100
00000010
00001000
00000000
,
00010000
00000000
01100000
00000000
01000000
00010000
00001000
00000000
,
00001000
00000100
00000010
00001000
00000100
00000010
00001000
00010000
,
00100000
01000000
00010000
00100000
01000000
00010000
00001000
00000100
,
00000010
00001000
00000100
00001000
00000010
00010000
00001000
00000100
,
00000010
00001000
00000100
00010000
00001000
00000100
00001000
00010000
,
00001000
00000100
00001000
00000000
00000010
00000100
00001000
00000000
,
00010000
01000000
00010000
00000000
00100000
01000000
00010000
00000000
,
01000000
00100000
00010000
01000000
00100000
00010000
00001000
00000100
,
00000010
00001000
00000100
00000010
00001000
00010000
01000000
00000000
,
00010000
01000000
00100000
00010000
01000000
00100000
00010000
00001000
,
00000010
00000100
00001000
00000010
00000100
00001000
00010000
01000000
,
00100000
00010000
01000000
00010000
00100000
00001000
00010000
01000000
,
00100000
00010000
01000000
00001000
00010000
01000000
00010000
00001000
,
00010000
01000000
00010000
00000000
00100000
01000000
00010000
00000000
,
00001000
00000100
00001000
00000000
00000010
00000100
00001000
00000000
,
00000100
00000010
00001000
00000100
00000010
00001000
00010000
01000000
,
00100000
00010000
01000000
00100000
00010000
00001000
00000100
00000000
,
00000001
00000000
00001000
00000000
,
00010000
00000000
10000000
00000000
,
00000000
00000000
00000000
00000000
;

//---------------dance-single - ----------------
#NOTEDATA:;
#CHARTNAME:;
#STEPSTYPE:dance-single;
#DESCRIPTION:;
#CHARTSTYLE:;
#DIFFICULTY:Challenge;
#METER:15;
#RADARVALUES:0.689977,0.717428,0.297875,0.670220,0.500005,454.000000,426.000000,28.000000,63.000000,0.000000,0.000000,0.000000,0.000000,0.000000,0.689977,0.717428,0.297875,0.670220,0.500005,454.000000,426.000000,28.000000,63.000000,0.000000,0.000000,0.000000,0.000000,0.000000;
#CREDIT:;
#DISPLAYBPM:139.000000;
#NOTES:
// measure 0
0000
0000
0000
0000
,  // measure 1
0000
0000
0000
0000
,  // measure 2
1001
0000
1000
0100
0001
0000
0001
0100
,  // measure 3
1000
0100
0001
0100
1000
0100
0001
0000
,  // measure 4
1001
0000
1000
0010
0001
0000
0001
0010
,  // measure 5
1000
0010
0001
0010
1000
0010
0001
0000
,  // measure 6
0110
0000
0100
1000
0010
0000
0010
1000
,  // measure 7
0100
1000
0010
1000
0100
1000
0010
0000
,  // measure 8
0110
0000
0001
0100
0000
0001
0100
0000
0101
0000
0010
1000
0000
0010
1000
0000
,  // measure 9
1100
0000
0100
0010
0000
0100
0010
0000
0011
0000
0001
1000
0001
0000
1000
0001
,  // measure 10
2000
0000
3200
0000
0320
0000
0031
0010
,  // measure 11
0100
0000
1100
0000
0000
0000
0101
0000
0000
0000
0011
0000
0000
0000
0001
0010
,  // measure 12
1000
0000
1100
0000
1000
0010
0100
0001
,  // measure 13
0020
0000
0000
0001
0000
0000
0032
0000
0100
0000
0000
0100
0000
0000
0103
0000
,  // measure 14
1100
0000
0000
1000
0100
0000
0010
0000
0101
0000
0000
0001
0100
0000
0010
0000
,  // measure 15
1010
0000
0000
0010
0100
0000
0001
0000
0011
0000
0000
0001
0100
0000
0010
0000
,  // measure 16
2000
0000
0000
0100
0000
0000
3100
0000
0020
0000
0000
0001
0000
0000
0031
0000
,  // measure 17
0200
0000
0000
0010
0000
0000
0310
0000
0002
0000
0000
1000
0000
0000
1003
0000
,  // measure 18
1010
0000
0000
0010
1000
0000
0001
0000
0200
0000
0302
0000
0103
0000
1000
0000
,  // measure 19
1010
0000
0000
0010
1000
0000
0100
0000
2000
0000
3200
0000
1300
0000
0010
0000
,  // measure 20
0011
0000
0000
0001
0100
0000
0010
0000
2000
0000
3020
0000
0130
0000
0010
0000
,  // measure 21
0011
0000
0100
0010
0000
0100
0010
0000
1001
0000
0010
0100
0000
0010
0100
0000
,  // measure 22
1100
0000
0000
0100
0010
0000
0001
0000
0200
0000
0320
0000
1030
0000
0100
0000
,  // measure 23
0011
0000
0000
0001
0100
0000
0010
0000
2000
0000
3002
0000
0013
0000
1000
0000
,  // measure 24
1001
0000
0010
0001
0000
0010
0001
0000
0101
0000
0100
0010
0000
0100
0010
0000
,  // measure 25
1010
0000
1000
0010
0000
0100
0010
0000
1100
0000
0010
0001
0000
0010
0001
0000
,  // measure 26
0200
0310
0200
0301
0200
0310
0200
0301
,  // measure 27
0200
0000
1300
0000
0200
0000
0310
0000
0200
0000
0301
0010
0100
0000
0000
0000
,  // measure 28
0020
0130
0020
1030
0020
0130
0020
0031
,  // measure 29
0020
0000
0130
0000
0020
0000
1030
0000
0020
0000
0031
1000
0100
0000
0000
0000
,  // measure 30
2000
3010
2000
3100
2000
3001
2000
3100
,  // measure 31
0002
0013
0002
0103
0002
0013
0002
1003
,  // measure 32
0002
0000
0000
0010
0000
0000
0023
0000
1000
0000
0000
2030
0000
0000
0100
0000
,  // measure 33
3200
0000
0000
0001
0000
0000
0301
0000
0010
0000
0100
0010
1000
0000
0000
0000
,  // measure 34
0002
0000
0000
0013
0200
0000
0000
0310
2000
0000
0000
3100
0020
0000
0000
0031
,  // measure 35
0100
0000
1000
0100
0001
0000
0001
0100
1000
0000
1000
0100
0001
0100
1000
0000
,  // measure 36
0002
0000
0000
0013
2000
0000
0000
3001
0200
0000
0000
1300
0020
0000
0000
0130
,  // measure 37
0001
0000
1000
0010
0001
0000
0001
0010
1000
0000
1000
0010
0001
0010
1000
0000
,  // measure 38
0010
0000
0001
0010
0100
0000
0010
0000
1000
0000
0100
0010
0001
0000
0100
0000
,  // measure 39
0010
0000
0100
0010
1000
0000
0001
0000
0010
0000
1000
0100
0010
0000
0001
0000
,  // measure 40
0010
0000
0010
1000
0010
0000
0010
0000
0010
0000
0010
0001
0010
0000
0010
0000
,  // measure 41
0100
0000
0100
1000
0100
0000
0100
0001
0100
0000
0100
1000
0100
0001
0100
0000
,  // measure 42
2000
3100
0002
0013
2000
3010
0002
0103
,  // measure 43
0010
0000
1000
0010
0001
0000
0001
0100
1000
0000
1000
0010
0001
0100
1000
0000
,  // measure 44
0020
0031
0200
1300
0020
1030
0200
0301
,  // measure 45
1000
0000
0100
1000
0010
0000
0010
1000
0100
0000
0100
1000
0010
1000
0100
0000
,  // measure 46
0010
0000
0001
0010
0100
0000
0010
0000
1000
0000
0100
0010
1000
0000
0010
0000
,  // measure 47
0100
0000
0001
0010
0100
0000
1000
0000
0010
0000
0100
0010
0001
0000
0100
0000
,  // measure 48
1000
0000
1000
0010
1000
0000
1000
0000
1000
0000
1000
0100
1000
0000
1000
0000
,  // measure 49
0001
0000
0001
0010
0001
0000
0001
0100
0001
0000
0001
0010
0001
0100
0001
0000
,  // measure 50
0101
0000
0001
0100
0000
0001
0200
0000
0310
0000
1000
0010
0000
1000
0010
0000
,  // measure 51
1010
0000
1000
0100
0000
1000
0200
0000
0301
0000
0001
0010
0000
0001
0010
0000
;
