#VERSION:0.83;
#TITLE:OOPS!...I DID IT AGAIN (Fired Up MIX);
#SUBTITLE:;
#ARTIST:ROCHELLE;
#TITLETRANSLIT:;
#SUBTITLETRANSLIT:;
#ARTISTTRANSLIT:;
#GENRE:;
#ORIGIN:;
#CREDIT:;
#BANNER:OOPS!...I DID IT AGAIN (Fired Up MIX).png;
#BACKGROUND:OOPS!...I DID IT AGAIN (Fired Up MIX)-bg.png;
#PREVIEWVID:;
#JACKET:OOPS!...I DID IT AGAIN (Fired Up MIX)-jacket.png;
#CDIMAGE:;
#DISCIMAGE:;
#LYRICSPATH:;
#CDTITLE:;
#MUSIC:OOPS!...I DID IT AGAIN (Fired Up MIX).ogg;
#OFFSET:0.000000;
#SAMPLESTART:81.822998;
#SAMPLELENGTH:15.000000;
#SELECTABLE:YES;
#DISPLAYBPM:132.000000;
#BPMS:0.000=131.738,
4.000=132.000;
#STOPS:;
#DELAYS:;
#WARPS:;
#TIMESIGNATURES:0.000=4=4;
#TICKCOUNTS:0.000=4;
#COMBOS:0.000=1;
#SPEEDS:0.000=1.000=0.000=0;
#SCROLLS:0.000=1.000;
#FAKES:;
#LABELS:0.000=Song Start;
#BGCHANGES:;
#KEYSOUNDS:;
#ATTACKS:
;

//---------------dance-single - ----------------
#NOTEDATA:;
#CHARTNAME:;
#STEPSTYPE:dance-single;
#DESCRIPTION:;
#CHARTSTYLE:;
#DIFFICULTY:Easy;
#METER:6;
#RADARVALUES:0.203760,0.265791,0.115790,0.000000,0.000000,271.000000,249.000000,22.000000,0.000000,0.000000,0.000000,0.000000,0.000000,0.000000,0.203760,0.265791,0.115790,0.000000,0.000000,271.000000,249.000000,22.000000,0.000000,0.000000,0.000000,0.000000,0.000000,0.000000;
#CREDIT:;
#DISPLAYBPM:132.000000;
#NOTES:
0000
0000
0000
0000
,
0000
0000
0000
0000
,
0000
0000
0000
0000
,
0001
0000
0000
0000
,
1000
0000
0000
0000
,
0001
0000
0000
0000
,
1000
0000
0000
0000
,
0001
0000
0000
0000
,
0100
0000
0000
0000
,
1001
0000
1001
0000
,
1001
0000
1001
0000
,
1001
0000
1001
0000
,
1001
0000
1001
0000
,
1001
0000
1001
0000
,
1001
0000
1001
0000
,
1001
0000
1001
0000
,
1001
0000
1001
0100
,
0010
0000
0100
0000
,
1000
0100
0001
0000
,
0010
0000
0100
0000
,
1000
0100
0001
0100
,
1000
0000
0001
0000
,
0010
0100
1000
0000
,
0001
0000
0100
0000
,
1000
1000
0100
0010
,
0000
0001
0000
0001
,
0000
1000
0000
1000
,
0000
0001
0000
0001
,
0000
1000
0000
1001
,
0000
0001
0000
0001
,
0000
1000
0000
1000
,
0000
0001
0000
1000
,
0000
0100
0000
0010
,
0000
0001
1000
0100
,
0000
0100
0000
0100
,
0000
0010
0001
0000
,
0000
1000
0100
0000
,
0000
0001
1000
0100
,
0000
0100
0000
0100
,
0000
0010
0001
0000
,
0000
1000
0100
0010
,
0001
0001
1000
0000
,
1000
1000
0001
0000
,
0100
1000
0010
0001
,
1000
0000
0100
0100
,
1001
0000
0010
0100
,
0001
0000
0010
0100
,
1000
0000
0010
0100
,
0001
0000
1000
0100
,
1001
0000
0100
0010
,
1000
0000
0100
0010
,
0001
0001
1000
1000
,
0100
0000
0100
0000
,
0010
0000
0010
0000
,
0010
0010
0010
0000
,
0010
0000
0010
0000
,
0000
0010
0010
0010
,
0100
0000
0100
0000
,
0100
0100
0100
0000
,
0100
0000
0100
0000
,
0000
0100
0100
0100
,
1000
0000
0001
0000
,
1000
0100
0010
0000
,
0001
0000
0100
0000
,
1000
0100
0001
0100
,
0010
0000
0100
0000
,
0010
1000
0100
0000
,
0010
0001
0100
0000
,
0010
0010
1000
0100
,
0001
0001
1000
0000
,
1000
1000
0001
0000
,
0100
1000
0010
0001
,
0000
1000
0000
0100
,
1001
0000
0100
0010
,
1000
0000
0100
0010
,
0001
0000
0100
0010
,
1000
0000
0001
0100
,
1001
0000
0100
0010
,
0001
0000
1000
0100
,
0010
0010
0001
0001
,
1000
0000
0100
0000
,
0010
0010
0010
0000
,
0001
0000
0001
0000
,
1000
0000
1000
0000
,
0100
0000
0010
0010
,
0001
0001
0001
0000
,
1000
0000
1000
0000
,
0010
0010
0100
0100
,
0001
1000
0001
0100
,
0001
0000
1000
0000
,
0001
0000
1000
0000
,
0100
0000
0010
0000
,
0001
1000
0001
0100
,
0001
0000
1000
0000
,
0001
0000
1000
0000
,
0100
0000
0010
0000
,
0001
0001
1000
1000
,
0100
0000
0100
0000
,
0100
0000
0100
0000
,
0100
0000
0100
0000
,
0010
0000
0100
0010
,
1001
0000
0000
0000
;

//---------------dance-single - ----------------
#NOTEDATA:;
#CHARTNAME:;
#STEPSTYPE:dance-single;
#DESCRIPTION:;
#CHARTSTYLE:;
#DIFFICULTY:Medium;
#METER:9;
#RADARVALUES:0.378197,0.372107,0.126316,0.000000,0.000000,503.000000,479.000000,24.000000,0.000000,0.000000,0.000000,0.000000,0.000000,0.000000,0.378197,0.372107,0.126316,0.000000,0.000000,503.000000,479.000000,24.000000,0.000000,0.000000,0.000000,0.000000,0.000000,0.000000;
#CREDIT:;
#DISPLAYBPM:132.000000;
#NOTES:
0000
0000
0000
0000
,
0000
0000
0000
0000
,
0000
0000
0000
0000
,
0001
0001
0001
0001
,
1000
1000
1000
1000
,
0001
0001
0001
0001
,
1000
1000
1000
1000
,
0001
0001
0001
0001
,
1000
1000
1000
1000
,
1001
0100
0010
0100
,
0010
0100
1001
0100
,
1001
0100
1001
0100
,
1001
0100
1001
0100
,
0010
0100
0010
0100
,
0010
0100
0010
0100
,
0010
0100
0010
0100
,
0010
0100
0010
1001
,
0010
0000
0100
0000
1000
0001
0100
0000
,
1000
0100
1000
0000
0001
0100
0001
0000
,
1000
0100
0010
0001
,
1000
0010
1000
0000
0001
0100
0001
0000
,
0010
0000
0100
0000
1000
0001
0100
0000
,
1000
0100
1000
0000
0001
0100
0001
0000
,
1000
0010
0100
0001
,
1010
0000
1100
0000
,
0001
0001
0001
0000
1000
0000
0100
0000
,
1000
1000
1000
0000
0001
0000
0100
0000
,
0001
0001
0001
0000
1000
0000
0100
0000
,
1000
1000
1000
0000
0010
0000
0100
0001
,
0000
1000
0100
1000
0000
0001
0100
0001
,
0000
1000
0100
1000
0000
0001
0100
0001
,
0000
1000
0100
1000
0000
0001
0100
0001
,
0000
1000
0100
1000
0000
0001
0100
0001
,
0000
1000
0100
0010
0001
0000
0100
0000
,
0010
1000
0100
0000
0001
0000
0100
0000
,
1000
0100
0010
0000
0001
0000
1000
0000
,
0001
1000
0100
0000
0010
0000
0001
0001
,
0000
1000
0010
0100
0001
0000
0100
0000
,
0010
1000
0100
0000
0010
0000
0001
0000
,
1000
0001
0100
0000
0010
0000
1000
0000
,
0001
0010
0100
0000
1000
0010
0100
0010
,
0100
0000
0100
0000
0001
0010
0100
0000
,
1000
0000
1000
0000
0001
0010
0100
0000
,
1000
0000
0001
0000
0010
0100
0010
0100
,
0010
0010
1010
0101
,
1001
0000
0100
0000
0010
0001
0010
0001
,
0100
0000
0100
0000
0010
1000
0010
1000
,
0100
0000
0100
0000
0010
0001
0010
0001
,
0100
0000
0100
0000
0010
1000
0010
1000
,
0100
0000
1001
0000
0010
0100
1000
0100
,
0010
0000
0001
0000
0100
0010
0100
0010
,
0000
0010
0000
0010
0000
0010
0000
0010
,
0100
1001
0100
1001
,
0100
0100
0010
0010
,
1000
0100
1000
0000
0001
0000
0100
0000
,
0010
0000
0010
0000
1000
0100
1000
0100
,
0000
0010
0010
0000
0001
0000
0100
0000
,
0010
0010
1000
1000
,
0001
0010
0001
0000
1000
0000
0100
0000
,
0001
0000
0001
0000
0100
0010
0100
0010
,
0000
1000
1000
0000
0001
0000
0100
0000
,
0010
0000
1000
0000
0001
0010
0001
0000
,
1100
0011
0101
0000
,
0010
1000
0010
0000
0100
0001
0100
0000
,
0001
0010
0100
1000
,
0001
0000
0001
0000
0100
0010
1000
0000
,
0001
0001
1000
1000
,
0001
0100
0010
0000
1000
0100
0010
0000
,
0001
0000
0001
0000
0100
0010
0100
0010
,
1000
1000
0001
0001
,
0010
0100
0010
0000
1001
0000
0000
0000
,
1000
0000
0010
0000
0100
0000
0001
0001
,
0000
0000
1000
1000
0000
0010
0100
0000
,
1001
0000
0010
0000
1000
0100
0010
0000
,
0001
0000
0100
0000
0010
1000
0100
0000
,
0010
0000
0001
0000
1000
0100
0010
0000
,
0001
0000
1000
0000
0001
1000
0100
0000
,
0010
0000
1001
0000
0010
0100
0001
0000
,
0010
0000
0100
0000
1000
0001
0100
0000
,
0010
0000
1000
0000
0001
0010
0100
0000
,
1000
0000
0001
0000
1000
0010
0100
0000
,
0001
0000
0001
0000
1000
0100
1000
0000
,
0001
0000
0001
0000
1000
0100
1000
0000
,
0001
0000
0001
0000
1000
0100
1000
0100
,
0000
0000
0010
0000
0001
0100
0010
0000
,
1000
0000
1000
0000
0001
0100
0001
0000
,
1000
0000
1000
0000
0001
0100
0001
0000
,
1000
0001
1000
0001
,
0100
0100
0100
0000
0001
1000
0100
0000
,
0001
1000
0100
0000
0001
1000
0100
0000
,
0001
1000
0100
0000
0001
1000
0100
0000
,
0001
1000
0100
0000
0001
1000
0100
0000
,
0011
0000
0101
0000
1000
0001
0100
0000
,
1000
0000
0100
0000
0010
0001
0010
0000
,
0100
0000
0100
0000
1000
0010
1000
0000
,
0001
0001
0100
0100
,
0010
1000
0010
0000
0100
0000
0100
0000
,
0001
0000
0001
0001
0000
0000
0001
0000
,
1000
0000
1000
1000
0000
0000
0100
0000
,
0010
0000
0010
0010
0000
0000
0010
0000
,
0100
0000
0100
0100
0000
0000
0100
0000
,
1001
0000
0000
0000
;

//---------------dance-single - ----------------
#NOTEDATA:;
#CHARTNAME:;
#STEPSTYPE:dance-single;
#DESCRIPTION:;
#CHARTSTYLE:;
#DIFFICULTY:Hard;
#METER:11;
#RADARVALUES:0.439852,0.451845,0.084211,0.000000,0.323686,585.000000,569.000000,16.000000,0.000000,0.000000,0.000000,0.000000,0.000000,0.000000,0.439852,0.451845,0.084211,0.000000,0.323686,585.000000,569.000000,16.000000,0.000000,0.000000,0.000000,0.000000,0.000000,0.000000;
#CREDIT:;
#DISPLAYBPM:132.000000;
#NOTES:
0000
0000
0000
0000
,
0000
0000
0000
0000
,
0000
0000
0000
0000
,
0000
0001
0000
0100
0000
0001
0000
0100
,
0000
0000
0001
0000
0000
0000
0100
0000
0000
0000
0001
0000
0000
0000
0100
0001
,
0000
1000
0000
0100
0000
1000
0000
0100
,
0000
0000
1000
0000
0000
0000
0100
0000
0000
0000
1000
0000
0000
0000
0100
1000
,
0000
0001
0000
0100
0000
0001
0000
0100
,
0000
0001
0000
0100
0000
0001
0000
0100
,
0001
0000
0000
0001
0000
0000
1000
0000
0100
0000
0000
0100
0000
0000
0010
0000
,
0001
0000
0000
0001
0000
0000
0100
0000
0010
0000
0000
0010
0000
0000
1000
0000
,
0001
0000
0000
0001
0000
0000
0010
0000
0100
0000
0000
0100
0000
0000
1000
0000
,
0001
0000
0000
0001
0000
0000
0100
0000
0010
0000
0000
0010
0000
0000
1000
0000
,
0001
0000
0000
0001
0000
0000
0100
0000
0001
0000
0000
0001
0000
0000
0100
0000
,
0010
0000
0000
0010
0000
0000
1000
0000
0100
0000
0000
0100
0000
0000
0010
0000
,
0001
0000
0000
0001
0000
0000
1000
0000
0100
0000
0000
0100
0000
0000
1000
0000
,
0010
0000
0000
0010
0000
0000
0100
0000
0001
0000
0000
0010
0000
0000
0100
0000
,
1000
0000
0000
1000
0000
0000
1000
0000
0001
0000
0000
0001
0000
0000
0001
0000
,
0010
0000
0000
0010
0000
0000
0010
0000
0100
0000
0000
0100
0000
0000
0100
0000
,
1000
0000
0000
1000
0000
0000
1000
0000
0001
0000
0000
0001
0000
0000
0001
0000
,
0010
0000
0000
0010
0000
0000
0010
0000
0100
0000
0000
0010
0000
0000
0100
0000
,
1000
0001
0100
0010
1000
0100
0010
0001
,
1000
0001
0100
0010
1000
0100
0010
0001
,
1000
0010
0100
0001
0010
0100
1000
0001
,
0010
0000
0000
0010
0000
0000
0010
0000
0100
0000
0000
0000
0000
0000
0000
0000
,
1000
0000
0000
1000
0100
0000
0000
0000
0010
0000
0000
0010
0001
0000
0000
0000
,
1000
0000
0000
1000
0010
0000
0000
0000
0100
0000
0000
0100
0001
0000
0000
0000
,
1000
0000
0000
1000
0100
0000
0000
0000
0010
0000
0000
0010
0001
0000
0000
0000
,
0100
0000
0000
0100
0010
0000
0000
0000
1000
0000
0000
1000
0001
0000
0010
0000
,
0100
0000
0000
0100
1000
0000
0000
0000
0001
0000
0000
0001
0100
0000
0000
0000
,
0010
0000
0000
0010
1000
0000
0000
0000
0100
0000
0000
0100
0010
0000
0000
0000
,
0001
0000
0000
0001
0000
0000
0001
0000
0000
0000
0000
0000
0000
0000
0000
0000
,
1000
0000
0000
1000
0000
0000
0000
0000
0000
0000
0110
0000
0000
0000
1001
0000
,
0100
0000
0000
0010
0100
0000
0000
0000
1000
0000
0000
0010
0000
0000
0100
0000
,
0001
0000
0000
1000
0100
0000
0000
0000
0010
0000
0000
0010
0000
0000
0010
0000
,
0001
0000
0000
0100
0010
0000
0000
0000
1000
0000
0000
0001
0000
0000
0100
0000
,
0010
0000
0000
1000
0100
0000
0000
0000
0010
0000
0000
0010
0000
0000
0010
0000
,
0001
0000
0000
0001
1000
0000
0000
0000
0100
0000
0000
0010
0000
0000
0001
0000
,
1000
0000
0000
1000
0001
0000
0000
0000
0100
0000
0000
0010
0000
0000
1000
0000
,
0100
0000
0000
0010
0001
0000
0000
0000
1000
0000
0000
0010
0000
0000
0100
0000
,
0001
0000
0000
0010
0100
0000
0000
0000
1000
0000
0000
0001
0000
0000
0100
0000
,
0010
0000
0000
0010
0000
0000
0010
0000
1000
0000
0000
1000
0000
0000
1000
0000
,
0100
0000
0000
0100
0000
0000
0100
0000
0010
0000
0000
0010
0000
0000
0010
0000
,
0001
0100
0010
1000
0100
0010
0001
0100
,
0000
0000
0000
0010
1000
0100
0010
0001
,
1100
0000
0000
0000
0001
0000
0000
0000
0100
0000
0000
0100
0000
0000
0100
0000
,
1000
0000
0000
1000
0000
0000
1000
0000
0100
0000
0000
0100
0000
0000
0100
0000
,
0001
0000
0000
0001
0000
0000
0001
0000
0100
0000
0000
0100
0000
0000
0100
0000
,
1000
0000
0000
1000
0000
0000
1000
0000
0100
0000
0010
0000
0001
0000
0100
0000
,
0110
0000
0000
0000
1001
0000
0000
0000
0010
0000
0000
0010
0000
0000
0010
0000
,
0100
0000
0000
0100
0000
0000
0100
0000
0001
0000
0000
0001
0000
0000
0001
0000
,
1000
0000
0000
1000
0000
0000
1000
0000
1000
0000
0000
1000
0000
0000
1000
0000
,
1100
0000
0011
0000
1000
0001
0100
0000
,
0010
0000
0000
0000
0100
0000
0000
0000
0001
0000
0000
0001
0000
0000
0001
0000
,
0000
0000
1000
0000
0100
0000
0000
0000
0010
0000
0000
0001
0000
0000
0010
0000
,
0100
0000
0000
0000
0100
0000
0000
0000
1000
0000
0000
1000
0000
0000
1000
0000
,
0001
0000
0100
0000
0100
0000
0100
0000
0010
0000
0000
1000
0000
0000
0001
0000
,
0010
0000
0000
0000
0100
0000
0000
0000
1000
0000
0000
1000
0000
0000
0001
0000
,
0100
0000
0010
0000
0010
0000
0000
0000
1000
0000
0000
0001
0000
0000
0100
0000
,
0001
0000
0000
0000
1000
0000
0000
0000
0100
0000
0000
0010
0000
0000
0100
0000
,
0010
0000
0001
0000
0001
0000
0001
0000
1000
0000
0000
0010
0000
0000
0100
0000
,
1001
0000
0000
0000
0100
0000
0000
0000
0010
0000
0000
0010
0000
0000
0001
0000
,
1100
0011
0101
0000
,
0010
0000
0000
0010
1000
0000
0000
0000
0001
0000
0000
0001
0010
0000
0100
0000
,
1000
0000
0000
0100
0000
0000
0000
0000
0001
0000
0000
0100
0000
0000
0010
0000
,
1000
0000
0000
1000
0100
0000
0000
0000
0010
0000
0000
0010
0000
0000
0001
0000
,
1000
0000
0000
1000
0010
0000
0000
0000
0100
0000
0000
0001
0000
0000
0010
0000
,
0100
0000
0000
1000
0001
0000
0000
0000
0100
0000
0000
0010
0000
0000
1000
0000
,
0001
0000
0000
0010
0100
0000
0000
0000
1000
0000
0000
0001
0000
0000
0100
0000
,
0010
0000
0000
0010
0000
0000
0010
0000
1000
0000
0000
1000
0000
0000
1000
0000
,
0100
0000
0000
0100
0000
0000
0100
0000
0010
0000
0000
0010
0000
0000
0010
0000
,
0001
0100
0010
1000
0100
0010
0001
0001
,
0000
1000
1000
1000
0000
0100
0010
0100
,
1001
0000
0110
0000
1000
0100
0010
0001
,
0000
0000
1000
0000
1000
0000
0000
0000
0100
0000
0000
0010
0000
0000
0001
0000
,
1000
0000
0010
0000
0100
0000
0000
0000
0001
0000
0000
0001
0000
0000
0100
0000
,
0010
0000
1000
0000
0100
0000
0010
0000
0001
0000
0000
1000
0000
0000
0100
0000
,
0011
0000
0101
0000
0010
1000
0100
0010
,
0000
0000
0001
0000
0001
0000
0000
0000
1000
0000
0000
0100
0000
0000
0010
0000
,
0001
0000
0000
0001
0000
0000
0001
0000
1000
0000
0000
1000
0000
0000
1000
0000
,
0010
0100
0001
0000
0010
0100
1000
0100
,
0010
0000
0000
0010
0000
0000
0001
0000
0100
0000
0010
0000
1000
0000
0100
0000
,
0010
0000
0000
0010
0000
0000
0001
0000
1000
0000
0010
0000
0100
0000
0001
0000
,
1000
0000
0000
1000
0000
0000
1000
0000
0100
0000
0000
0100
0000
0000
0100
0000
,
0010
0000
0000
0010
0000
0000
0010
0000
0001
0000
0100
0000
0010
0000
1000
0000
,
0001
0000
0000
0001
0000
0000
0001
0000
1000
0000
0100
0000
1000
0000
0010
0000
,
0100
0000
0000
0100
0000
0000
0100
0000
0001
0000
0010
0000
0100
0000
1000
0000
,
0001
0000
0000
0001
0000
0000
0001
0000
0100
0000
0000
0100
0000
0000
0100
0000
,
0010
1000
0100
0010
0001
1000
0100
0000
,
0001
0000
0000
0000
0001
0000
0000
0000
1000
0000
0000
1000
0000
0000
1000
0000
,
0100
0000
0010
0000
0010
0000
0000
0000
0001
0000
0000
0100
0000
0000
0010
0000
,
1000
0000
0000
0000
0001
0000
0000
0000
0010
0000
0000
0010
0000
0000
0010
0000
,
0100
0000
1000
0000
1000
0000
0000
0000
0001
0000
0000
0001
0000
0000
0100
0000
,
0010
0000
0000
0000
0010
0000
0000
0000
1000
0000
0000
1000
0000
0000
0100
0000
,
0010
0000
0001
0000
0001
0000
0000
0000
1000
0000
0000
0100
0000
0000
0010
0000
,
0001
0000
0000
0000
1000
0000
0000
0000
0010
0000
0000
0100
0000
0000
0001
0000
,
1000
0100
0100
0000
0010
0001
0010
0100
,
1000
0000
0000
1000
0000
0000
1000
0000
,
0010
0000
0000
0010
0000
0000
0000
0000
,
0001
0000
0000
0001
0000
0000
0100
0000
0010
0000
0000
0010
0000
0000
1000
0000
,
0001
0000
0000
0001
0000
0000
0010
0000
0100
0000
0000
1000
0000
0000
0001
0000
,
0110
0000
0000
0000
;

//---------------dance-double - ----------------
#NOTEDATA:;
#CHARTNAME:;
#STEPSTYPE:dance-double;
#DESCRIPTION:;
#CHARTSTYLE:;
#DIFFICULTY:Easy;
#METER:2;
#RADARVALUES:0.206016,0.265791,0.026316,0.000000,0.000000,274.000000,269.000000,5.000000,0.000000,0.000000,0.000000,0.000000,0.000000,0.000000,0.206016,0.265791,0.026316,0.000000,0.000000,274.000000,269.000000,5.000000,0.000000,0.000000,0.000000,0.000000,0.000000,0.000000;
#CREDIT:;
#DISPLAYBPM:132.000000;
#NOTES:
00000000
00000000
00000000
00000000
,
00000000
00000000
00000000
00000000
,
00000000
00000000
00000000
00000000
,
10000000
01000000
00100000
00000000
,
00001000
00001000
00000000
00000000
,
00010000
00001000
00100000
00000000
,
00001000
00010000
00000010
00000000
,
00001000
00000001
00000100
00000000
,
00000010
00000010
00000000
00000000
,
00010000
00000000
00010000
00000000
,
00001000
00000000
00001000
00000000
,
00000010
00000000
00000010
00000000
,
00001000
00000000
00010000
00000000
,
00001000
00000000
00001000
00000000
,
00010000
00000000
00010000
00000000
,
00100000
00000000
00100000
00000000
,
10000000
00000000
01000000
00100000
,
00010000
00000000
00010000
00000000
,
01000000
00000000
01000000
00000000
,
00001000
00010000
00001000
00000000
,
00000010
00000000
00000001
00000000
,
00001000
00000000
00001000
00000000
,
00000100
00000000
00000100
00000000
,
00010000
00001000
00010000
00000000
,
00100000
00000000
10000000
10000000
,
00010000
01000000
10000000
01000000
,
00010000
01000000
10000000
00000000
,
01000000
00000000
00010000
00000000
,
01000000
00010000
00001000
00000000
,
00000100
00000000
00000100
00000000
,
00000010
00000000
00000010
00000000
,
00000001
00000001
00000001
00000000
,
00001000
00001000
00000100
00000100
,
00010000
00001000
00000010
00000000
,
00000001
00000000
00001000
00000000
,
00000100
00000100
00000000
00000000
,
00010000
00010000
00000000
00000000
,
00001000
00100000
01000000
00000000
,
10000000
00010000
01000000
00000000
,
00001000
00001000
00000000
00000000
,
00010000
00010000
00000010
00001000
,
00000100
00000000
00000100
00000000
,
00010000
00000000
00010000
00000000
,
00001000
00000000
00010000
00000000
,
00011000
00000000
00100000
00010000
,
10000000
01000000
00010000
01000000
,
00001000
00010000
00000010
00001000
,
00000001
00000100
00001000
00000100
,
00000001
00000100
00001000
00010000
,
00011000
00000000
00100000
01000000
,
10000000
00000000
00010000
00000000
,
01000000
00001000
00010000
00000000
,
00000010
00000010
00001000
00000000
,
00000001
00000100
00001000
00000100
,
00000100
00000010
00000001
00000001
,
00001000
00000100
00010000
00001000
,
00100000
10000000
00010000
01000000
,
10000000
01000000
00010000
01000000
,
00001000
00010000
00000010
00001000
,
00000001
00000100
00000100
00001000
,
00010000
00001000
00100000
01000000
,
10010000
00000000
00010000
00010000
,
01000000
00001000
00010000
00000000
,
00000010
00000000
00000100
00000000
,
00000001
00000000
00001000
00000000
,
00001001
00000000
00000100
00010000
,
00001000
00001000
00100000
00100000
,
00010000
00000000
10000000
00000000
,
01000000
00000000
00010000
00010000
,
00001000
00000000
00000100
00000000
,
00000001
00000000
00001000
00000000
,
00000100
00010000
00001000
00000000
,
00100000
00000000
00010000
00000000
,
10000000
10000000
01000000
01000000
,
00100000
00000000
00001000
00001000
,
00010000
00000000
00100000
10000000
,
00010000
00000000
01000000
00001000
,
00010000
00010000
00000100
00000100
,
00000010
00000000
00000001
00000001
,
00001000
00000000
00000010
00010000
,
00001000
00001000
00010000
01000000
,
10000000
00000000
10000000
00000000
,
00010000
00000000
00010000
00000000
,
01000000
00000000
01000000
00000000
,
00001000
00000000
00001000
00010000
,
00000010
00000000
00000010
00000000
,
00001000
00000000
00001000
00000000
,
00000001
00000000
00000100
00000000
,
00000010
00001000
00000100
00000000
,
00010000
00001000
00000000
00000000
,
00100000
00010000
00000000
00000000
,
10000000
01000000
00000000
00000000
,
00100000
00100000
00010000
01000000
,
00000000
00001000
00000000
00010000
,
00000000
00000010
00000000
00001000
,
00000000
00000001
00000000
00000100
,
00000010
00000000
00000100
00000000
,
00001000
00000000
00010000
00001000
,
00000100
00000000
00000001
00000000
,
00001000
00000000
00000100
00000000
,
00010000
00000000
00001000
00010000
,
00011000
00000000
00000000
00000000
,
00000000
00000000
00000000
00000000
;

//---------------dance-double - ----------------
#NOTEDATA:;
#CHARTNAME:;
#STEPSTYPE:dance-double;
#DESCRIPTION:;
#CHARTSTYLE:;
#DIFFICULTY:Medium;
#METER:5;
#RADARVALUES:0.344363,0.372107,0.089474,0.000000,0.000000,458.000000,441.000000,17.000000,0.000000,0.000000,0.000000,0.000000,0.000000,0.000000,0.344363,0.372107,0.089474,0.000000,0.000000,458.000000,441.000000,17.000000,0.000000,0.000000,0.000000,0.000000,0.000000,0.000000;
#CREDIT:;
#DISPLAYBPM:132.000000;
#NOTES:
00000000
00000000
00000000
00000000
,
00000000
00000000
00000000
00000000
,
00000000
00000000
00000000
00000000
,
10000000
00010000
01000000
01000000
,
00001000
00010000
00001000
00000000
00100000
00000000
00100000
00000000
,
00010000
10000000
01000000
01000000
,
00100000
00001000
00010000
00010000
,
00000010
00001000
00000001
00000001
,
00000010
00000100
00000010
00000000
00000001
00000000
00000001
00000000
,
00001000
00001000
00000000
00000000
00000100
00000000
00000000
00000000
,
00010000
00000000
00000000
00000000
00001000
00001000
00000000
00000000
,
00000010
00000010
00000000
00000000
00000001
00000001
00000000
00000000
,
00000100
00000100
00000000
00000000
00000010
00000010
00000000
00000000
,
00010000
00000000
00001000
00000000
,
00010000
00000000
01000000
00000000
,
10000000
00000000
00100000
00000000
,
01000000
00000000
00000000
00000000
00010000
00000000
10000000
01000000
,
00100000
00000000
00010000
01000000
00010000
00000000
10000000
00000000
,
00010000
00010000
01000000
00001000
,
00000010
00000001
00000100
00000000
00000010
00001000
00000100
00000000
,
00010000
00001000
00100000
00010000
,
10000000
00000000
00100000
01000000
00100000
00000000
10000000
00000000
,
01000000
00100000
00010000
01000000
,
00001000
00010000
00000010
00000000
00001000
00000100
00000010
00000000
,
00000001
00000000
00000001
00000000
00001000
00000100
00001000
00000000
,
00000000
00000010
00000010
00000000
00010000
00000000
00001000
00000000
,
00000000
00100000
00100000
00000000
00010000
00000000
10000000
00000000
,
00000000
00100000
00100000
00000000
01000000
00000000
00001000
00000000
,
00000000
00100000
00100000
00000000
01000000
00000000
00010000
00000000
,
00001000
00001000
00000100
00000100
,
00000001
00000001
00000010
00000010
,
00000100
00000100
00000100
00010000
,
00001000
00000000
00001000
00000000
00001000
00000000
00100000
01000000
,
10000000
00000000
00010000
01000000
00010000
00000000
00100000
00000000
,
00001000
00000000
00010000
00001000
00010000
00000000
00000100
00000000
,
00000010
00000000
00000010
00000000
00000001
00000100
00000001
00000000
,
00001000
00000000
00001000
00000000
00000100
00010000
00000100
00000000
,
00001000
00000000
00001000
00000000
00000001
00000100
00000010
00000000
,
00001000
00000000
00001000
00000010
00001000
00000000
00000100
00000000
,
00010000
00001000
00100000
00100000
,
00010000
10000000
01000000
00000000
00010000
10000000
01000000
00000000
,
00100000
00100000
00001000
00001000
,
00010000
00010000
00000100
00000010
,
00000001
00000000
00000001
00000000
00001000
00000100
00001000
00000100
,
00000000
00000000
00011000
00011000
,
00100000
00000000
01000000
00000000
10000000
00100000
10000000
00100000
,
00000000
00000000
01010000
00000000
00001000
00010000
00001000
00010000
,
00000000
00001010
00000100
00000001
,
00000010
00000000
00000010
00000000
00000100
00001000
00000100
00000000
,
00010000
00000000
00001000
00000000
00100000
00010000
00100000
00010000
,
00000000
00000000
11000000
00000000
00010000
01000000
00010000
01000000
,
00000000
00001000
00000000
00001000
00000000
00001000
00000000
00001000
,
00010000
00000000
00010000
00000000
00000010
00001000
00000100
00000000
,
00010000
00000000
00010000
00000000
00001000
00100000
00001000
00100000
,
00000000
00010000
00010000
00000000
10000000
00000000
01000000
00000000
,
00100000
00000000
00100000
00000000
00001000
00010000
00001000
00000000
,
00100000
01000000
10000000
00000000
00010000
01000000
00100000
00000000
,
00010000
00000000
00001000
00000000
00010000
00010000
00000010
00000000
,
00001000
00000001
00000010
00000100
,
00001000
00001000
00000010
00000000
00010000
00010000
00001000
00000000
,
01000000
00000000
00100000
00000000
10000000
00000000
01000000
01000000
,
00100000
00000000
00100000
00000000
00010000
01000000
00100000
00000000
,
10010000
01001000
00011000
00000000
,
00000010
00000000
00000010
00000000
00000100
00000001
00000010
00000000
,
00000100
00000100
00001000
00001000
,
00000010
00000000
00010000
00000000
00001000
00010000
00100000
00000000
,
10000000
00000000
01000000
00000000
00100000
00010000
00100000
00000000
,
00001000
00010000
00001000
00000000
00000100
00001000
00000100
00000000
,
00000010
00000010
00000001
00001000
,
00000100
00000000
00000100
00000000
00000100
00000000
00000100
00010000
,
00001000
00000000
00001000
00000000
00001000
00000000
00001000
00100000
,
00010000
00000000
10000000
00000000
01000000
00000000
00100000
00010000
,
00000000
00000000
10000000
01000000
00000000
00000000
00100000
00000000
,
10010000
00000000
01000000
00000000
00010000
01000000
00010000
00000000
,
00011000
00000000
00000000
00000000
00000010
00000001
00000010
00000000
,
00001001
00000000
00000000
00000000
00000100
00010000
00000100
00000000
,
00011000
00000000
00100000
01000000
,
10010000
00000000
01000000
00000000
00001000
00010000
00001000
00000000
,
00110000
00000000
00000000
00000000
00001000
00010000
00001000
00000000
,
00000010
00000001
00000100
00000010
,
00001001
00000000
00000110
00000000
00001000
00000100
00010000
00000000
,
00001000
00100000
00010000
00000000
,
10000000
10000000
00100000
00100000
,
01000000
01000000
00010000
00010000
,
00100000
00000000
00100000
00000000
00001000
00010000
00001000
00000000
,
00000010
00000010
00000001
00000001
,
00001000
00001000
00000100
00000100
,
00010000
00010000
00001000
00001000
,
00100000
00010000
00100000
00010000
01000000
00100000
10000000
00000000
,
00010000
00010000
00010000
00000000
01000000
00000000
00001000
00000000
,
00010000
00010000
00010000
00000000
00000010
00000000
00001000
00000000
,
00000001
00000001
00000001
00000000
00001000
00000000
00000100
00000000
,
00010000
00010000
00010000
00010000
00001000
00000000
00100000
00000000
,
00010000
00000000
00010000
00000000
10000000
01000000
00100000
00000000
,
00010000
00000000
00010000
00000000
01000000
00100000
10000000
00000000
,
01000000
00000000
00010000
00000000
00001000
00010000
00001000
00000000
,
00000010
00000000
00000001
00000000
00001000
00000100
00001000
00000000
,
00000010
00000010
00000010
00000010
,
00010000
00010000
00010000
00000000
,
00001000
00010000
00100000
00000000
00001000
00010000
00100000
00000000
,
10000000
00010000
01000000
00100000
,
10010000
00000000
00000000
00000000
,
00000000
00000000
00000000
00000000
;

//---------------dance-double - ----------------
#NOTEDATA:;
#CHARTNAME:;
#STEPSTYPE:dance-double;
#DESCRIPTION:;
#CHARTSTYLE:;
#DIFFICULTY:Hard;
#METER:8;
#RADARVALUES:0.544364,0.877110,0.100001,0.000000,0.218422,724.000000,705.000000,19.000000,0.000000,0.000000,0.000000,0.000000,0.000000,0.000000,0.544364,0.877110,0.100001,0.000000,0.218422,724.000000,705.000000,19.000000,0.000000,0.000000,0.000000,0.000000,0.000000,0.000000;
#CREDIT:;
#DISPLAYBPM:132.000000;
#NOTES:
00000000
00000000
00000000
00000000
,
00000000
00000000
00000000
00000000
,
00000000
00000000
00000000
00000000
,
10000000
01000000
10000000
01000000
00000000
00000000
00000000
00000000
00100000
00000000
00000000
00100000
00000000
00000000
00000000
00000000
,
00001000
00010000
00001000
00010000
00000000
00000000
00000000
00000000
00000100
00000000
00000000
00000100
00000000
00000000
00000000
00000000
,
00000010
00000001
00000010
00000001
00000000
00000000
00000000
00000000
00000100
00000000
00000000
00000100
00000000
00000000
00000000
00000000
,
00000010
00001000
00000010
00001000
00000000
00000000
00000000
00000000
00000100
00000000
00000000
00000100
00000000
00000000
00000000
00000000
,
00010000
00001000
00010000
00001000
00000000
00000000
00000000
00000000
00100000
00000000
00000000
00100000
00000000
00000000
00000000
00000000
,
00010000
10000000
00010000
10000000
00000000
00000000
00000000
00000000
01000000
00000000
00000000
01000000
00000000
00000000
00000000
00000000
,
00100000
00001000
01000000
00001000
00100000
00001000
01000000
00001000
,
00100000
00000000
00001000
00000000
01000000
00000000
00001000
00000000
00100000
00000000
00001000
00000000
01000000
00000000
00001000
00010000
,
00000100
00001000
00000010
00001000
00000100
00001000
00000010
00001000
,
00000100
00000000
00001000
00000000
00000010
00000000
00001000
00000000
00000100
00000000
00001000
00000000
00000010
00000000
00001000
00000001
,
00000100
00000010
00001000
00000010
00000100
00000010
00001000
00000010
,
00000100
00000000
00000010
00000000
00001000
00000000
00000010
00000000
00000100
00000000
00000010
00000000
00001000
00000000
00000010
00010000
,
00001000
00100000
00010000
00100000
00001000
00100000
00010000
00100000
,
00001000
00100000
00010000
00100000
00001000
00100000
00010000
00100000
,
01000000
00000000
00000000
01000000
00000000
00000000
01000000
00000000
10000000
00000000
00000000
10000000
00000000
00000000
10000000
00000000
,
00010000
00000000
00000000
00010000
00000000
00000000
00010000
00000000
01000000
00000000
00000000
01000000
00000000
00000000
01000000
00000000
,
00001000
00000000
00000000
00001000
00000000
00000000
00001000
00000000
00010000
00000000
00000000
00010000
00000000
00000000
00010000
00000000
,
00000010
00000000
00000000
00000010
00000000
00000000
00000010
00000000
00001000
00000000
00000000
00000001
00000000
00000000
00000100
00000000
,
00000010
00000000
00000000
00000000
00001000
00000100
00001000
00000100
00001000
00000100
00001000
00000100
00001000
00000100
00001000
00000100
,
00001000
00000100
00001000
00000100
00001000
00000100
00001000
00000100
00001000
00000100
00001000
00000100
00001000
00000100
00001000
00000100
,
00001000
00000100
00001000
00000100
00001000
00000100
00001000
00000100
00001000
00000100
00001000
00000100
00001000
00000100
00001000
00000100
,
00001000
00000000
00000000
00000000
,
00010000
00000000
00001000
00000000
00010000
00000000
01000000
00000000
10000000
00000000
00010000
01000000
00001000
00000000
00000000
00000000
,
00010000
00000000
00001000
00000000
00010000
00000000
01000000
00000000
10000000
00000000
00010000
01000000
00001000
00000000
00000000
00000000
,
00010000
00000000
00001000
00000000
00010000
00000000
01000000
00000000
10000000
00000000
00010000
01000000
00001000
00000000
00000000
00000000
,
00010000
00000000
00001000
00000000
00010000
00000000
01000000
00000000
10000000
00000000
00010000
01000000
00001000
00000000
00000000
00000000
,
00010000
00000000
00000000
00010000
00000000
00000000
00010000
00000000
00000010
00000000
00000000
00000010
00000000
00000000
00000010
00000000
,
00001000
00000000
00000000
00001000
00000000
00000000
00001000
00000000
00000001
00000000
00000000
00000001
00000000
00000000
00000001
00000000
,
00000110
00000000
00000000
00000110
00000000
00000000
00000110
00000000
00000000
00000000
00000000
00000000
00000000
00000000
00000000
00000000
,
00011000
00000000
00000000
00011000
00000000
00000000
00000000
00000000
00000000
00000000
01100000
00000000
00000000
10010000
00000000
00000000
,
00100000
00000000
00100000
00000000
01000000
10000000
01000000
10000000
,
00100000
00000000
00100000
00000000
01000000
00001000
01000000
00001000
,
00010000
00000000
00010000
00000000
00000010
00001000
00000010
00001000
,
00000001
00000000
00000001
00000000
00000010
00000100
00000010
00000100
,
00001000
00000000
00001000
00000000
00000010
00010000
00000010
00010000
,
00001000
00000000
00001000
00000000
01000000
00010000
01000000
00010000
,
10000000
00000000
10000000
00000000
01000000
00100000
01000000
00100000
,
00010000
01000000
00001000
00000010
,
00000001
00000001
00000010
00000100
00001000
00000001
00000100
00000010
,
00001000
00001000
00000100
00010000
00000010
00001000
00000100
00010000
,
00001000
00001000
00100000
00010000
01000000
00100000
10000000
00010000
,
00000000
00000000
00000000
00010000
10000000
01000000
00100000
00001000
,
00011000
00000000
00000000
00000000
00000010
00000000
00001000
00000000
00000001
00000000
00000010
00000100
00001000
00000000
00000001
00000000
,
00000100
00000000
00000010
00000000
00001000
00000000
00000001
00000000
00000010
00000000
00000100
00001000
00000010
00000000
00010000
00000000
,
00001000
00000000
01000000
00000000
00001000
00000000
00010000
00000000
00000010
00000000
00001000
00000100
00010000
00000000
00001000
00000000
,
00100000
00010000
01000000
00100000
10000000
01000000
00100000
00000000
,
10010000
00000000
00000000
00000000
00100000
00000000
01000000
00000000
00010000
00000000
00100000
01000000
10000000
00000000
00010000
00000000
,
01000000
00000000
00001000
00000000
00010000
00000000
00000010
00000000
00001000
00000000
00000001
00000010
00000100
00000000
00001000
00000000
,
00000010
00000100
00000001
00000010
00000100
00001000
00000001
00000001
,
00000100
00000000
00001000
00000000
00010000
01000000
10000000
00000000
,
00010000
01000000
10000000
01000000
00010000
01000000
10000000
01000000
,
00010000
00100000
10000000
00100000
00010000
00100000
10000000
00100000
,
00010000
01000000
00001000
00100000
00010000
01000000
00001000
00100000
,
00001000
00000010
00000001
00000100
00000010
00001000
00000001
00000000
,
00000001
00000100
00001000
00010000
00000100
00000001
00000100
00001000
,
00000010
00000001
00000010
00001000
00000100
00010000
00001000
00100000
,
00010000
10000000
00100000
01000000
00010000
00100000
01000000
10000000
,
00010000
01000000
01000000
00000000
00101000
00000000
00010100
00000000
,
00000000
00000000
00000000
00000000
,
00000000
00000000
00000000
00001001
,
00000010
00000100
00001000
00000010
00000100
00000001
00000100
00000010
,
00001000
00000000
00000000
00001000
00000001
00000000
00000000
00000000
00001000
00000000
00000000
00001000
00000001
00000000
00000000
00000000
,
00000100
00001000
00010000
00001000
00010000
01000000
10000000
00100000
,
01000000
00000000
00010000
00000000
00100000
00000000
01000000
00000000
10000000
00000000
00000000
10000000
00010000
00000000
00000000
00000000
,
01000000
00001000
00100000
01000000
10000000
00100000
00010000
00001000
,
00000010
00000000
00000001
00000000
00000100
00000000
00001000
00000000
00010000
00000000
00000000
01000000
00000000
00000000
10000000
00000000
,
00010000
00010000
01000000
10000000
01000000
01000000
00010000
00100000
,
10000000
00100000
00001000
00010000
00001000
00000010
00000001
00000100
,
00000010
00001000
00000100
00000010
00000001
00001000
00000100
00000100
,
00000000
00010000
00001000
00001000
00000000
00100000
01000000
00100000
,
10010000
00000000
00000000
00000000
00100000
00000000
01000000
00000000
00001000
00000000
00010000
00001000
00010000
00000000
00000100
00000000
,
00001000
00000000
00000010
00000000
00000100
00000000
00000001
00000000
00000010
00000000
00000100
00001000
00000100
00000000
00010000
00000000
,
00001000
00000000
00000010
00000000
00000001
00000000
00000100
00000000
00000010
00000000
00001000
00000100
00010000
00000000
00001000
00000000
,
00100000
00000000
10000000
00000000
00100000
00000000
00010000
00000000
01000000
00000000
00100000
10000000
01000000
00000000
00100000
00000000
,
10010000
00000000
00000000
00000000
00100000
00000000
01000000
00000000
00010000
00000000
10000000
01000000
00100000
00000000
00010000
00000000
,
01000000
00000000
01000000
00000000
00001000
00000000
00001000
00000000
00010000
00000000
00000010
00001000
00000100
00000000
00000010
00000000
,
00000001
00000001
00000001
00000100
00000010
00000010
00000010
00001000
,
00000100
00010000
00101000
00010000
01000000
00001000
00010000
00000000
,
00011000
00000000
00011000
00000000
00011000
00000010
00001000
00000100
,
00010000
00001000
00100000
00010000
01000000
00001000
00010000
00000000
,
00000010
00000000
00000000
00000010
00000000
00000000
00000010
00000000
00000100
00000000
00000000
00000100
00000000
00000000
00000100
00000000
,
00000001
00000000
00000000
00000001
00000000
00000000
00000001
00000000
00000010
00000000
00000000
00000100
00000000
00000000
00001000
00000000
,
00000010
00010000
00001000
01000000
00010000
10000000
00100000
01000000
,
00010000
00100000
01000000
00010000
00001000
00000100
00000001
00000000
,
00001000
00000000
00000000
00001000
00000000
00000000
00001000
00000000
00000100
00000000
00000000
00000100
00000000
00000000
00000100
00000000
,
00010000
00001000
00100000
00000000
00001000
00010000
00000100
00000000
,
00000010
00000001
00000100
00000000
00000010
00001000
00000010
00001000
,
00000100
00010000
00001000
00000000
00000010
00000001
00000100
00000010
,
00001000
00000100
00010000
00000000
00001000
00100000
00010000
01000000
,
00001000
00010000
00000010
00000000
00001000
00000001
00000010
00000100
,
00001000
00000010
00000100
00000000
00001000
00010000
01000000
10000000
,
00100000
01000000
00010000
00000000
00100000
00001000
00010000
01000000
,
10000000
00010000
01000000
00000000
00100000
00010000
00001000
00000010
,
00000001
00001000
00000100
00000000
00010000
00001000
00010000
00001000
,
00100000
00100000
00010000
10000000
10000000
01000000
00100000
00010000
,
01000000
01000000
00001000
00010000
00000010
00000010
00000010
00000010
,
00001000
00000001
00000010
00000100
00001000
00000010
00010000
00001000
,
00100000
10000000
00100000
00010000
01000000
00100000
10000000
00010000
,
01100000
00000000
00000000
00000000
,
00000000
00000000
00000000
00000000
;

//---------------dance-single - ----------------
#NOTEDATA:;
#CHARTNAME:;
#STEPSTYPE:dance-single;
#DESCRIPTION:;
#CHARTSTYLE:;
#DIFFICULTY:Challenge;
#METER:14;
#RADARVALUES:0.654139,0.797373,0.626319,0.215791,0.468424,870.000000,751.000000,119.000000,41.000000,0.000000,0.000000,0.000000,0.000000,0.000000,0.654139,0.797373,0.626319,0.215791,0.468424,870.000000,751.000000,119.000000,41.000000,0.000000,0.000000,0.000000,0.000000,0.000000;
#CREDIT:;
#DISPLAYBPM:132.000000;
#NOTES:
// measure 0
0000
0000
0000
0000
,  // measure 1
0000
0000
0000
0000
,  // measure 2
0000
0000
0000
0000
,  // measure 3
0001
1000
0000
0001
0000
0000
1000
0000
0001
0000
0000
1000
0000
0000
0001
0000
,  // measure 4
1000
0001
0000
1000
0000
0000
0001
0000
1000
0000
0000
0001
0000
0000
1000
0000
,  // measure 5
0010
0100
0000
0010
0000
0000
0100
0000
0010
0000
0000
0100
0000
0000
0010
0000
,  // measure 6
0100
0010
0000
0100
0000
0000
0010
0000
0100
0000
0000
0010
0000
0000
0100
0000
,  // measure 7
0010
1000
0000
0001
0000
0000
0010
0000
0001
0000
0000
1000
0000
0000
0010
0000
,  // measure 8
0100
0001
0000
1000
0000
0000
0100
0000
1000
0000
0000
0100
0000
0000
1000
0000
,  // measure 9
0001
0000
0000
0001
0000
0010
0001
0000
0010
0000
0000
0001
0000
0000
1000
0000
,  // measure 10
0010
1000
0000
0010
0000
1000
0010
0000
0100
0000
0000
0010
0000
0000
0001
0000
,  // measure 11
1000
0001
0000
1000
0000
0001
1000
0000
0100
0000
0000
1000
0000
0000
0100
0000
,  // measure 12
0010
0000
0000
0001
0000
0000
0010
0000
0001
0000
0000
0100
0000
0000
0010
0000
,  // measure 13
1000
0000
0000
0100
0000
0000
1000
0000
0010
0000
0000
0001
0000
0000
1000
0000
,  // measure 14
0001
0000
0000
0010
0000
0000
0100
0000
0010
0000
0000
0001
0000
0000
0100
0000
,  // measure 15
0010
0000
0000
0100
0000
0000
1000
0000
0100
0000
0000
0010
0000
0000
1000
0000
,  // measure 16
0100
1000
0000
0100
0000
1000
0100
0000
1000
0000
0000
0100
0000
0000
0010
0100
,  // measure 17
0002
0010
0100
1003
,  // measure 18
1000
0001
0100
0010
0000
0010
0100
0010
,  // measure 19
0200
0001
0001
0300
,  // measure 20
0010
1000
0100
0010
0001
0000
1001
0000
,  // measure 21
1000
0100
1000
0100
0010
0001
0010
0001
,  // measure 22
1000
0001
1000
0001
0100
0010
0100
0010
,  // measure 23
1000
0010
0000
1000
0010
0000
0100
0001
0000
0100
0001
0000
1000
0001
1000
0001
,  // measure 24
0100
0000
0000
0010
0200
0000
0000
0000
1300
0000
0010
0000
0100
0000
0000
0000
,  // measure 25
0001
0010
0000
0010
0100
0000
1000
0000
0001
0100
0000
0100
0010
0000
1000
0000
,  // measure 26
0010
1000
0000
1000
0001
0000
0100
0000
0010
0001
0000
0001
0010
0000
0100
0000
,  // measure 27
0001
0100
0000
0100
1000
0000
0010
0000
0100
0001
0000
0001
1000
0000
0010
0000
,  // measure 28
0100
0010
0000
0010
1000
0000
0001
0000
0010
0100
0000
0100
1000
0000
0001
0000
,  // measure 29
1000
0001
0000
0001
0100
0000
0001
0000
0010
0000
0100
1000
0000
1000
0100
0000
,  // measure 30
1000
0010
0000
0010
0100
0000
0001
0000
1000
0000
0100
1000
0000
1000
0001
0000
,  // measure 31
0100
0001
0000
0100
0001
0000
1000
0010
0000
1000
0010
0000
0100
0001
0100
0001
,  // measure 32
1000
0001
0000
0001
1000
0001
1000
0001
1000
0001
0000
0001
0000
1000
0001
0000
,  // measure 33
0001
0010
0100
1000
0001
1000
0100
0010
,  // measure 34
0000
0110
0110
0200
1300
0010
0100
0001
,  // measure 35
0010
0000
0011
0000
0011
0000
0002
0103
0010
0000
1000
0000
0100
0000
1000
0000
,  // measure 36
0100
0000
1100
0000
1100
0000
1100
0000
1000
0000
0100
1000
0001
0000
0101
0000
,  // measure 37
0100
0000
0010
0000
1000
0001
0100
0000
0010
0000
1000
0000
0100
0000
0010
0000
,  // measure 38
0001
0000
0011
0000
0011
0000
0000
0001
0100
0000
0010
0000
1000
0000
0100
0000
,  // measure 39
1000
0000
1100
0000
1100
0000
0000
1000
0100
0000
1000
0000
0001
0000
0100
0000
,  // measure 40
0020
0000
0000
0100
0000
0000
0001
0000
1030
0000
0000
0001
1000
0000
0000
0000
,  // measure 41
1100
0000
0000
0100
1000
0000
0001
0000
0101
0000
0000
0100
0001
0000
1000
0000
,  // measure 42
1001
0000
0000
0010
0001
0000
0100
0000
0110
0000
0000
0100
1000
0000
0100
0000
,  // measure 43
1100
0000
1010
0000
0100
0001
1000
0001
,  // measure 44
1000
0001
1000
0001
1000
0001
1000
0001
1000
0000
1000
0000
0001
0000
0001
0000
,  // measure 45
1000
0000
0000
0001
0100
0000
0000
0000
0010
0000
1000
0000
0001
0000
0100
0000
,  // measure 46
0000
0110
0110
0010
1000
0001
0100
0010
,  // measure 47
0000
0000
0110
0000
0110
0000
0100
0000
1000
0001
1000
0000
0010
0000
0100
0000
,  // measure 48
0000
0000
0110
0000
0110
0000
0100
1000
0002
0000
0103
0000
0020
0000
1030
0000
,  // measure 49
1100
0000
0000
0100
1000
0000
0000
0000
1000
0000
0100
0000
0010
0000
0002
0000
,  // measure 50
0000
0000
1000
0000
1003
0000
0001
1000
0100
0000
0010
0000
0001
0000
0001
0010
,  // measure 51
0001
0000
0000
0100
0010
0000
0000
1000
0100
1000
0100
1000
0100
1000
0100
0000
,  // measure 52
2100
3100
0210
0310
0011
0001
0101
0000
,  // measure 53
0101
0000
0000
0001
0000
0000
0010
0000
0001
0000
0000
0100
0000
0000
0010
0000
,  // measure 54
1010
0000
1100
0000
1100
0000
0000
0000
1000
0000
0000
0001
0000
0000
0100
0000
,  // measure 55
0101
0000
0000
0000
0011
0000
0000
0000
0110
0000
0000
0110
0000
0000
1100
0000
,  // measure 56
0000
0000
1010
0000
1010
0000
1000
0000
1001
0000
0000
0101
0000
0000
0011
0000
,  // measure 57
0001
0000
0000
0000
0101
0000
0000
0000
1010
0000
0000
0101
0000
0000
0011
0000
,  // measure 58
0000
0000
0100
0000
1000
0000
0000
0000
1100
0000
0000
0110
0000
0000
0011
0000
,  // measure 59
0102
0000
0000
0000
1003
0000
0000
0000
1010
0000
0000
1001
0000
0000
0011
0000
,  // measure 60
0000
0000
0110
0000
0110
0000
0100
1000
0001
0000
0000
1001
0000
0000
1001
0000
,  // measure 61
1000
0100
0010
0100
1000
0001
0100
0010
,  // measure 62
0100
0000
0000
0010
0000
0000
0001
0000
2000
0000
0000
0000
3000
0000
0000
0000
,  // measure 63
1001
0000
0000
0001
0010
0000
0200
0000
0000
0000
2300
0000
0100
0000
3200
0000
,  // measure 64
0000
0320
0000
0031
0100
0010
1000
0100
,  // measure 65
1100
0000
0100
1000
0010
0000
0100
0000
0001
0000
0010
0000
0001
0000
1000
0000
,  // measure 66
1001
0000
0000
0001
0010
0000
0100
0000
1000
0000
0100
0000
0010
0000
0001
0000
,  // measure 67
0101
0000
0000
0100
0001
0000
1000
0000
0010
0000
1000
0000
0100
0000
0010
0000
,  // measure 68
0020
0000
0000
0100
0000
0000
0100
0000
0130
0000
0000
0100
0010
0000
0000
0000
,  // measure 69
0011
0000
0000
0100
0001
0000
1000
0000
1010
0000
0000
1000
0100
0000
1000
0000
,  // measure 70
0002
0000
1003
0001
0000
0001
0100
0010
,  // measure 71
1010
0000
0101
0000
0001
0100
0010
2000
,  // measure 72
0000
3010
1000
2000
0000
0200
0000
3300
,  // measure 73
1100
0000
0000
1000
0010
0000
0000
0100
0001
0000
0010
0000
0001
0000
1000
0000
,  // measure 74
0000
0000
1001
0000
1001
0000
0001
0100
0010
0000
1000
0000
0100
0000
0001
0000
,  // measure 75
0000
0000
1100
0000
1100
0000
1000
0010
0100
0000
1000
0000
0010
0000
0001
0000
,  // measure 76
0000
0000
0101
0000
0101
0000
0001
1000
0200
0000
1000
0000
0320
0000
0100
0000
,  // measure 77
0031
0000
0000
0001
0010
0000
0100
0000
1000
0000
0001
0000
0100
0000
0010
0000
,  // measure 78
2000
0000
0001
0000
3001
0000
0001
1000
0200
0000
1300
0000
0020
0000
0130
0000
,  // measure 79
0001
0000
0000
0010
0001
0000
0000
0100
0010
0000
0000
1000
0100
0000
0000
1000
,  // measure 80
0001
0000
0000
0001
0100
0000
0000
0010
1000
0010
1000
0020
0200
0000
0330
0000
,  // measure 81
0110
0000
0000
0100
0001
0000
0000
1000
0100
0000
0010
0000
0001
0000
1000
0000
,  // measure 82
0000
0000
1001
0000
1001
0000
0001
1000
0100
0000
0010
0000
0001
0000
1000
0000
,  // measure 83
0000
0000
1001
0000
1001
0000
0001
0100
0010
0000
1000
0000
0001
0000
1000
0000
,  // measure 84
0000
0000
1001
0000
1001
0000
0001
1000
0200
0000
0301
0000
2000
0000
3010
0000
,  // measure 85
0110
0000
0000
0100
0001
0000
0000
1000
0100
0000
1000
0000
0001
0000
0100
0000
,  // measure 86
0000
0000
0110
0000
0110
0000
0010
1000
0001
0000
0010
0000
0001
0000
1000
0001
,  // measure 87
0100
0000
0000
0001
0010
0000
0000
0100
1000
0010
0100
0010
1000
0010
0100
0000
,  // measure 88
0120
0031
0012
0103
0101
0011
0101
0000
,  // measure 89
0101
0101
1100
0000
1100
1100
1010
1010
,  // measure 90
0011
0011
0101
0000
0110
0110
1100
1100
,  // measure 91
1001
0000
1001
0000
0011
0000
0000
0000
0101
0000
0000
0110
0000
0000
1010
0000
,  // measure 92
1000
0000
0100
0000
0010
0000
0100
0000
1100
0000
0110
0000
0010
0001
0100
0010
,  // measure 93
1000
0010
0100
0001
1000
0000
0100
0010
0100
0000
0001
0010
0001
0000
0100
0010
,  // measure 94
1000
0000
1010
0000
1010
0000
0000
0000
0101
0000
0000
0011
0000
0000
1001
0000
,  // measure 95
1001
0000
0000
0010
0001
0000
0000
1000
0100
0000
0000
0110
0000
0000
0011
0000
,  // measure 96
0001
0000
1000
0000
0001
0000
1000
0000
0010
0000
0100
0000
0010
0100
0010
0100
,  // measure 97
0002
0000
0000
0000
0013
0000
0002
0000
0000
0000
0013
0000
0001
1000
0001
0000
,  // measure 98
2000
0000
0000
0000
3100
0000
2000
0000
0000
0000
3100
0000
1000
0010
0100
0000
,  // measure 99
0020
0000
0000
0000
1030
0000
0020
0000
0000
0000
1030
0000
0010
0001
0100
0000
,  // measure 100
0200
0000
0000
0000
0310
0000
0200
0000
0000
0000
0310
0000
0100
0001
1000
0000
,  // measure 101
0100
0000
0000
0000
;
