#TITLE:ONE TWO (LITTLE BITCH);
#SUBTITLE:;
#ARTIST:BUSā˜…STOP;
#TITLETRANSLIT:;
#SUBTITLETRANSLIT:;
#ARTISTTRANSLIT:;
#GENRE:;
#CREDIT:;
#BANNER:ONE TWO (LITTLE BITCH).png;
#BACKGROUND:ONE TWO (LITTLE BITCH)-bg.png;
#LYRICSPATH:;
#CDTITLE:;
#MUSIC:ONE TWO (LITTLE BITCH).ogg;
#OFFSET:0.000000;
#SAMPLESTART:18.201000;
#SAMPLELENGTH:15.000000;
#SELECTABLE:YES;
#DISPLAYBPM:145.000000;
#BPMS:0.000000=145.044006
;
#STOPS:
;
#BGCHANGES:;
#KEYSOUNDS:;
#ATTACKS:;

//---------------dance-single - ----------------
#NOTES:
     dance-single:
     :
     Easy:
     6:
     0.282525,0.374934,0.208755,0.000000,0.000000,180.000000,161.000000,19.000000,0.000000,0.000000,0.000000,0.282525,0.374934,0.208755,0.000000,0.000000,180.000000,161.000000,19.000000,0.000000,0.000000,0.000000:
0000
0000
0000
0000
,
0000
0000
0000
0000
,
0000
0000
0000
0000
,
0000
0000
0000
0000
,
0000
0010
0100
0000
,
0000
0100
0000
0100
,
0000
0001
0000
0001
,
0000
1000
0000
1000
,
0000
0010
0010
0100
,
0001
1000
0010
0100
,
0001
0100
0010
1000
,
0100
0001
1000
0010
,
0100
0100
0010
1001
,
0010
0110
1000
1001
,
1000
1000
0001
1000
,
0001
1001
0100
0110
,
0001
1001
0110
0100
,
0010
0010
0100
0100
,
0001
0100
0001
1000
,
0000
1000
0001
0000
,
1000
0100
1000
0100
,
0010
0001
1000
0100
,
0010
0010
1001
1001
,
0100
0100
0010
1000
,
0001
0010
0001
0010
,
0001
0010
0100
1000
,
0001
0001
0110
0110
,
1000
1000
0001
0100
,
0000
0001
0000
1000
,
0000
0010
0000
0100
,
0001
0000
0001
0100
,
0010
0000
0010
1000
,
0000
0010
0001
0001
,
0000
0100
0010
1000
,
0000
0001
0000
0001
,
0000
1000
0010
0001
,
0010
0000
0100
0000
,
0001
0100
0010
1000
,
0001
0000
0001
0000
,
1000
0000
1000
0000
,
0010
0000
0100
0000
,
0010
1000
0001
1000
,
0001
0000
0001
0000
,
0000
0100
0100
0110
,
1000
0010
0100
0001
,
0100
0100
0010
1001
,
0010
0110
1000
1001
,
1000
1000
0001
1000
,
0001
1001
0100
0110
,
0001
1001
0110
0100
,
0010
0010
0100
0100
,
0001
0100
0001
1000
,
0000
0001
1000
0000
;

//---------------dance-single - ----------------
#NOTES:
     dance-single:
     :
     Medium:
     8:
     0.412800,0.519140,0.824031,0.000000,0.000000,263.000000,188.000000,75.000000,0.000000,0.000000,0.000000,0.412800,0.519140,0.824031,0.000000,0.000000,263.000000,188.000000,75.000000,0.000000,0.000000,0.000000:
0000
0000
0000
0000
,
0000
0000
0000
0000
,
0000
0000
0000
0000
,
0000
0000
0000
0000
,
0000
0010
0100
0000
,
0001
0100
0010
1000
,
0010
0010
0100
0001
,
1000
0001
1000
0001
,
0100
0101
0100
1001
,
0100
1100
0100
1000
,
0001
0001
0100
0001
,
1001
1001
1001
1001
,
0101
1001
1100
1001
,
0110
0110
1001
0110
,
0011
1001
1010
1001
,
0101
1100
0101
1100
,
0011
1010
0011
1010
,
0100
0110
0001
1001
,
0011
1100
0011
1100
,
0000
0001
1000
0000
,
0010
0010
1000
1000
,
0100
0000
0100
0001
1000
0001
1000
0001
,
0100
0100
0010
0010
,
1000
0001
0000
0000
0000
0000
1001
0000
,
0100
0100
0010
0100
,
0001
0000
0001
1000
0100
1000
0100
1000
,
0010
0000
0100
0001
,
0100
0010
0000
0000
0000
0000
0010
0000
,
1000
0000
0000
0001
0100
0000
0000
0010
,
1000
0000
0000
0100
1000
0000
0001
0000
,
0100
0000
0100
0001
1000
0000
1000
0000
,
0010
0100
0001
1000
,
0001
0000
0001
1000
0010
0000
0100
0000
,
0000
0001
0000
0100
,
0001
0000
1000
0000
,
0001
0100
0010
1000
,
0001
0001
0000
0000
1000
1000
0000
0000
,
0101
1100
0101
1100
,
0010
0000
0010
0000
,
0010
1000
0001
0100
,
0010
0010
0000
0000
0100
0100
0000
0000
,
0011
1010
0011
1010
,
0100
0000
0100
0000
,
0001
0100
0010
1001
,
1001
1001
0101
0101
,
0110
0110
0110
0110
,
1010
1010
1001
1001
,
0110
1001
0110
1001
,
1010
0011
1010
0011
,
1100
0101
1100
0101
,
0011
1001
1010
1001
,
1010
1001
1100
1001
,
0100
0001
1000
0000
;

//---------------dance-single - ----------------
#NOTES:
     dance-single:
     :
     Hard:
     11:
     0.470875,0.547981,0.417509,0.000000,0.000000,300.000000,262.000000,38.000000,0.000000,0.000000,0.000000,0.470875,0.547981,0.417509,0.000000,0.000000,300.000000,262.000000,38.000000,0.000000,0.000000,0.000000:
0000
0000
0000
0000
,
0000
0000
0000
0000
,
0000
0000
0000
0000
,
0000
0000
0000
0000
,
0000
0001
1000
0000
,
0001
0000
0100
0000
0010
0000
1000
1000
,
0001
0000
0010
0000
0100
0000
1000
1000
,
0001
0001
0100
0100
0010
0010
1000
1000
,
0010
0010
1010
0010
0100
0100
0101
0100
,
0010
1000
0001
0100
0010
1000
0001
0100
,
0010
0000
0010
0000
0010
0100
0010
0100
,
1001
1001
1001
1001
,
0110
0110
0110
0110
,
1001
1001
0110
0110
,
1001
0110
1001
0110
,
1000
0001
1000
0001
1000
0001
1000
0001
,
0010
0100
0010
0100
0010
0100
0010
0100
,
1000
0001
1000
0001
0010
0100
0010
0100
,
1000
0001
0010
0100
1000
0001
0010
0100
,
0000
0001
1000
1001
,
1000
0010
1000
0010
1000
0010
1000
0010
,
0100
0001
0100
0001
0100
0001
0100
0001
,
0010
0001
0010
0001
1000
0001
1000
0001
,
0100
0010
0100
0010
1000
0010
0100
0000
,
1000
0100
1000
0100
1000
0010
1000
0001
,
0100
0010
0100
0010
0100
0001
1000
0001
,
1000
0010
0100
0001
1000
0010
0100
0001
,
1000
0010
0000
0000
0100
0100
0100
0100
,
0100
0000
0000
1000
0000
0000
0000
0001
,
0000
0000
0000
0100
0000
0000
0010
0000
,
1000
1000
0001
0001
,
0100
0000
0000
0001
1000
0000
0010
0000
,
0000
0001
1000
0100
,
0000
0010
0100
0000
1000
0001
1000
0000
,
0010
0000
1000
0000
,
0001
0100
0010
1000
,
0010
0100
0000
0000
0001
1000
0000
0000
,
0010
0100
0001
1000
0000
0000
0010
0100
,
0000
0000
0000
0001
,
0000
0000
0100
0100
,
0001
0100
0000
0000
1000
0010
0000
0000
,
0100
0001
1000
0010
0000
0000
0100
0001
,
0000
0001
1000
0010
,
0100
0000
0001
0100
0010
0000
0110
0000
,
1001
1001
1001
1001
,
0110
0110
0110
0110
,
1001
1001
0110
0110
,
1001
0110
1001
0110
,
1000
0001
1000
0001
1000
0001
1000
0001
,
0010
0100
0010
0100
0010
0100
0010
0100
,
1000
0001
1000
0001
0010
0100
0010
0100
,
1000
0001
0010
0100
1000
0001
0010
0100
,
0000
0110
1001
0000
;

//---------------dance-double - ----------------
#NOTES:
     dance-double:
     :
     Easy:
     4:
     0.296651,0.432616,0.307638,0.000000,0.000000,189.000000,161.000000,28.000000,0.000000,0.000000,0.000000,0.296651,0.432616,0.307638,0.000000,0.000000,189.000000,161.000000,28.000000,0.000000,0.000000,0.000000:
00000000
00000000
00000000
00000000
,
00000000
00000000
00000000
00000000
,
00000000
00000000
00000000
00000000
,
00000000
00000000
00000000
00000000
,
00000000
01000000
00100000
00000000
,
00000000
10000000
00000000
00010000
,
00000000
00100000
00000000
00001000
,
00000000
00010000
00000000
00010000
,
00000000
00000010
00000010
00000010
,
00000100
00000100
00000100
00001000
,
00000010
00000010
00001000
00000001
,
00001001
00001001
00000110
00010000
,
00001000
00010000
00011000
00011000
,
00100000
00011000
00000100
00011000
,
00100000
00011000
00000100
00010000
,
01000000
10000000
00010000
01000000
,
00001000
00011000
00000010
00001001
,
00000100
00000110
00000010
00000110
,
00000001
00001000
00000001
00001000
,
00000001
00001000
00000100
00000000
,
00010000
00010000
01000000
01000000
,
00100000
10000000
00100000
01000000
,
00001000
00001000
00010000
00010000
,
00000010
00000000
00000010
00001001
,
00000100
00000100
00000001
00001000
,
00000010
00010000
00001000
01000000
,
00010000
00010000
10000000
00010000
,
01000000
00000000
00100000
10010000
,
00100000
00000000
01000000
00000000
,
00001000
00000000
00010000
00000000
,
00000000
00000010
00000000
00001000
,
00000000
00000001
00001000
00000100
,
00000000
00000010
00010000
00010000
,
00000000
01000000
00001000
00001000
,
00100000
00000000
01000000
00000000
,
10000000
00010000
00100000
01000000
,
00001000
00000000
00100000
00000000
,
00000100
00001000
00000001
00000010
,
00000000
00000001
00000000
00000001
,
00000000
00001000
00000000
00011000
,
00100000
00000000
01000000
00000000
,
10000000
00010000
10000000
10000000
,
00000000
00100000
00000000
00000000
,
00001000
00010000
00001000
00011000
,
00001001
00001001
00000110
00010000
,
00001000
00010000
00011000
00011000
,
00100000
00011000
00000100
00011000
,
00100000
00011000
00000100
00010000
,
01000000
10000000
00010000
01000000
,
00001000
00011000
00000010
00001001
,
00000100
00000110
00000010
00000110
,
00000001
00001000
00000001
00001000
,
00000010
00000010
00000100
00000000
;

//---------------dance-double - ----------------
#NOTES:
     dance-double:
     :
     Medium:
     6:
     0.370422,0.461457,0.417509,0.000000,0.000000,236.000000,198.000000,38.000000,0.000000,0.000000,0.000000,0.370422,0.461457,0.417509,0.000000,0.000000,236.000000,198.000000,38.000000,0.000000,0.000000,0.000000:
00000000
00000000
00000000
00000000
,
00000000
00000000
00000000
00000000
,
00000000
00000000
00000000
00000000
,
00000000
00000000
00000000
00000000
,
00000000
00000010
00010000
00000000
,
01000000
00100000
10000000
00000000
,
00010000
00000000
01000000
01000000
,
00001000
00000000
00001000
01000000
,
00001000
00100000
00001000
00010000
,
00000010
00001000
00000001
00000100
,
00000010
00000100
00000010
00000100
,
00000001
00001001
00001000
00001001
,
00010000
00010100
00001000
00101000
,
01001000
01001000
00100000
10010000
,
01000000
01100000
00010000
10010000
,
10010000
01100000
10010000
01100000
,
00001000
00101000
00010000
00010100
,
00010010
00010010
00000100
00000001
,
00000100
00000110
00000001
00001001
,
00000100
00000001
00001000
00000000
,
00000010
00001000
00000010
00001000
00000010
00001000
00000010
00001000
,
00000010
00000000
00010000
00001000
00010000
00000000
01000000
00000000
,
00100000
00000000
10000000
00100000
01000000
00000000
00010000
00000000
,
01000000
00000000
00000000
00001000
,
00010000
00000100
00010000
00000100
00010000
00000100
00010000
00000100
,
00001000
00000000
00000001
00000010
00000001
00000000
00000100
00000000
,
00000010
00010000
00001000
01000000
,
00010000
00000000
10000000
10000000
,
00100000
00000000
00000000
00001000
00000100
00000000
00000000
00000000
,
00010000
00000000
00000000
00001000
00000000
00000000
00000010
00000000
,
00000000
00000001
00001000
00000010
,
00000100
00000000
00000000
00000010
00001000
00000000
00000100
00000000
,
00010000
00001000
01000000
00100000
,
10000000
00000000
00010000
00100000
00001000
00000000
00010000
00000000
,
00000010
00000000
00000010
00000000
,
00000001
00000100
00000010
00001000
00000001
00000000
00000001
00000000
,
00000010
00010000
00000000
00000000
00001000
01000000
00000000
00000000
,
10000000
00010000
10000000
00100000
,
01000000
00010000
10000000
00100000
,
01000000
00000000
01000000
00000000
01000000
01000000
01000000
00000000
,
00100000
00001000
00000000
00000000
00010000
00000100
00000000
00000000
,
00001000
00000001
00001000
00000010
,
00000100
00000010
00001000
00000001
,
00000010
00000000
00000100
00000010
00010000
00001000
00010000
00000000
,
10000000
10010000
00010000
10010000
,
00001000
01001000
00010000
00010010
,
00010100
00010100
00000010
00001001
,
00000100
00000110
00001000
00001001
,
00001001
00000110
00001001
00000110
,
00010000
00010010
00001000
01001000
,
00101000
00101000
01000000
10000000
,
01000000
01100000
10000000
10010000
,
00100000
10000000
00010000
00000000
;

//---------------dance-double - ----------------
#NOTES:
     dance-double:
     :
     Hard:
     8:
     0.500697,0.490298,0.307638,0.000000,0.005494,319.000000,291.000000,28.000000,0.000000,0.000000,0.000000,0.500697,0.490298,0.307638,0.000000,0.005494,319.000000,291.000000,28.000000,0.000000,0.000000,0.000000:
00000000
00000000
00000000
00000000
,
00000000
00000000
00000000
00000000
,
00000000
00000000
00000000
00000000
,
00000000
00000000
00000000
00000000
,
00000000
00010000
00001000
00000000
,
00000000
00000000
00000001
00000000
00000100
00000000
00000010
00000010
,
00010000
00000000
00001000
00000000
01000000
00000000
00100000
00100000
,
10000000
00000000
00010000
10000000
00100000
00000000
00001000
00100000
,
00001000
00010000
00001000
00010000
00000010
00000100
00000010
00000100
,
00000001
00001000
00000010
00000100
00001001
00000000
00000010
00000100
,
00000001
00000100
00000010
00001000
00000001
00000010
00000100
00001000
,
00100000
01000000
10000000
00010000
,
00010000
01000000
00001000
00000000
00001000
00010000
00000010
00000000
,
00000100
00000001
00001000
00000000
00000010
00000100
00000001
00000000
,
00000100
00000010
00010000
00001000
01000000
00100000
10000000
00000000
,
01000000
00100000
00010000
10000000
01000000
00100000
00010000
10000000
,
01000000
00100000
00001000
00010000
00000100
00000010
00000001
00001000
,
00000010
00000100
00000001
00001000
00000100
00000010
00000001
00001000
,
00000001
00000100
00010000
00001000
00100000
01000000
00100000
10000000
,
00010000
01100000
10010000
01000000
,
00001000
00100000
00001000
00100000
00010000
00000010
00010000
00000010
,
00000100
00001000
00000100
00001000
00000001
00000100
00000001
00001000
,
00000010
00010000
00000100
00000000
00010000
00000000
01010000
00000000
,
11000000
00000000
00000000
00000000
00100000
00000000
00000000
00000000
01000000
00000000
00010000
10000000
00100000
00000000
00000000
00000000
,
00001000
01000000
00001000
01000000
00010000
00000010
00010000
00000010
,
00000001
00001000
00000010
00000100
00000010
00001000
00000001
00000100
,
00000010
00000000
00010010
00000000
00011000
00000000
01001000
00010000
,
10000000
00100000
00000000
00000000
01000000
00100000
01000000
00100000
,
00001000
00000000
00000000
00000100
00000010
00000001
00001000
00000000
,
01000000
00000000
00000000
00100000
10000000
00010000
01000000
00000000
,
00001000
00101000
00010000
00010100
,
00000010
00000001
00001000
00000000
00000100
00000001
00001000
00000000
,
00100000
00011000
00000100
00011000
,
00010010
00010000
01001000
00001000
,
01000000
00100000
10000000
00000000
01000000
00010000
00100000
00000000
,
00001000
00000000
00010000
00000010
00000100
00000001
00001000
00000000
,
00000010
00010000
00000000
00001000
01000000
00010000
00000000
10000000
,
00100000
01000000
00100000
01000000
00000000
00001000
00010000
00000000
,
00000010
00000000
00000010
00000100
00000001
00000000
00001000
00000000
,
00000100
00011000
00101000
01010000
,
01000000
00001000
00000000
00010000
00000010
00001000
00000000
00000001
,
00001000
00000100
00010000
00000100
00000000
00001000
00011000
00000000
,
01000000
00000000
00100000
10000000
00010000
00000000
01000000
00000000
,
00001000
00010010
00010000
01001000
,
00100000
01100000
10000000
10010000
,
01010000
01001000
00011000
00010010
,
00000100
00000001
00001000
00000000
00000010
00000100
00000001
00000000
,
00000100
00000010
00010000
00001000
01000000
00100000
10000000
00000000
,
01000000
00100000
00010000
10000000
01000000
00100000
00010000
10000000
,
01000000
00100000
00001000
00010000
00000100
00000010
00000001
00001000
,
00000010
00000100
00000001
00001000
00000100
00000010
00000001
00001000
,
00000010
00010000
00001000
00100000
00010000
10000000
00100000
01000000
,
00010000
01100000
10010000
00000000
;

//---------------dance-couple - ----------------
#NOTES:
     dance-couple:
     :
     Challenge:
     5:
     0.276247,0.490298,0.296651,0.000000,0.000000,176.000000,149.000000,27.000000,0.000000,0.000000,0.000000,0.276247,0.490298,0.296651,0.000000,0.000000,176.000000,149.000000,27.000000,0.000000,0.000000,0.000000:
00000000
00000000
00000000
00000000
,
00000000
00000000
00000000
00000000
,
00000000
00000000
00000000
00000000
,
00000000
00000000
00000000
00000000
,
00000000
10000001
01000100
00000000
,
10000001
01000010
00100100
00011000
,
00100000
00100000
01000000
10000000
,
00000010
00000010
00000100
00000001
,
10000000
00010000
00001000
00000001
,
00000010
00000100
00100000
01000000
,
00010001
00010001
01000100
00010001
,
00000100
10000110
00000100
10000110
,
00000001
10001001
00000001
00001001
,
00010000
10010001
00010000
10010001
,
01000000
01100001
01000000
01100000
,
00000101
00001100
01010000
11000000
,
01010101
11001100
01010101
11001100
,
01000000
00100000
00000001
00001000
,
00110011
11001100
00110011
11001100
,
00000000
10000001
00011000
00000000
,
10000010
00000100
10000010
00000100
10000001
00001000
10000001
00000100
,
00000010
00001000
10000010
00001000
00000100
00000010
10000100
00000010
,
00001000
00000001
00000100
00000010
00001000
00000001
00000100
00000010
,
10001000
00010001
00000000
00000000
00000000
00000000
10011001
00000000
,
01000001
00100000
01000001
00100000
10000001
00010000
10000001
00100000
,
01000000
00010000
01000001
00010000
00100000
01000000
00100001
01000000
,
10000000
00010000
00100000
01000000
10000000
00010000
00100000
01000000
,
10000001
00011000
00000000
00000000
00000000
00000000
10011001
00000000
,
00000000
00001000
00000000
00000001
,
00000000
00100000
00000000
01000000
,
10000001
10000001
00011000
00011000
,
01000010
00000000
00000000
00011000
10000001
00000000
00100100
00000000
,
00000000
00000010
00001000
00001000
,
00000000
00100000
00010000
00010000
,
00001000
00000000
00010000
00000000
,
00010001
01000100
00100010
10001000
,
00010000
00010000
00000000
00000000
00001000
00001000
00000000
00000000
,
00100010
01000100
00010001
10001000
00000000
00000000
00100010
01000100
,
00000001
00000000
00000001
00000000
,
10000000
00000000
10000000
00000000
,
00000001
00000100
00000000
00000000
10000000
01000000
00000000
00000000
,
01000100
00010001
10001000
00100010
00000000
00000000
01000100
00010001
,
00000000
00001000
00000010
00000100
,
00000000
00010000
00100000
01000000
,
00000100
10000110
00000100
10000110
,
00000001
10001001
00000001
00001001
,
00010000
10010001
00010000
10010001
,
01000000
01100001
01000000
01100000
,
00000101
00001100
01010000
11000000
,
01010101
11001100
01010101
11001100
,
01000000
00100000
01000000
00100000
00000001
00001000
00000001
00001000
,
00010001
10001000
00100010
01000100
00010001
10001000
00100010
01000100
,
00000000
01100110
00011000
00000000
;

//---------------dance-solo - ----------------
#NOTES:
     dance-solo:
     :
     Easy:
     4:
     0.284094,0.432616,0.219742,0.000000,0.000000,181.000000,161.000000,20.000000,0.000000,0.000000,0.000000,0.284094,0.432616,0.219742,0.000000,0.000000,181.000000,161.000000,20.000000,0.000000,0.000000,0.000000:
000000
000000
000000
000000
,
000000
000000
000000
000000
,
000000
000000
000000
000000
,
000000
000000
000000
000000
,
000000
001000
000100
000000
,
000000
001000
000000
000010
,
000000
100000
000000
000001
,
000000
010000
000000
010000
,
000000
000100
000100
000100
,
001000
001000
001000
000010
,
100000
100000
000001
010000
,
100001
001000
001100
000001
,
100000
000100
001000
001000
,
000010
001100
010000
001100
,
000001
100001
100000
010000
,
100000
001000
000100
000001
,
100000
001100
000001
001100
,
100000
000001
100000
000001
,
100000
000010
010000
000001
,
001000
000100
001000
000000
,
000010
000010
001000
001000
,
000100
100000
000010
001000
,
000001
000001
010000
010000
,
000100
000000
000100
100001
,
001000
001000
000001
010000
,
000100
100000
000010
001000
,
000010
000010
100000
001000
,
010000
000000
010000
100001
,
000100
000000
001000
000000
,
000001
000000
100000
000000
,
000000
000100
000000
001000
,
000000
000010
010000
001000
,
000000
000001
100000
100000
,
000000
000010
001000
001000
,
000100
000000
100000
000000
,
000010
010000
000001
100000
,
000100
000000
001000
000000
,
000010
100000
000001
010000
,
000000
000100
000000
000100
,
000000
001000
000000
001100
,
100000
000000
000001
000000
,
100000
000001
010000
010000
,
000000
000100
000000
000000
,
000001
000010
000001
000011
,
001100
001100
100001
100000
,
000001
001000
001100
001100
,
010000
000001
000010
100000
,
010000
001000
000010
001000
,
100000
000100
001000
000001
,
010000
010010
001000
100001
,
000100
001100
001000
001100
,
000001
100000
000001
100000
,
000010
000010
001000
000000
;

//---------------dance-solo - ----------------
#NOTES:
     dance-solo:
     :
     Medium:
     5:
     0.420648,0.547981,0.703173,0.000000,0.000000,268.000000,204.000000,64.000000,0.000000,0.000000,0.000000,0.420648,0.547981,0.703173,0.000000,0.000000,268.000000,204.000000,64.000000,0.000000,0.000000,0.000000:
000000
000000
000000
000000
,
000000
000000
000000
000000
,
000000
000000
000000
000000
,
000000
000000
000000
000000
,
000000
000010
001000
000000
,
000001
100000
000100
001000
,
000010
000000
001000
001000
,
000001
000000
000001
010000
,
000100
100000
000001
001000
,
000010
001000
010000
001000
,
100000
000001
100000
000001
,
001100
001100
001100
001100
,
100001
010001
100010
001100
,
011000
011000
001010
001010
,
100001
000000
100001
000000
001100
000010
001001
000000
,
101000
001100
100001
001100
,
100001
000101
001100
101000
,
100001
100001
001100
001010
,
011000
000000
011000
000000
100001
000010
001100
000000
,
001000
000001
100000
000000
,
001000
000010
001000
000010
001000
000010
001000
000010
,
100000
000000
000001
010000
000001
000000
001000
000000
,
000100
000000
100000
001000
100000
000000
000001
000000
,
010000
000000
000000
001000
,
010000
001000
010000
001000
010000
001000
010000
001000
,
100000
000000
000001
001000
000001
000000
010000
000000
,
000100
100000
000001
001000
,
000010
000000
100000
100000
,
000001
000000
000000
001000
000100
000000
000000
000000
,
100000
000000
000000
000010
001000
000000
000000
000000
,
000000
010000
000001
001000
,
000100
000000
000000
100000
000001
000000
001000
000000
,
000010
001000
010000
001000
,
100000
000000
000001
001000
000100
000000
001000
000000
,
000010
000000
000010
000000
,
001000
000100
100000
000001
001000
000000
000010
000000
,
010000
001000
000000
000000
100000
000001
000000
000000
,
001000
000001
100000
000010
,
001000
000010
100000
000001
,
001000
000000
001000
000000
001000
001000
001000
001000
,
000010
100000
000000
000000
000001
010000
000000
000000
,
000100
001000
000100
100000
,
000001
001000
000100
100000
,
001000
000000
001000
000010
001000
000001
100000
000000
,
001100
001100
001100
001100
,
100001
010001
100010
001100
,
011000
011000
001010
001010
,
100001
000000
100001
000000
001100
000010
001001
000000
,
101000
001100
100001
001100
,
100001
000101
001100
101000
,
100001
100001
001100
001010
,
011000
000000
011000
000000
100001
000010
001100
000000
,
001000
000001
100000
000000
;

//---------------dance-solo - ----------------
#NOTES:
     dance-solo:
     :
     Hard:
     8:
     0.530519,0.721027,0.549354,0.000000,0.000000,338.000000,288.000000,50.000000,0.000000,0.000000,0.000000,0.530519,0.721027,0.549354,0.000000,0.000000,338.000000,288.000000,50.000000,0.000000,0.000000,0.000000:
000000
000000
000000
000000
,
000000
000000
000000
000000
,
000000
000000
000000
000000
,
000000
000000
000000
000000
,
000000
001000
000010
000000
,
000000
000000
000001
000000
010000
000000
000001
000001
,
001000
000000
000100
000000
100000
000000
000010
000010
,
001000
000000
000100
100000
000001
000000
001000
000100
,
001000
000010
001000
000010
010000
000001
010000
000001
,
100000
000100
001000
000001
100000
000100
001000
000001
,
010000
000001
010000
000001
100000
000010
100000
000010
,
001000
001100
100000
100001
,
010001
100010
010001
100010
,
001000
000100
100000
000000
000001
001000
000100
000000
,
010000
000010
010000
000010
100000
000100
001000
000001
,
100000
000100
010000
001000
100000
000100
010000
001000
,
100000
000001
000100
000010
100000
000001
000100
000010
,
001000
001100
100000
100001
000010
001010
010000
011000
,
100000
100100
000010
010010
001000
001001
000100
100100
,
010000
010001
100010
001000
,
000001
000010
000001
000010
000001
000000
100000
000000
,
001000
010000
001000
010000
001000
000000
100000
000001
,
001000
000010
001000
000000
000001
000000
010001
000000
,
100010
000000
001000
000000
000100
010000
001001
000000
,
100000
000010
100000
000010
001000
000001
001000
000001
,
100000
000010
010000
000001
100000
000010
010000
000001
,
001000
000000
001010
000000
001000
000000
011000
000100
,
100000
000001
000000
000000
001000
000100
001000
000100
,
100000
000000
000000
000010
001000
000100
100000
000000
,
000001
000000
000000
010000
000100
001000
000001
000000
,
000010
001010
010000
011000
,
100000
000001
000100
000000
000100
000001
100000
000000
,
001000
001010
001000
011000
,
010001
100010
001100
001000
,
100000
000010
001000
000000
001000
000001
010000
000000
,
000100
000000
001000
000010
001000
000001
010000
000000
,
000100
100000
000000
000010
001000
000001
000000
100000
,
000100
001000
000100
001000
000000
000001
100000
000000
,
000100
000000
000100
001000
000010
000000
001000
000000
,
000001
010001
100010
100001
,
001000
000010
000000
001000
000001
010000
000000
000100
,
001000
000001
100000
000001
000000
001000
001100
000000
,
010000
000000
000001
100000
000010
000000
001000
000000
,
000001
010001
100000
100010
,
001000
001100
000001
100001
,
100010
010001
100010
010001
,
001000
000100
000001
000000
100000
001000
000100
000000
,
000010
010000
000010
010000
000001
000100
001000
100000
,
000001
000100
000010
001000
000001
000100
000010
001000
,
000001
100000
000100
010000
000001
100000
000100
010000
,
001000
001100
000001
100001
010000
011000
000010
001010
,
000001
000101
010000
010010
001000
101000
000100
000101
,
000010
100010
010001
000000
;

//---------------dance-single - ----------------
#NOTES:
     dance-single:
     :
     Beginner:
     4:
     0.182072,0.407621,0.252703,0.098884,0.000000,116.000000,93.000000,23.000000,9.000000,0.000000,0.000000,0.182072,0.407621,0.252703,0.098884,0.000000,116.000000,93.000000,23.000000,9.000000,0.000000,0.000000:
0000
0000
0000
0000
,
0000
0000
0000
0000
,
0000
0000
0000
0000
,
0000
0000
0000
0000
,
0000
0100
0100
0000
,
0001
0001
0001
0000
,
1000
1000
0000
0000
,
0020
0000
0000
0000
,
0030
0000
0000
0000
,
0000
0000
0000
0000
,
0000
0000
0000
0000
,
0100
0100
0100
0000
,
0010
0010
0010
0000
,
1000
1000
1000
0000
,
0001
0001
0001
0000
,
0020
0000
0030
0000
,
0200
0000
0300
0000
,
0002
0000
0003
0000
,
2000
0000
3000
0000
,
1001
0000
0000
0000
,
1000
0000
1000
0000
,
1000
1000
1000
0000
,
0001
0000
0001
0000
,
0001
0001
0001
0000
,
0100
0000
0100
0000
,
0100
0100
0100
0000
,
0010
0000
0010
0000
,
0010
0010
0010
0000
,
0200
0000
0000
0000
,
0300
0000
0000
0000
,
0020
0000
0000
0000
,
0030
0000
0000
0000
,
2000
0000
0000
0000
,
3000
0000
0000
0000
,
0002
0000
0000
0000
,
0003
0000
0000
0000
,
0100
0000
0101
0000
,
0001
0000
1001
0000
,
1000
0000
1010
0000
,
0010
0000
0110
0000
,
0100
0000
0101
0000
,
0001
0000
0011
0000
,
0100
0000
1100
0000
,
1000
0000
1001
0000
,
0100
0100
0100
0000
,
0010
0010
0010
0000
,
1000
1000
1000
0000
,
0001
0001
0001
0000
,
1001
1001
1001
0000
,
0110
0110
0110
0000
,
1001
1001
1001
0000
,
0110
0110
0110
0000
,
0000
0001
1000
1001
,
1001
0000
0000
0000
;

//---------------dance-single - ----------------
#NOTES:
     dance-single:
     :
     Challenge:
     13:
     0.651377,0.698778,1.032785,0.186780,0.236222,415.000000,321.000000,94.000000,17.000000,0.000000,0.000000,0.651377,0.698778,1.032785,0.186780,0.236222,415.000000,321.000000,94.000000,17.000000,0.000000,0.000000:
// measure 0
0000
0000
0000
0000
,  // measure 1
0000
0000
0000
0000
,  // measure 2
0000
0000
0000
0000
,  // measure 3
0000
0000
0000
0000
,  // measure 4
0000
0000
1010
0000
0101
0000
1100
1000
,  // measure 5
0010
0000
1000
0010
0000
0010
1000
0000
0100
0000
0000
0000
0011
0000
0001
0000
,  // measure 6
0000
0000
1001
0000
0000
0000
1000
0100
1000
0000
0010
0000
0100
0000
0001
0000
,  // measure 7
0020
0000
0001
0000
0100
0100
0031
1000
,  // measure 8
0020
0000
1000
0000
0001
0001
0130
0001
,  // measure 9
2000
0000
0010
0000
0001
0001
3100
0010
,  // measure 10
0200
0000
1000
0000
0010
0010
1300
0010
,  // measure 11
0110
0000
0101
0000
0011
0000
1010
0010
,  // measure 12
0011
0000
0101
0000
1100
0000
1010
1000
,  // measure 13
1001
0000
0011
0000
1001
0000
1000
0010
,  // measure 14
0100
1100
1001
0011
,  // measure 15
0011
0000
0110
0000
1100
0000
1010
1000
,  // measure 16
1001
0000
0011
0000
0110
0000
1100
1000
,  // measure 17
1010
0000
0110
0000
0101
0000
1001
1000
,  // measure 18
1010
0000
0011
0000
1001
0000
0001
1000
,  // measure 19
0100
0000
0110
0000
0110
0000
0100
1000
,  // measure 20
0010
0100
0010
0000
0010
0100
0010
0000
0010
0100
0010
0000
0010
0100
0010
1000
,  // measure 21
0100
0001
1000
0200
0001
0000
0310
0001
,  // measure 22
0100
0010
0100
0000
0100
0010
0100
0000
0100
0010
0100
0000
0100
0010
0100
0010
,  // measure 23
0001
0000
1000
0000
0100
0000
0020
0000
0001
0000
0000
0031
1000
0000
0000
0000
,  // measure 24
0001
1000
0001
0000
0001
1000
0001
0000
0001
1000
0001
0000
0001
1000
0001
1000
,  // measure 25
0010
1000
0001
2000
0010
0000
3100
0001
,  // measure 26
1000
0001
1000
0000
1000
0001
1000
0000
1000
0001
1000
0000
1000
0001
1000
0001
,  // measure 27
0010
0001
0100
0002
0010
0000
1003
0001
,  // measure 28
0101
0000
0100
0000
0110
0000
0010
1000
0100
0000
0100
0000
0110
0000
0000
0000
,  // measure 29
1010
0000
1000
0000
1001
0000
0001
1000
0010
0000
1000
0000
2020
0000
0000
0000
,  // measure 30
3030
0000
0000
1000
0100
0000
1000
0000
0010
0100
0001
0000
0010
0000
0000
0010
,  // measure 31
0001
0000
0001
0000
0010
0000
0010
0000
0100
0010
0100
0020
0002
0000
0000
0000
,  // measure 32
0033
0000
0000
0001
0010
0000
0001
0000
0100
0010
1000
0001
0100
0000
0000
0000
,  // measure 33
1001
0000
1000
0000
1100
0000
1000
0000
0010
1000
0001
0000
0100
0000
0000
0100
,  // measure 34
1000
0000
0100
0000
1100
0000
0000
1000
0010
0000
0100
0000
0101
0000
0000
0001
,  // measure 35
0010
0000
0001
0010
0000
0010
0001
0100
0010
0000
1000
0001
0000
0000
0100
0000
,  // measure 36
1010
1000
0000
0000
1010
0100
0000
0000
,  // measure 37
0011
0100
1010
0100
0000
0000
0101
1000
,  // measure 38
0020
0000
1000
0000
0100
0000
1030
0001
,  // measure 39
0020
0000
0001
0000
1000
0000
0031
1000
,  // measure 40
0110
0001
0000
0000
0110
1000
0000
0000
,  // measure 41
1100
0010
0101
0010
0000
0000
0110
1000
,  // measure 42
0002
0000
0010
0000
1000
0000
0103
0010
,  // measure 43
0002
0000
0010
0000
0100
0000
1003
0010
,  // measure 44
0110
0000
0101
0000
0011
0000
0110
0100
,  // measure 45
1100
0000
1010
0000
0110
0000
0101
0001
,  // measure 46
0011
0000
1010
0000
1001
0000
1100
0100
,  // measure 47
0101
1010
0011
0110
,  // measure 48
1010
0000
1001
0000
0101
0000
0110
1010
,  // measure 49
0101
0000
0011
0000
1100
0000
1010
1001
,  // measure 50
0011
0000
0110
0000
1100
0000
1010
0110
,  // measure 51
0101
0000
0011
0000
1001
0000
1100
1001
,  // measure 52
0021
0000
0000
0000
0100
0000
0000
0000
0100
0000
0000
0000
1030
0100
0010
0000
,  // measure 53
0011
0000
0000
0000
;
