#TITLE:Number 1 (Alan Braxe & Fred Falke Main Remix);
#SUBTITLE:;
#ARTIST:Goldfrapp;
#TITLETRANSLIT:;
#SUBTITLETRANSLIT:;
#ARTISTTRANSLIT:;
#GENRE:;
#CREDIT:;
#BANNER:Number 1 (Alan Braxe & Fred Falke Main Remix).png;
#BACKGROUND:Number 1 (Alan Braxe & Fred Falke Main Remix)-bg.png;
#LYRICSPATH:;
#CDTITLE:;
#MUSIC:Number 1 (Alan Braxe & Fred Falke Main Remix).ogg;
#OFFSET:0.000000;
#SAMPLESTART:39.360001;
#SAMPLELENGTH:15.000000;
#SELECTABLE:YES;
#BPMS:0.000000=124.999992
;
#STOPS:
;
#BGCHANGES:0.000=Number 1 (Alan Braxe & Fred Falke Main Remix).avi=1.000=0=0=0=StretchNoLoop====,
99999=-nosongbg-=1.000=0=0=0 // don't automatically add -songbackground-
;
#KEYSOUNDS:;
#ATTACKS:;

//---------------dance-single - ----------------
#NOTES:
     dance-single:
     :
     Beginner:
     2:
     0.132505,0.142609,0.011594,0.000000,0.000000,80.000000,79.000000,1.000000,0.000000,0.000000,0.000000,0.132505,0.142609,0.011594,0.000000,0.000000,80.000000,79.000000,1.000000,0.000000,0.000000,0.000000:
0000
0000
0000
0000
,
0000
0000
0000
0000
,
1000
0000
0001
0000
,
1000
0000
0001
0000
,
1000
0000
0001
0000
,
0100
0000
0010
0010
,
0010
0000
0000
0000
,
0100
0000
0001
0001
,
0001
0000
0000
0000
,
0010
0000
0100
0100
,
0100
0000
0000
0000
,
0010
0000
1000
1000
,
1000
0000
0001
0000
,
0100
0000
1000
0000
,
0010
0000
0000
0000
,
0010
0000
0100
0000
,
0010
0000
0100
0000
,
0010
0000
1000
0000
,
0010
0000
0001
0000
,
0010
0000
0100
0000
,
0010
0000
0100
0100
,
0100
0000
0010
0000
,
0001
0000
0000
0000
,
1000
0000
0000
0000
,
0001
0000
0100
0100
,
0100
0000
0010
0000
,
1000
0000
0000
0000
,
0001
0000
0000
0000
,
1000
0000
0010
0010
,
0010
0000
0100
0000
,
0001
0000
1000
1000
,
1000
0000
0001
0000
,
1000
0000
0001
0001
,
0001
0000
0100
0000
,
1000
0000
0100
0000
,
0001
0000
0010
0000
,
1000
0000
0010
0000
,
0001
0000
1000
0000
,
0010
0000
0001
0000
,
0010
0000
1000
0000
,
0001
0000
0000
0000
,
0110
0000
0000
0000
;

//---------------dance-single - ----------------
#NOTES:
     dance-single:
     :
     Easy:
     6:
     0.203727,0.213913,0.000000,0.034783,0.000000,123.000000,123.000000,0.000000,3.000000,0.000000,0.000000,0.203727,0.213913,0.000000,0.034783,0.000000,123.000000,123.000000,0.000000,3.000000,0.000000,0.000000:
0000
0000
0000
0000
,
0000
0000
0000
0000
,
0001
0010
0001
0000
,
1000
0010
1000
0000
,
0001
1000
0001
1000
,
0010
0000
0100
0010
,
0001
0000
1000
0000
,
0001
0000
0010
0100
,
1000
0000
0001
0000
,
0100
0000
0010
1000
,
0001
0000
0010
0000
,
0100
0001
1000
0010
,
0100
0000
0100
0001
,
0010
0010
0010
0000
,
1000
0001
1000
0000
,
0200
0000
0310
0000
,
0001
1000
0001
0000
,
0020
0000
0130
0000
,
1000
0001
1000
0000
,
0200
0000
0301
0000
,
0010
1000
0100
0010
,
0001
0010
0001
0000
,
1000
0001
1000
0000
,
0010
0100
0010
0000
,
0010
0010
1000
0010
,
0100
0001
0100
0000
,
0001
1000
0001
0000
,
0001
1000
0001
1000
,
0010
0010
0100
0010
,
0100
0001
0100
0000
,
0010
1000
0010
0000
,
0001
0010
0001
0000
,
1000
0100
0001
0100
,
1000
0010
0010
0000
,
0100
0010
0010
0000
,
0001
0010
0010
0000
,
1000
0010
0010
0000
,
0100
0100
0001
1000
,
0100
0100
0001
1000
,
0010
1000
0001
0010
,
0001
0010
0100
1000
,
0001
0000
0000
0000
;

//---------------dance-single - ----------------
#NOTES:
     dance-single:
     :
     Medium:
     8:
     0.319669,0.356522,0.255072,0.034783,0.000000,193.000000,171.000000,22.000000,3.000000,0.000000,0.000000,0.319669,0.356522,0.255072,0.034783,0.000000,193.000000,171.000000,22.000000,3.000000,0.000000,0.000000:
0000
0000
0000
0000
,
0000
0000
0000
0000
,
1000
0010
0000
0100
0000
0001
0000
0010
,
0001
0100
0000
0010
0000
1000
0000
0100
,
0010
0001
0000
1000
0000
0001
0000
1000
,
0010
0100
0010
1000
,
0001
0000
0010
0002
0000
1003
0000
0000
,
0010
0100
0001
0010
,
0100
0000
1000
0020
0000
0000
0030
0000
,
0001
1000
0010
0100
,
0001
0000
0010
0200
0000
1300
0000
0000
,
0010
1000
0001
0100
,
0010
0000
1000
0100
0000
0010
0001
0000
,
1000
0010
0101
1100
,
0010
0100
1001
0110
,
1000
0100
0011
1010
,
0100
0001
1010
0101
,
0100
0010
1001
0110
,
0001
1000
1010
0011
,
0001
0110
1000
0110
,
0001
0010
0100
1000
,
0010
0000
0100
0001
0000
0000
0010
0000
,
0100
1000
0010
0100
,
0001
0010
0100
1000
,
0001
0000
1000
0000
0001
1000
0001
1000
,
0010
0100
0001
0010
,
0100
0010
1000
0100
,
0010
1010
0010
0011
,
1001
0000
1001
0000
1001
0000
1000
0001
,
1000
0010
0100
0001
,
0010
0100
0010
0001
,
0100
0010
1000
0100
,
1000
1010
1010
1010
,
0001
0100
0000
0010
0000
1000
0000
0001
,
0100
0010
0000
0001
0000
0100
0000
0010
,
1000
0100
0000
0001
0000
1000
0000
0001
,
0100
0010
0000
1000
0000
0001
0000
1000
,
0010
0100
0000
0001
0000
0010
0000
1000
,
0100
0010
0000
1000
0000
0100
0000
0010
,
0100
0001
0000
0010
0000
0010
0000
0001
,
1000
0100
0000
0010
0000
0010
0000
1000
,
0001
0000
0000
0000
;

//---------------dance-single - ----------------
#NOTES:
     dance-single:
     :
     Hard:
     10:
     0.419048,0.404058,0.359420,0.092754,0.000000,253.000000,222.000000,31.000000,8.000000,0.000000,0.000000,0.419048,0.404058,0.359420,0.092754,0.000000,253.000000,222.000000,31.000000,8.000000,0.000000,0.000000:
0000
0000
0000
0000
,
0000
0000
0000
0000
,
0010
0001
0100
1000
0000
0000
1010
0000
,
0100
0001
0010
0001
0000
0000
0110
0000
,
0100
1000
0010
1000
0001
1000
1001
0000
,
0100
0000
0001
0100
1000
0000
0010
0000
,
2000
0000
3100
2000
0000
3100
0100
0000
,
0010
0000
1000
0100
0010
0000
1000
0000
,
0002
0000
0013
0002
0000
0000
1003
0000
,
0010
0000
0001
0100
1000
0000
0010
0000
,
0200
0000
0310
0200
0000
0301
0001
0000
,
0010
0000
0100
1000
0100
0001
0100
0000
,
0020
0000
0130
0110
0000
0100
1000
0001
,
0010
0000
0100
2000
0000
0010
0000
3001
,
0000
0010
0000
1000
0000
0010
0100
0001
,
0100
1000
0000
0110
0000
0010
0001
1000
,
0100
0001
0000
0110
0000
0010
0001
0100
,
0010
1000
0000
1001
0000
0100
1000
0010
,
0100
0001
0000
1001
0000
0001
0010
0001
,
0010
0100
0000
0011
0000
1000
0010
1000
,
0010
0100
0000
1010
0000
1000
0010
0001
,
0010
0000
1001
0000
0001
0010
0100
0000
,
0110
0000
1000
0010
0100
0001
0010
0000
,
1100
0000
0010
0100
0001
0000
0011
0000
,
0001
0100
1000
0100
0001
0010
1000
0000
,
0010
0000
0001
0010
0100
0000
0011
0000
,
1000
0010
0100
0001
1000
0000
0110
0000
,
0101
0000
0100
0001
0010
0000
1010
0000
,
1000
1100
0001
0101
,
1000
0100
1000
0010
0100
0000
0110
0000
,
1000
0110
0001
0110
,
1000
0001
0100
0010
1000
0000
0101
0000
,
1000
0100
0001
0100
1000
0010
0100
0001
,
1000
0100
0010
0001
0010
0000
0110
0000
,
0010
1000
0001
0100
0010
0000
0110
0000
,
0010
1000
0100
0010
0001
0000
1001
0000
,
1000
0001
0100
0010
1000
0000
1010
0000
,
1000
0001
0010
0001
0010
0000
0011
0000
,
0001
1000
0010
1000
0010
0000
1010
0000
,
1000
0010
0100
0010
0100
0000
0110
0000
,
0001
0100
0010
1000
0010
0001
0010
0100
,
0001
0000
0000
0000
;

//---------------dance-double - ----------------
#NOTES:
     dance-double:
     :
     Easy:
     3:
     0.188820,0.237681,0.011594,0.185507,0.000000,114.000000,113.000000,1.000000,16.000000,0.000000,0.000000,0.188820,0.237681,0.011594,0.185507,0.000000,114.000000,113.000000,1.000000,16.000000,0.000000,0.000000:
00000000
00000000
00000000
00000000
,
00000000
00000000
00000000
00000000
,
00000020
00000000
00001030
00000000
,
00000020
00000000
00000130
00000000
,
00001000
00010000
00001000
00100000
,
00010000
00000000
01000000
00100000
,
20000000
00000000
30010000
00000000
,
00200000
00000000
01300000
00000000
,
00010000
00100000
00010000
00000000
,
00100000
00000000
00001000
00010000
,
00000200
00000000
00000310
00000000
,
00000002
00000000
00000103
00000000
,
00000010
00000010
00001000
00000010
,
00002000
00000000
00003100
00000000
,
00010000
00001000
00010000
00000000
,
00002000
00000000
00103000
00000000
,
00010000
10000000
00010000
00000000
,
00200000
00000000
01300000
00000000
,
10000000
00100000
10000000
00000000
,
02000000
00000000
03100000
00000000
,
00010000
00010000
00100000
00001000
,
00010000
00001000
00000200
00000000
,
00000310
00000000
00000100
00000001
,
00000020
00000000
00000130
00000000
,
00000010
00000000
00000001
00001000
,
00000100
00010000
00002000
00000000
,
00013000
00000000
00001000
00000000
,
02000000
00000000
03010000
00000000
,
00100000
01000000
00100000
00010000
,
01000000
10000000
02000000
00000000
,
03100000
00000000
01000000
00010000
,
00200000
00000000
00301000
00000000
,
00010000
00001000
00010000
00001000
,
00010000
00010000
00000100
00000000
,
00001000
00001000
00000010
00000000
,
00000100
00000100
00000001
00000000
,
00000010
00000010
00000100
00000000
,
00000010
00000010
00000001
00001000
,
00000100
00000100
00010000
00001000
,
00010000
00010000
00001000
00100000
,
00010000
10000000
00010000
10000000
,
10010000
00000000
00000000
00000000
;

//---------------dance-double - ----------------
#NOTES:
     dance-double:
     :
     Medium:
     4:
     0.294824,0.332754,0.243478,0.081159,0.000000,178.000000,157.000000,21.000000,7.000000,0.000000,0.000000,0.294824,0.332754,0.243478,0.081159,0.000000,178.000000,157.000000,21.000000,7.000000,0.000000,0.000000:
00000000
00000000
00000000
00000000
,
00000000
00000000
00000000
00000000
,
00010000
00001000
00010000
00011000
,
00000100
00000010
00001000
00001010
,
00000010
00000000
00000100
00000000
00000001
00000010
00000100
00000000
,
00001000
00000100
00010000
00001000
,
01000000
00000000
00100000
00000000
01000000
00000000
00010000
10000000
,
01000000
00100000
01000000
10000000
,
00010000
00000000
00000000
00000000
00000000
00000000
00000000
00000000
00000000
00000000
00000000
00000000
00000000
00000000
00000000
00000000
02000000
00000000
00000000
00000000
00000000
00000000
00000000
00000000
00000000
00000000
00000000
00000000
00000000
00000000
00000000
03000000
00100000
00000000
00000000
00000000
00000000
00000000
00000000
00000000
00000000
00000000
00000000
00000000
00000000
00000000
00000000
00000000
00000000
00000000
00000000
00000000
00000000
00000000
00000000
00000000
00000000
00000000
00000000
00000000
00000000
00000000
00000000
00000000
,
00010000
00100000
00001000
00010000
,
00000100
00000000
00001000
00000000
00000100
00000000
00000010
00000100
,
00001000
00000010
00000100
00000001
,
00001000
00001000
00000001
00000001
,
00001001
00000000
00001100
00000100
,
00020000
00031000
00010000
00000000
,
00002000
01003000
00100000
00000000
,
10000000
00000000
00100000
00000000
01000000
00000000
10000000
00010000
,
02000000
03100000
10000000
00000000
,
02000000
03100000
00010000
00000000
,
00200000
00301000
00010000
00000000
,
00002000
00000000
00003100
00000000
00000010
00000000
00000100
00000001
,
00000101
00000000
00000011
00001000
,
00001010
00000000
00011000
00001000
,
00100000
00010000
01000000
00100000
,
10000000
00000000
10000000
00000000
00010000
00000000
00010000
10000000
,
10100000
00000000
01010000
01000000
,
00010000
00100000
00001000
00011000
,
00010000
00000100
00001000
00001100
,
00001000
00000000
00000010
00000000
00000100
00000000
00000001
00000100
,
00000101
00000010
00000101
00001000
,
00000100
00000000
00010000
00000000
00001000
00000000
00010000
00001000
,
00011000
01000000
00011000
00100000
,
00010000
01000000
00100000
00000000
10000000
01000000
00100000
00000000
,
10000000
00100000
00010000
10010000
,
01000000
00010000
00100000
10010000
,
00100000
00001000
00010000
00010100
,
00000100
00001000
00000010
00001010
,
00001000
00000001
00000001
00000100
,
00000100
00000010
00000010
00010000
,
00010000
00001000
00001000
00100000
,
01000000
00010000
00100000
10000000
,
10010000
00000000
00000000
00000000
;

//---------------dance-double - ----------------
#NOTES:
     dance-double:
     :
     Hard:
     7:
     0.419048,0.404058,0.359420,0.092754,0.000000,253.000000,222.000000,31.000000,8.000000,0.000000,0.000000,0.419048,0.404058,0.359420,0.092754,0.000000,253.000000,222.000000,31.000000,8.000000,0.000000,0.000000:
00000000
00000000
00000000
00000000
,
00000000
00000000
00000000
00000000
,
00000010
00000100
00001000
00000010
00000000
00000000
00011000
00000000
,
01000000
00100000
10000000
01000000
00000000
00000000
10010000
00000000
,
01000000
00010000
00100000
01000000
00010000
10000000
01010000
00000000
,
00010000
00000000
00100000
00001000
00010000
00000000
00001000
00000000
,
00020000
00000000
00030100
00020000
00000000
00031000
00001000
00000000
,
00010000
00000000
00000100
00000010
00000001
00000000
00001000
00000000
,
00000020
00000000
00001030
00000020
00000000
00000000
00000130
00000000
,
00000001
00000000
00001000
00000100
00010000
00000000
00001000
00000000
,
00200000
00000000
00310000
00200000
00000000
01000000
01300000
00000000
,
10000000
00000000
00010000
00100000
00001000
00000100
00000010
00000000
,
00000200
00000000
00000310
00000110
00000000
00001000
00000100
00000010
,
00000001
00000000
00000100
00000002
00000000
00000010
00000000
00001003
,
00000000
00000100
00000000
00001000
00000000
00010000
00001000
00010000
,
01000000
00100000
00000000
10010000
00000000
01000000
00100000
01000000
,
00010000
00100000
00000000
11000000
00000000
00100000
00001000
00010000
,
00000100
00001000
00000000
00011000
00000000
00000010
00000100
00000001
,
00001000
00000010
00000000
00000101
00000000
00000010
00000100
00001000
,
00010000
00100000
00000000
01100000
00000000
00100000
01000000
00010000
,
00100000
01000000
00000000
11000000
00000000
10000000
00010000
00100000
,
01000000
00000000
00110000
00000000
00001000
00000100
00000010
00000000
,
00000110
00000000
00000001
00001000
00000001
00000010
00000100
00000000
,
00000011
00000000
00000001
00000010
00001000
00000000
00001010
00000000
,
00000010
00000100
00010000
01000000
00100000
10000000
01000000
00000000
,
00010000
00000000
10000000
00100000
00010000
00000000
00110000
00000000
,
01000000
00010000
00100000
00001000
00010000
00000000
00011000
00000000
,
00110000
00000000
00001000
00010000
00000100
00000000
00011000
00000000
,
00000100
00001100
00000010
00000110
,
00000001
00000010
00000001
00000100
00000010
00000000
00001001
00000000
,
00000001
00001100
00000100
00011000
,
00001000
01000000
00100000
10000000
01000000
00000000
01100000
00000000
,
10000000
00100000
00010000
00100000
10000000
00100000
01000000
00100000
,
01000000
00010000
00100000
00001000
00010000
00000000
00011000
00000000
,
00010000
00001000
00000100
00000010
00001000
00000000
00001001
00000000
,
00000001
00000010
00000100
00000010
00000001
00000000
00001100
00000000
,
00000010
00000001
00000100
00010000
01000000
00000000
01100000
00000000
,
00100000
10000000
01000000
00010000
01000000
00000000
11000000
00000000
,
00100000
01000000
00010000
00100000
00001000
00000000
00110000
00000000
,
00001000
00010000
00000100
00000010
00000001
00000000
00000110
00000000
,
00000001
00001000
00000010
00000001
00000010
00000100
00001000
00000010
,
00000100
00000000
00000000
00000000
;

//---------------dance-single - ----------------
#NOTES:
     dance-single:
     :
     Challenge:
     13:
     0.775155,0.758696,0.927536,0.139130,0.602899,468.000000,388.000000,80.000000,12.000000,0.000000,0.000000,0.775155,0.758696,0.927536,0.139130,0.602899,468.000000,388.000000,80.000000,12.000000,0.000000,0.000000:
// measure 0
0000
0000
0000
0000
,  // measure 1
0000
0000
0000
0000
,  // measure 2
0010
0001
0100
0010
1000
0000
0100
1000
0010
0100
0001
0000
0010
0000
1000
0000
,  // measure 3
0010
0001
0100
0010
1000
0000
0010
1000
0100
0010
0001
0000
1000
0000
0001
0000
,  // measure 4
0100
0010
1000
0001
0010
0000
0100
0010
0001
1000
0010
0000
0100
0000
0010
0000
,  // measure 5
2000
0000
0001
0000
3010
0001
0100
0000
0010
1000
0100
0010
0001
0000
1000
0000
,  // measure 6
0010
0001
0100
0000
0010
1000
0200
0000
0000
0000
0301
0000
1000
0010
0001
0100
,  // measure 7
0010
0000
1000
0000
0100
0010
1000
0000
0020
0000
0000
0000
0031
0000
0000
0000
,  // measure 8
1000
0010
0100
0000
0101
0000
1000
0100
0010
0000
0011
0000
0001
0010
1000
0100
,  // measure 9
0020
0000
0000
0000
1030
0100
0010
0000
0001
1000
0100
0010
0001
0000
1000
0000
,  // measure 10
0100
0001
0010
0000
1010
0000
1000
0100
0010
0000
0011
0000
0001
1000
0100
0010
,  // measure 11
0002
0000
0000
0000
1003
0001
0100
0000
0001
0010
0100
1000
0010
0000
0100
0000
,  // measure 12
1000
0001
0100
0000
1100
0000
1000
0001
0010
0000
0001
1000
0010
0000
0100
0000
,  // measure 13
0020
0000
0001
0001
0000
0100
1000
0100
,  // measure 14
2030
0000
0010
0010
0000
0100
0001
0100
,  // measure 15
3002
0000
0010
0010
0000
1000
0100
1000
,  // measure 16
0203
0000
0010
0010
0000
1000
0001
1000
,  // measure 17
0301
0010
0100
0000
1010
0000
1000
0100
0010
0000
0011
0000
0001
1000
0100
0010
,  // measure 18
0001
0100
0010
0000
1010
0000
0010
1000
0001
0000
1001
0000
1000
0100
0010
0001
,  // measure 19
0100
0000
0010
0100
0000
0010
1000
0000
0001
1000
0100
0010
0001
1000
0010
0000
,  // measure 20
0100
0000
0001
0010
0000
0100
1000
0000
0010
1000
0100
1000
0001
0100
0010
1000
,  // measure 21
0100
0000
0000
1000
0100
0000
1100
0000
0100
0001
0010
0000
1010
0000
0000
0000
,  // measure 22
0011
0000
0000
0010
1000
0000
1010
0000
0100
0001
0010
0000
0110
0000
0000
0000
,  // measure 23
1100
0000
0000
1000
0010
0000
0011
0000
0010
0001
1000
0000
1001
0000
0000
0000
,  // measure 24
0110
0000
0000
0010
0100
0000
1100
0000
1000
0001
0100
0000
0101
0000
0000
0000
,  // measure 25
1010
0000
0000
0001
0010
0000
1010
0000
0010
1000
0100
0000
0011
0000
0000
0000
,  // measure 26
1100
0000
0000
0100
1000
0000
0101
0000
1000
0100
0010
0000
1100
0000
0000
0000
,  // measure 27
0110
0000
0000
0010
0001
0000
1000
0000
0010
0100
0010
0000
0110
0000
0000
0000
,  // measure 28
1010
0000
0000
0001
0010
0000
1001
0000
0010
0100
0010
0000
1001
0000
0000
0000
,  // measure 29
0110
0000
0000
1000
0001
0000
0110
0000
0001
1000
0001
0000
0110
0000
0000
0000
,  // measure 30
0011
0000
0000
0001
0010
0000
0110
0000
1000
0100
0001
0000
0011
0001
0100
0010
,  // measure 31
1000
0100
1000
0100
0010
0000
0001
1000
0001
0000
1000
0100
1000
0000
0010
0001
,  // measure 32
0020
0001
0100
0001
0100
0001
0100
0001
,  // measure 33
0130
0001
1000
0000
0110
0000
1001
0000
0010
1000
0100
0000
1001
0000
0110
0000
,  // measure 34
1000
0010
0100
0000
0011
0000
1100
0000
0001
0100
1000
0000
1010
0000
0101
0000
,  // measure 35
1000
0010
0001
0000
0101
0000
1100
0000
1000
0010
0100
0000
0110
0000
1100
0000
,  // measure 36
1000
0001
0100
0000
0011
0000
1100
0000
0010
1000
0001
0000
1010
0000
0101
0000
,  // measure 37
1000
0100
0001
0000
0110
0000
1001
0000
0010
0001
0100
0000
1001
0000
0110
0000
,  // measure 38
1000
0010
0100
0000
0011
0000
1100
0000
0001
1000
0100
0000
1010
0000
0011
0000
,  // measure 39
1000
0100
0001
0000
1100
0000
0101
0000
0001
0010
1000
0000
1010
0000
0110
0000
,  // measure 40
0100
0001
1000
0000
0011
0000
1001
0000
0010
1000
0100
0000
1010
0000
1001
0000
,  // measure 41
1100
0000
0000
1100
0000
0000
0101
0000
0000
0101
0000
0000
0011
0000
0000
0011
,  // measure 42
0000
0000
1010
0000
0000
1010
0000
0000
1001
0000
0000
1001
0000
0000
0220
0000
,  // measure 43
0000
0000
0000
0000
0000
0330
0000
0000
;
