#VERSION:0.83;
#TITLE:NOBODY'S PERFECT;
#SUBTITLE:;
#ARTIST:HANNAH MONTANA;
#TITLETRANSLIT:;
#SUBTITLETRANSLIT:;
#ARTISTTRANSLIT:;
#GENRE:;
#ORIGIN:;
#CREDIT:;
#BANNER:NOBODY'S PERFECT.png;
#BACKGROUND:NOBODY'S PERFECT-bg.png;
#PREVIEWVID:;
#JACKET:;
#CDIMAGE:;
#DISCIMAGE:;
#LYRICSPATH:;
#CDTITLE:;
#MUSIC:NOBODY'S PERFECT.mp3;
#OFFSET:-0.125000;
#SAMPLESTART:20.987000;
#SAMPLELENGTH:15.000000;
#SELECTABLE:YES;
#DISPLAYBPM:132.000000;
#BPMS:0.000=133.000,
4.000=132.000;
#STOPS:;
#DELAYS:;
#WARPS:;
#TIMESIGNATURES:0.000=4=4;
#TICKCOUNTS:0.000=4;
#COMBOS:0.000=1;
#SPEEDS:0.000=1.000=0.000=0;
#SCROLLS:0.000=1.000;
#FAKES:;
#LABELS:0.000=Song Start;
#BGCHANGES:0.000=NOBODY'S PERFECT.avi=1.000=0=0=0=StretchNoLoop====,
99999=-nosongbg-=1.000=0=0=0 // don't automatically add -songbackground-
;
#KEYSOUNDS:;
#ATTACKS:
;

//---------------dance-single - ----------------
#NOTEDATA:;
#CHARTNAME:;
#STEPSTYPE:dance-single;
#DESCRIPTION:;
#CHARTSTYLE:;
#DIFFICULTY:Beginner;
#METER:2;
#RADARVALUES:0.105060,0.163701,0.028285,0.018857,0.000000,78.000000,75.000000,3.000000,2.000000,0.000000,0.000000,0.000000,0.000000,0.000000,0.105060,0.163701,0.028285,0.018857,0.000000,78.000000,75.000000,3.000000,2.000000,0.000000,0.000000,0.000000,0.000000,0.000000;
#CREDIT:;
#NOTES:
0000
0000
0000
0000
,
0000
0000
0000
0000
,
0000
0000
0000
0000
,
0000
0000
0000
0000
,
0000
1000
0000
0000
,
0000
0001
0000
0000
,
0000
0100
0000
0000
,
0000
0010
0000
0000
,
1000
0000
0000
0000
,
0000
0100
0000
0100
,
0000
0010
0000
0000
,
0001
0001
0001
0000
,
0100
0000
0010
0000
,
0100
0000
0000
0000
,
0001
0000
0010
0000
,
0001
0000
0000
0000
,
1000
0000
0100
0000
,
1000
0000
0000
0000
,
0010
0000
0100
0000
,
0010
0000
0000
0000
,
1001
0000
0000
0000
,
0000
0000
0000
0000
,
0000
1000
0000
0000
,
0000
0001
0000
0000
,
0000
0100
0000
0100
,
0000
0010
0000
0010
,
0000
1000
0000
0000
,
0000
0001
0000
0000
,
0000
0010
0000
0010
,
0000
0100
0000
0100
,
0000
1000
0000
0000
,
0000
0001
0000
0001
,
0000
0100
0000
0000
,
1000
1000
1000
0000
,
0100
0000
0010
0000
,
0100
0000
0000
0000
,
0001
0000
0100
0000
,
0001
0000
0000
0000
,
1000
0000
0010
0000
,
1000
0000
0000
0000
,
0010
0000
0100
0000
,
0010
0000
0000
0000
,
0001
0000
0100
0000
,
1000
0000
0000
0000
,
0001
0000
0010
0000
,
1000
0000
0000
0000
,
0110
0000
0010
0000
,
0010
0000
0000
0000
,
0100
0000
0100
0000
,
0100
0000
0000
0000
,
0001
0000
0001
0000
,
0001
0000
0000
0000
,
1000
0000
0001
0000
,
1000
0000
0001
0000
,
0202
0000
0000
0000
,
0000
0000
0000
0000
,
0000
0000
0000
0000
,
0000
0000
0000
0000
0000
0000
0000
0303
;

//---------------dance-single - ----------------
#NOTEDATA:;
#CHARTNAME:;
#STEPSTYPE:dance-single;
#DESCRIPTION:;
#CHARTSTYLE:;
#DIFFICULTY:Easy;
#METER:4;
#RADARVALUES:0.168365,0.245552,0.065999,0.047142,0.000000,125.000000,118.000000,7.000000,5.000000,0.000000,0.000000,0.000000,0.000000,0.000000,0.168365,0.245552,0.065999,0.047142,0.000000,125.000000,118.000000,7.000000,5.000000,0.000000,0.000000,0.000000,0.000000,0.000000;
#CREDIT:;
#NOTES:
0000
0000
0000
0000
,
0000
0000
0000
0000
,
0000
0000
0000
0000
,
0000
0000
0000
0000
,
0000
1000
0000
1000
,
0000
0001
0000
0001
,
0000
0100
0100
0100
,
0000
0010
0010
0010
,
0000
0100
0000
0001
,
0000
1000
0000
0001
,
0000
0010
0000
0100
,
1000
0001
1001
0000
,
0010
0100
0010
0000
,
1000
0001
1000
0000
,
0100
0000
0001
0000
,
0100
0000
1000
0000
,
0010
0100
0010
0000
,
1000
0001
1000
0000
,
0010
0000
0001
0000
,
0010
0000
1000
0000
,
1001
0000
0000
0000
,
0100
0000
0100
0000
,
0010
0000
0001
0000
,
1000
0000
0100
0000
,
0001
0000
0100
0000
,
1000
0000
0010
0000
,
0000
2000
3000
2000
,
3000
0002
0003
0002
,
0003
0010
0100
0100
,
0000
1000
0001
0001
,
0000
0010
0000
0001
,
0000
1000
0000
0001
,
0000
0100
0000
0010
,
1000
0001
1001
0000
,
0100
0010
0100
0000
,
1000
0001
1000
0000
,
0010
0000
0001
0000
,
0010
0000
1000
0000
,
0100
0010
0100
0000
,
1000
0001
1000
0000
,
0100
0000
0001
0000
,
0100
0000
1000
0000
,
0010
0001
0010
0000
,
1000
0010
1000
0000
,
0100
0000
0001
0000
,
0010
0000
1000
0000
,
0100
0000
0100
0000
,
0010
0000
0010
0000
,
0001
0000
0001
0000
,
1000
0001
1000
0001
,
0100
0000
0100
0000
,
0010
0000
0010
0000
,
0110
0000
1001
0000
,
0110
0000
1001
0000
,
0200
0000
0000
0000
,
0000
0000
0000
0000
,
0000
0000
0000
0000
,
0000
0000
0000
0000
0000
0000
0000
0300
;

//---------------dance-single - ----------------
#NOTEDATA:;
#CHARTNAME:;
#STEPSTYPE:dance-single;
#DESCRIPTION:;
#CHARTSTYLE:;
#DIFFICULTY:Medium;
#METER:7;
#RADARVALUES:0.294976,0.354686,0.131998,0.169712,0.000000,219.000000,205.000000,14.000000,18.000000,0.000000,0.000000,0.000000,0.000000,0.000000,0.294976,0.354686,0.131998,0.169712,0.000000,219.000000,205.000000,14.000000,18.000000,0.000000,0.000000,0.000000,0.000000,0.000000;
#CREDIT:;
#NOTES:
0000
0000
0000
0000
,
0000
0000
0000
0000
,
0000
0000
0000
0000
,
0000
0000
0000
0000
,
0000
1000
0100
0020
,
0030
0001
0100
0020
,
0030
0000
1000
0000
0100
1000
0020
0000
,
0030
0000
0001
0000
0100
0001
0020
0000
,
0130
1000
0010
1000
,
0100
0000
0010
0010
0000
0000
0010
0000
,
0001
1000
0001
1000
,
0010
0100
0010
0100
0010
0000
0000
0000
,
1001
0100
1000
0010
,
1000
0000
0100
0000
0010
0001
0010
0000
,
0100
0000
1000
0000
0010
1000
0010
0000
,
0100
0001
1000
1001
,
0001
0100
0001
0010
,
0100
0000
1000
0000
0010
1000
0010
0000
,
0100
0000
0001
0000
0010
0001
0010
0000
,
0100
1000
0001
1001
,
0210
0000
0000
0000
,
0010
0010
0010
0310
,
1000
0000
0001
0000
1000
0100
2000
0000
,
3000
0000
0010
0000
0100
0001
0200
0000
,
0300
0010
1000
0001
,
0010
0100
1100
0101
,
0000
0001
0100
0020
,
0030
1000
0100
0020
,
0030
0000
0001
0000
0100
0001
0020
0000
,
0030
0000
1000
0000
0100
1000
0020
0000
,
0130
0001
0010
0001
,
0100
0000
0010
0010
0000
0000
1000
0000
,
0001
1000
0001
1000
,
0010
0100
0010
0100
0010
0000
0000
0000
,
1001
0100
0001
0010
,
0001
0000
0100
0000
0010
1000
0010
0000
,
0100
0000
0001
0000
0010
0001
0010
0000
,
0100
1000
0001
1001
,
1000
0100
1000
0010
,
0100
0000
0001
0000
0010
0001
0010
0000
,
0100
0000
1000
0000
0010
1000
0010
0000
,
0100
0001
1000
1010
,
0101
0100
0001
0010
,
0100
0000
1000
0000
0010
0100
0010
0000
,
1000
0000
0001
0000
0010
0100
0010
0000
,
0001
1000
0001
1000
,
1002
0000
0100
0103
,
0001
0010
1000
0010
,
0002
0003
2000
3000
,
0020
0000
0030
0000
0100
0001
1000
0000
,
2001
0000
0100
3100
,
1000
0010
0001
0010
,
1000
1000
0000
0100
0100
0000
0001
0001
,
0000
0010
0010
0000
1000
1000
0000
0110
,
0000
2002
0000
0000
0000
0000
0000
0000
,
0000
0000
0000
0000
,
0000
0000
0000
0000
,
0000
0000
0000
0000
0000
0000
0000
3003
;

//---------------dance-single - ----------------
#NOTEDATA:;
#CHARTNAME:;
#STEPSTYPE:dance-single;
#DESCRIPTION:;
#CHARTSTYLE:;
#DIFFICULTY:Hard;
#METER:11;
#RADARVALUES:0.417546,0.682089,0.348853,0.103713,0.000000,310.000000,273.000000,37.000000,11.000000,0.000000,0.000000,0.000000,0.000000,0.000000,0.417546,0.682089,0.348853,0.103713,0.000000,310.000000,273.000000,37.000000,11.000000,0.000000,0.000000,0.000000,0.000000,0.000000;
#CREDIT:;
#DISPLAYBPM:132.000000;
#NOTES:
0000
0000
0000
0000
,
0000
0000
0000
0000
,
0000
0000
0000
0000
,
0000
0000
0000
0000
,
0000
1000
0100
1000
0001
1000
0100
0000
,
0000
0001
0100
0001
1000
0001
0100
0000
,
0000
0010
1000
0100
0010
0001
0010
0000
,
0000
0100
1000
0010
0100
0001
0100
0000
,
0001
0101
0001
0101
,
1000
0000
0010
0100
0000
0100
0010
0000
,
1000
1100
1000
1100
,
1000
0001
1000
0001
2002
0000
3003
0000
,
0010
0001
1000
0000
0010
1000
0001
0100
,
0000
0010
0000
0100
0010
1000
0001
0010
,
0100
0000
1001
0000
1000
0100
0001
0000
,
0010
0000
1001
0000
1000
0010
0001
0000
,
0100
0001
1000
0000
0100
1000
0001
0010
,
0000
0100
0000
0010
0100
1000
0001
0100
,
0010
0000
1001
0000
1000
0010
0001
0000
,
0100
0000
1001
0000
1000
0100
0001
0000
,
2002
0000
0000
3003
,
1001
1001
1001
1001
,
1001
0100
0010
1000
0001
0010
0100
0000
,
0000
1000
0010
0100
0001
1000
0100
0000
,
0000
0010
0100
1000
0001
1000
0100
0000
,
0000
0010
0100
0001
1000
0001
0100
0000
,
0000
0001
0010
0001
1000
0001
0010
0000
,
0110
0000
0100
1000
0001
1000
0100
0000
,
0000
0010
0001
0100
1000
0100
0001
0000
,
0000
0010
0100
1000
0010
0001
0010
0000
,
1000
1100
0001
0101
,
1000
0000
0100
0010
0000
0010
0100
0000
,
1000
1010
0001
0011
,
0001
1000
0001
1000
2002
0000
3003
0000
,
0100
1000
0001
0000
0100
0001
1000
0010
,
0000
0100
0000
0010
0100
0001
1000
0100
,
0010
0000
1001
0000
0001
0010
1000
0000
,
0100
0000
1001
0000
0001
0100
1000
0000
,
0010
1000
0001
0000
0010
0001
1000
0100
,
0000
0010
0000
0100
0010
0001
1000
0010
,
0100
0000
1001
0000
0001
0100
1000
0000
,
0010
0000
1001
0000
0001
0010
1000
0000
,
0010
0100
1000
0000
0010
0100
0001
1000
,
0000
0001
0000
1000
0100
0010
0001
0000
,
0100
0000
0110
0000
1000
0100
0001
0000
,
0010
0000
0110
0000
1000
0100
0010
0001
,
2000
0100
0001
0100
,
0001
0000
0100
0000
3001
0000
0100
1000
,
0002
0100
1000
0100
,
1000
0000
0100
0000
1003
0010
0100
0001
,
0020
0100
0001
0100
,
0001
0000
0100
0000
0031
0000
0100
1000
,
1001
1001
0001
0011
0011
1000
1100
1100
,
0001
1001
1001
0000
0001
0100
0010
1001
,
0000
0220
0000
0000
0000
0000
0000
0000
,
0000
0000
0000
0000
,
0000
0000
0000
0000
,
0000
0000
0000
0000
0000
0000
0000
0330
;

//---------------dance-double - ----------------
#NOTEDATA:;
#CHARTNAME:;
#STEPSTYPE:dance-double;
#DESCRIPTION:;
#CHARTSTYLE:;
#DIFFICULTY:Easy;
#METER:3;
#RADARVALUES:0.168365,0.233354,0.065999,0.047142,0.000000,125.000000,118.000000,7.000000,5.000000,0.000000,0.000000,0.000000,0.000000,0.000000,0.168365,0.233354,0.065999,0.047142,0.000000,125.000000,118.000000,7.000000,5.000000,0.000000,0.000000,0.000000,0.000000,0.000000;
#CREDIT:;
#NOTES:
00000000
00000000
00000000
00000000
,
00000000
00000000
00000000
00000000
,
00000000
00000000
00000000
00000000
,
00000000
00000000
00000000
00000000
,
00000000
00000001
00000000
00000001
,
00000000
00001000
00000000
00001000
,
00000000
00000100
00000100
00000100
,
00000000
00010000
00010000
00010000
,
00000000
00001000
00000000
01000000
,
00000000
00100000
00000000
10000000
,
00000000
00010000
00000000
00100000
,
01000000
00100000
01100000
00000000
,
00010000
00001000
00010000
00000000
,
00000100
00000010
00000100
00000000
,
00000001
00000000
00000010
00000000
,
00001000
00000000
00010000
00000000
,
00001000
00010000
00001000
00000000
,
01000000
00100000
01000000
00000000
,
10000000
00000000
00100000
00000000
,
00010000
00000000
00001000
00000000
,
00011000
00000000
00000000
00000000
,
00010000
00000000
00001000
00000000
,
00000100
00000000
00000010
00000000
,
00000001
00000000
00001000
00000000
,
00000010
00000000
00000100
00000000
,
00001000
00000000
00010000
00000000
,
00000000
02000000
03000000
02000000
,
03000000
00200000
00300000
00200000
,
00300000
10000000
01000000
00010000
,
00000000
00001000
00000100
00000001
,
00000000
00000010
00000000
00000100
,
00000000
00010000
00000000
00001000
,
00000000
01000000
00000000
00100000
,
10000000
01000000
01100000
00000000
,
00010000
00001000
00010000
00000000
,
00000100
00000010
00000100
00000000
,
00000001
00000000
00000010
00000000
,
00001000
00000000
00010000
00000000
,
00001000
00010000
00001000
00000000
,
01000000
00100000
01000000
00000000
,
10000000
00000000
00100000
00000000
,
00010000
00000000
00001000
00000000
,
00010000
00001000
00000100
00000000
,
00001000
00010000
01000000
00000000
,
00010000
00000000
00001000
00000000
,
00000100
00000000
00000001
00000000
,
00000010
00000000
00000010
00000000
,
00001000
00000000
00001000
00000000
,
00010000
00000000
00010000
00000000
,
01000000
00100000
01000000
00100000
,
00010000
00000000
00010000
00000000
,
10000000
00000000
10000000
00000000
,
01100000
00000000
10010000
00000000
,
01100000
00000000
00011000
00000000
,
00000200
00000000
00000000
00000000
,
00000300
00000000
00000000
00000000
;

//---------------dance-double - ----------------
#NOTEDATA:;
#CHARTNAME:;
#STEPSTYPE:dance-double;
#DESCRIPTION:;
#CHARTSTYLE:;
#DIFFICULTY:Medium;
#METER:5;
#RADARVALUES:0.293629,0.337067,0.113141,0.160284,0.000000,218.000000,206.000000,12.000000,17.000000,0.000000,0.000000,0.000000,0.000000,0.000000,0.293629,0.337067,0.113141,0.160284,0.000000,218.000000,206.000000,12.000000,17.000000,0.000000,0.000000,0.000000,0.000000,0.000000;
#CREDIT:;
#NOTES:
00000000
00000000
00000000
00000000
,
00000000
00000000
00000000
00000000
,
00000000
00000000
00000000
00000000
,
00000000
00000000
00000000
00000000
,
00000000
10000000
01000000
00020000
,
00030000
00001000
00000100
00000002
,
00000003
00000000
00001000
00000000
00000010
00010000
00002000
00000000
,
00003000
00000000
00010000
00000000
00100000
00001000
00020000
00000000
,
00031000
00010000
01000000
10000000
,
00100000
00000000
01000000
01000000
00000000
00000000
01000000
00000000
,
00010000
00100000
00001000
00010000
,
00001000
00010000
00001000
00010000
00001000
00000000
00000000
00000000
,
00011000
00001000
00000100
00000001
,
00000100
00000000
00000010
00000000
00001000
00000100
00001000
00000000
,
00010000
00000000
00001000
00000000
01000000
00010000
01000000
00000000
,
00100000
10000000
01000000
00010000
,
00011000
00001000
00000010
00000001
,
00000010
00000000
00000100
00000000
00001000
00000010
00001000
00000000
,
00010000
00000000
00001000
00000000
00100000
00010000
00100000
00000000
,
01000000
10000000
00100000
01100000
,
20020000
00000000
00000000
00030000
,
01000000
01000000
01000000
31000000
,
00100000
00000000
00001000
00000000
00010000
00001000
00020000
00000000
,
00030000
00000000
00000010
00000000
00000100
00000010
00000200
00000000
,
00000300
00000001
00000010
00000100
,
00001000
00000001
00000101
00001100
,
00000000
10000000
00100000
00020000
,
00030000
00001000
00000010
00000002
,
00000003
00000000
00001000
00000000
00000100
00010000
00002000
00000000
,
00003000
00000000
00010000
00000000
01000000
00001000
00020000
00000000
,
00031000
00010000
00100000
10000000
,
01000000
00000000
00100000
00100000
00000000
00000000
00100000
00000000
,
00010000
01000000
00001000
00010000
,
00001000
00010000
00001000
00010000
00001000
00000000
00000000
00000000
,
00011000
00001000
00000010
00000001
,
00000010
00000000
00000100
00000000
00001000
00000010
00001000
00000000
,
00010000
00000000
00001000
00000000
00100000
00010000
00100000
00000000
,
01000000
10000000
00100000
00010000
,
00011000
00001000
00000100
00000001
,
00000100
00000000
00000010
00000000
00001000
00000100
00001000
00000000
,
00010000
00000000
00001000
00000000
01000000
00010000
01000000
00000000
,
00100000
10000000
01000000
00010000
,
00011000
00001000
00000100
00000001
,
00000010
00000000
00000100
00000000
00001000
00000100
00010000
00000000
,
00001000
00000000
00010000
00000000
00001000
01000000
00010000
00000000
,
00100000
01000000
10000000
00010000
,
10010000
00000000
00100000
01000000
,
00001000
00010000
00000100
00000010
,
00000002
00000003
00002000
00003000
,
00000020
00000000
00000030
00000000
00000100
00000001
00001000
00000000
,
00001001
00000000
00000010
00000100
,
00010000
00001000
01000000
00100000
,
10000000
10000000
00000000
01000000
01000000
00000000
00010000
00010000
,
00000000
00001000
00001000
00000000
00000100
00000001
00000010
00000100
,
00000000
00002002
00000000
00000000
00000000
00000000
00000000
00000000
,
00003003
00000000
00000000
00000000
;

//---------------dance-double - ----------------
#NOTEDATA:;
#CHARTNAME:;
#STEPSTYPE:dance-double;
#DESCRIPTION:;
#CHARTSTYLE:;
#DIFFICULTY:Hard;
#METER:7;
#RADARVALUES:0.402729,0.527993,0.292282,0.103713,0.000000,299.000000,268.000000,31.000000,11.000000,0.000000,0.000000,0.000000,0.000000,0.000000,0.402729,0.527993,0.292282,0.103713,0.000000,299.000000,268.000000,31.000000,11.000000,0.000000,0.000000,0.000000,0.000000,0.000000;
#CREDIT:;
#NOTES:
00000000
00000000
00000000
00000000
,
00000000
00000000
00000000
00000000
,
00000000
00000000
00000000
00000000
,
00000000
00000000
00000000
00000000
,
00000000
10000000
01000000
10000000
00010000
01000000
00010000
00000000
,
00000000
00100000
00010000
00100000
00001000
00010000
00001000
00000000
,
00000000
00001000
01000000
00001000
00100000
00010000
01000000
00000000
,
00000000
00010000
00000100
00010000
00000010
00001000
00000100
00000000
,
00000010
00000011
00000010
00000011
,
00000100
00000000
00010000
00001000
00000000
00001000
00010000
00000000
,
01000000
11000000
01000000
11000000
,
10000000
00010000
10000000
00010000
20020000
00000000
30030000
00000000
,
00100000
00010000
10000000
00000000
00100000
10000000
00010000
00000000
,
01000000
00010000
00100000
00001000
00010000
00000000
00001000
00000000
,
00010000
00000100
00001000
00000000
00000010
00001000
00000100
00000000
,
00000010
00000001
00000100
00000000
00001010
00000000
00000101
00000000
,
00000010
00001000
00000001
00000000
00000010
00000001
00001000
00000000
,
00000100
00001000
00000010
00010000
00001000
00000000
00010000
00000000
,
00001000
01000000
00010000
00000000
00100000
00010000
01000000
00000000
,
00100000
10000000
01000000
00000000
00110000
00000000
11000000
00000000
,
20020000
00000000
00000000
30030000
,
10000000
01000000
00010000
00001000
,
00010000
00000100
00001000
00000100
00000010
00000001
00000010
00000000
,
00000000
00001000
00000010
00001000
00000001
00000100
00000001
00000000
,
00000000
00000100
00001000
00010000
00001000
00010000
01000000
00000000
,
00000000
00100000
00001000
00010000
00001000
00010000
00000010
00000000
,
00000000
00000001
00000100
00000001
00001000
00000100
00001000
00000000
,
00010100
00000000
00001000
00010000
00001000
01000000
00010000
00000000
,
00000000
00100000
00010000
01000000
10000000
01000000
00010000
00000000
,
00000000
00100000
10000000
01000000
00010000
01000000
10000000
00000000
,
00100000
00110000
00001000
00011000
,
00000100
00000000
00001000
00000001
00000000
00000001
00001000
00000000
,
00000100
00001100
00010000
00011000
,
00100000
00010000
10000000
00010000
20020000
00000000
30030000
00000000
,
01000000
00010000
10000000
00000000
01000000
10000000
00010000
00000000
,
00100000
00010000
01000000
00001000
00010000
00000000
00001000
00000000
,
00010000
00000010
00001000
00000000
00000100
00001000
00000010
00000000
,
00000100
00000001
00000010
00000000
00001100
00000000
00000011
00000000
,
00000100
00001000
00000001
00000000
00000100
00000001
00001000
00000000
,
00000010
00001000
00000100
00010000
00001000
00000000
00010000
00000000
,
00001000
00100000
00010000
00000000
01000000
00010000
00100000
00000000
,
01000000
10000000
00100000
00000000
01010000
00000000
10100000
00000000
,
01000000
00010000
00100000
00000000
00100000
00001000
00010000
00000000
,
00010000
00000010
00001000
00000000
00001000
00000001
00000100
00000000
,
00000010
00001000
00000100
00000000
00010000
00001000
01000000
00000000
,
00100000
10000000
00010000
00000000
11000000
00000000
01010000
00000000
,
20000000
01000000
00100000
01000000
,
00100000
00000000
01000000
00000000
30100000
00000000
00010000
01000000
,
00002000
00100000
00010000
00100000
,
00010000
00000000
00100000
00000000
00013000
00001000
00000100
00000000
,
00000002
00000100
00000010
00000100
,
00000010
00000100
00000013
00000001
,
00001100
00001100
00000000
00011000
00011000
00000000
01010000
01010000
,
00000000
10010000
10010000
00000000
00100000
10000000
01000000
00100000
,
00000000
02200000
00000000
00000000
00000000
00000000
00000000
00000000
,
00000000
00000000
00000000
00000000
,
03300000
00000000
00000000
00000000
;

//---------------dance-single - ----------------
#NOTEDATA:;
#CHARTNAME:;
#STEPSTYPE:dance-single;
#DESCRIPTION:;
#CHARTSTYLE:;
#DIFFICULTY:Challenge;
#METER:15;
#RADARVALUES:0.685583,0.892579,0.329996,0.405423,0.433709,509.000000,474.000000,35.000000,43.000000,0.000000,0.000000,0.000000,0.000000,0.000000,0.685583,0.892579,0.329996,0.405423,0.433709,509.000000,474.000000,35.000000,43.000000,0.000000,0.000000,0.000000,0.000000,0.000000;
#CREDIT:;
#NOTES:
// measure 0
0000
0000
0000
0000
,  // measure 1
0000
0000
0000
0000
,  // measure 2
0000
0000
0000
0000
,  // measure 3
0000
0000
0000
0000
,  // measure 4
1000
0000
0100
1000
0100
0000
0010
1000
0010
0000
1000
0001
1000
0000
0100
0000
,  // measure 5
0010
0000
0001
0100
0001
0000
0010
1000
0010
0000
0100
0010
0100
0000
0001
0000
,  // measure 6
1000
0000
0100
1000
0100
0000
0001
0100
0001
0000
1000
0100
1000
0000
0010
0000
,  // measure 7
0100
0000
1000
0010
1000
0000
0100
0010
0100
0000
0001
1000
0001
0000
0010
0000
,  // measure 8
0100
1000
0100
1000
0001
1000
0001
1000
,  // measure 9
0020
0000
0100
0230
0000
0001
0301
1000
,  // measure 10
1001
0010
0100
1000
0010
0100
0001
1000
,  // measure 11
0010
0010
0100
0100
0200
0320
0230
0320
,  // measure 12
1030
0000
0100
0001
0100
0000
0010
0000
1000
0100
1000
0100
1000
0000
0010
0000
,  // measure 13
0100
0001
0100
0000
0010
0000
1000
0000
0001
0100
0001
0000
0010
0000
1000
0000
,  // measure 14
0200
1300
0200
0301
0010
0100
1000
0010
,  // measure 15
0100
0000
0001
0100
0001
0000
0010
0000
0200
0000
0302
0000
0203
0000
0302
0000
,  // measure 16
1003
0000
0010
1000
0010
0000
0100
0000
0001
0010
0001
0010
0001
0000
0100
0000
,  // measure 17
0010
0100
0010
0000
1000
0000
0100
0000
0010
0001
0010
0001
0100
0000
1000
0000
,  // measure 18
0200
0310
0200
0301
0010
1000
0100
0001
,  // measure 19
1000
0100
0010
0100
2000
3200
2300
3200
,  // measure 20
0000
0020
0000
0000
0000
0000
0330
0000
,  // measure 21
0110
1010
0110
0101
,  // measure 22
1001
0000
0001
0100
0001
0000
1000
0100
1000
0000
0010
0100
0010
0100
0010
0000
,  // measure 23
0110
0000
0100
0001
0100
0000
1000
0100
1000
0000
0001
1000
0001
1000
0001
0000
,  // measure 24
1001
0000
1000
0100
1000
0000
0100
0010
0100
0000
0001
0010
0001
0010
0001
0000
,  // measure 25
0011
0000
0001
0100
0001
0000
0010
1000
0010
0000
1000
0100
1000
0100
1000
0000
,  // measure 26
1100
0000
1000
0001
1000
0000
0010
0100
0010
0000
0001
0010
0001
0010
0001
0000
,  // measure 27
0101
0000
0100
0010
0100
0000
1000
0100
1000
0000
0010
0100
0010
0100
0010
0000
,  // measure 28
1010
0000
1000
0001
1000
0000
0001
0100
0001
0000
0010
1000
0010
1000
0010
0000
,  // measure 29
0110
0000
0100
0001
0100
0000
0010
1000
0010
0000
1000
0001
1000
0001
1000
0000
,  // measure 30
1001
1000
0100
0001
1000
0010
0001
0100
,  // measure 31
2000
0000
0001
3002
0000
1003
1001
1000
,  // measure 32
0001
0100
0010
1000
0100
0001
0100
1000
,  // measure 33
0001
0001
1000
1000
0002
2003
3002
2003
,  // measure 34
3010
0000
1000
0010
1000
0000
0100
0000
0010
0001
0010
0001
0010
0000
0100
0000
,  // measure 35
1000
0001
1000
0000
0010
0000
0100
0000
0001
1000
0001
0000
0100
0000
0010
0000
,  // measure 36
2000
3100
0002
0013
1000
0010
0001
0100
,  // measure 37
0010
0000
1000
0100
1000
0000
0010
0000
0020
0000
2030
0000
3020
0000
2030
0000
,  // measure 38
3100
0000
0010
1000
0010
0000
0100
0000
0010
0001
0010
0001
0010
0000
1000
0000
,  // measure 39
0001
0000
0100
0001
0100
0000
0010
0000
1000
0100
1000
0100
1000
0000
0010
0000
,  // measure 40
0200
0301
0020
1030
0001
0100
1000
0010
,  // measure 41
0100
0000
0010
0100
0010
0000
0001
0000
0020
0000
0032
0000
0023
0000
0032
0000
,  // measure 42
1003
0000
0100
0010
0001
0000
0010
0000
1000
0000
0010
0100
1000
0000
0010
0000
,  // measure 43
1000
0000
0001
0010
0200
0000
1300
0000
0010
0100
1000
0100
0010
0000
0001
0000
,  // measure 44
0100
0001
0100
0000
0010
1000
0010
0000
1000
0100
1000
0000
0001
0100
0001
0000
,  // measure 45
0010
0100
0010
0000
1000
0000
0010
0000
0011
0000
0110
0000
1010
0000
2000
0000
,  // measure 46
0000
0002
3000
0000
0103
0010
1000
1100
,  // measure 47
0000
0000
1001
0000
0000
0000
0101
0000
0000
0000
0001
0000
0100
0001
0100
0000
,  // measure 48
0010
1000
0010
1000
0010
0000
0001
0000
0100
0000
0010
0000
1000
0000
0100
0000
,  // measure 49
0001
0100
1000
0010
0101
1010
1100
0011
,  // measure 50
0001
0000
1000
0001
0100
0000
0010
0000
0001
0000
0100
0010
1000
0000
0100
0000
,  // measure 51
0010
1000
0100
0000
0010
0000
0001
0000
0100
0010
1000
0000
0100
0000
0010
0000
,  // measure 52
0011
0000
0101
0000
0001
0100
0010
1000
1010
0000
1100
0000
1000
0100
0010
0001
,  // measure 53
0101
0000
0110
0000
0010
0001
0100
0010
1010
0000
1001
0000
0110
0000
1010
0000
,  // measure 54
2000
0200
0000
0000
0000
3000
0000
0002
,  // measure 55
0000
0000
0000
0000
,  // measure 56
0000
0000
0000
0000
,  // measure 57
0000
0000
0000
0303
0000
0000
0000
0000
;
