#VERSION:0.83;
#TITLE:虹色;
#SUBTITLE:;
#ARTIST:DJ YOSHITAKA feat.罗斓;
#TITLETRANSLIT:NIJIIRO;
#SUBTITLETRANSLIT:;
#ARTISTTRANSLIT:DJ YOSHITAKA feat.Luo Lan;
#GENRE:;
#ORIGIN:;
#CREDIT:;
#BANNER:NIJIIRO (Chinese).png;
#BACKGROUND:NIJIIRO (Chinese)-bg.png;
#PREVIEWVID:;
#JACKET:NIJIIRO (Chinese)-jacket.png;
#CDIMAGE:;
#DISCIMAGE:;
#LYRICSPATH:;
#CDTITLE:;
#MUSIC:NIJIIRO (Chinese).ogg;
#OFFSET:0.000000;
#SAMPLESTART:47.590000;
#SAMPLELENGTH:15.000000;
#SELECTABLE:YES;
#BPMS:0.000=160.000;
#STOPS:;
#DELAYS:;
#WARPS:;
#TIMESIGNATURES:0.000=4=4;
#TICKCOUNTS:0.000=4;
#COMBOS:0.000=1;
#SPEEDS:0.000=1.000=0.000=0;
#SCROLLS:0.000=1.000;
#FAKES:;
#LABELS:0.000=Song Start;
#BGCHANGES:;
#KEYSOUNDS:;
#ATTACKS:
;

//---------------dance-single - ----------------
#NOTEDATA:;
#CHARTNAME:;
#STEPSTYPE:dance-single;
#DESCRIPTION:;
#CHARTSTYLE:;
#DIFFICULTY:Beginner;
#METER:3;
#RADARVALUES:0.169300,0.317437,0.137556,0.000000,0.000000,112.000000,99.000000,13.000000,0.000000,0.000000,0.000000,0.000000,0.000000,0.000000,0.169300,0.317437,0.137556,0.000000,0.000000,112.000000,99.000000,13.000000,0.000000,0.000000,0.000000,0.000000,0.000000,0.000000;
#CREDIT:;
#NOTES:
0000
0000
0000
0000
,
0000
0000
0000
0000
,
1000
0000
0000
0000
,
1000
0000
0000
0000
,
1000
0000
0000
0000
,
0001
0001
0000
0000
,
1000
0000
0000
0000
,
1000
0000
0000
0000
,
1000
0000
1000
0000
,
0001
0001
0000
0100
,
0000
0000
0000
0000
,
1001
0000
0000
0000
,
0110
0000
0110
0000
,
1001
0000
0110
0000
,
1001
0000
0000
0000
,
1000
0000
0000
0000
,
1000
0000
0000
0000
,
1000
0000
0100
0000
,
0010
0000
0010
0000
,
0001
0000
0000
0000
,
0001
0000
0000
0000
,
0001
0000
0100
0000
,
0010
0000
1000
1000
,
0000
0000
1000
0000
,
1000
0000
0100
0100
,
0000
0000
0001
0000
,
0100
0000
0010
0010
,
0010
0000
0100
0100
,
0000
0000
1000
0000
,
0100
0000
0000
0000
,
0010
0000
0010
0000
,
0001
0000
1000
0000
,
0010
0000
0010
0000
,
1000
0000
0001
0000
,
0010
0000
0010
0000
,
0001
0001
0000
1000
,
0000
0000
0010
0000
,
1000
0000
0100
0000
,
0010
0000
0001
0000
,
1000
1000
0000
1000
,
0000
0000
0010
0000
,
0010
0000
0010
0000
,
0100
0000
0100
0000
,
0100
0000
0100
0000
,
0010
0000
0010
0000
,
0010
0000
1000
0000
,
0010
0000
0010
0000
,
0001
0000
0001
0000
,
1000
0000
0000
0000
,
1000
0000
0000
0000
,
1000
0000
1000
0000
,
0100
0100
0000
0100
,
0000
0000
0000
0000
,
1000
0000
0000
0000
,
0001
0000
0100
0000
,
0001
0000
0001
0000
,
0110
0000
0000
0000
,
1001
0000
0000
0000
,
0110
0000
0110
0000
,
1001
0000
0110
0000
,
1001
0000
0000
0000
,
0000
0000
0000
0000
;

//---------------dance-single - ----------------
#NOTEDATA:;
#CHARTNAME:;
#STEPSTYPE:dance-single;
#DESCRIPTION:;
#CHARTSTYLE:;
#DIFFICULTY:Easy;
#METER:4;
#RADARVALUES:0.199532,0.317437,0.148137,0.000000,0.000000,132.000000,118.000000,14.000000,0.000000,0.000000,0.000000,0.000000,0.000000,0.000000,0.199532,0.317437,0.148137,0.000000,0.000000,132.000000,118.000000,14.000000,0.000000,0.000000,0.000000,0.000000,0.000000,0.000000;
#CREDIT:;
#NOTES:
0000
0000
0000
0000
,
0000
0000
0000
0000
,
1000
0000
0000
0000
,
1000
0000
0000
0000
,
1000
0000
0000
0000
,
0001
0001
0100
0000
,
1000
0000
0000
0000
,
1000
0000
0000
0000
,
1000
0000
1000
0000
,
0001
0001
0100
0100
,
1001
0000
0000
0000
,
1001
0000
0000
0000
,
0110
0000
0110
0000
,
1001
0000
0110
0000
,
1001
0000
0000
0000
,
1000
0000
0000
0000
,
1000
0000
0000
0000
,
1000
0000
0100
0000
,
0010
0000
0010
0000
,
0001
0000
0000
0000
,
0001
0000
0000
0000
,
0001
0000
0100
0000
,
0010
0000
1000
1000
,
0001
0000
1000
0000
,
1000
0000
0100
0100
,
0010
0000
0001
0000
,
0100
0000
0010
0010
,
0010
0000
0100
0100
,
0001
0000
1000
0000
,
0100
0000
0000
0000
,
0010
0000
0010
0000
,
0001
0000
1000
0000
,
0010
0000
0010
0000
,
1000
0000
0001
0000
,
0010
0000
0010
0000
,
0001
0001
1000
1000
,
0010
0000
0010
0000
,
1000
0000
0100
0000
,
0010
0000
0001
0000
,
1000
1000
0100
1000
,
0010
0000
0010
0000
,
0010
0000
0010
1000
,
0100
0000
0100
0000
,
0100
1000
0100
1000
,
0010
0000
0010
0000
,
0010
0000
1000
0100
,
0010
0000
0010
0000
,
0001
1000
0001
0000
,
1000
0000
0000
0000
,
1000
0000
0000
0000
,
1000
0000
1000
0000
,
0100
0100
1000
0100
,
1000
0000
0000
0000
,
1000
0000
0000
0000
,
0001
0000
0100
0000
,
0001
0100
0001
1000
,
0110
0000
0000
0000
,
1001
0000
0000
0000
,
0110
0000
0110
0000
,
1001
0000
0110
0000
,
1001
0000
0000
0000
,
0000
0000
0000
0000
;

//---------------dance-single - ----------------
#NOTEDATA:;
#CHARTNAME:;
#STEPSTYPE:dance-single;
#DESCRIPTION:;
#CHARTSTYLE:;
#DIFFICULTY:Medium;
#METER:8;
#RADARVALUES:0.391505,0.412668,0.031744,0.052906,0.063487,259.000000,256.000000,3.000000,5.000000,0.000000,0.000000,0.000000,0.000000,0.000000,0.391505,0.412668,0.031744,0.052906,0.063487,259.000000,256.000000,3.000000,5.000000,0.000000,0.000000,0.000000,0.000000,0.000000;
#CREDIT:;
#NOTES:
0000
0000
0000
0000
,
0000
0000
0000
0000
,
1000
0000
1000
0000
0001
0100
0001
0000
,
1000
0000
1000
0000
0001
0010
0001
0000
,
1000
0000
1000
0000
0001
0100
0001
0010
,
0001
0100
1000
0100
,
0001
0000
0001
0000
1000
0010
1000
0000
,
0001
0000
0001
0000
1000
0100
1000
0000
,
0001
0010
0100
1000
,
0001
0100
0001
0100
0000
0000
0000
0000
,
0022
0000
0000
0033
,
2200
0000
0000
3300
,
0001
0000
0010
0000
,
0100
0000
0000
0100
0000
0000
0100
0000
1000
0000
0000
1000
0000
0000
1000
0000
,
0001
0000
0000
0000
,
0100
0000
0100
0000
0100
0000
0001
0100
,
0010
0000
0010
0000
0010
0000
1000
0100
,
0010
0010
0010
0000
,
0001
0001
1000
1000
,
0010
0000
0010
0000
0010
0000
1000
0010
,
0100
0000
0100
0000
0100
0000
0001
0010
,
0100
0100
0100
0010
,
0001
0001
1000
1000
,
0110
0000
0000
0000
1000
0000
1000
0001
,
1000
0000
0000
0000
0100
0000
0100
0010
,
0100
0100
1000
1000
,
0001
0001
1000
0001
,
0020
0030
0100
0010
,
1000
0010
0100
0001
,
0010
0000
0000
0010
0000
0000
0010
0000
0100
0000
0000
0100
0000
0000
0100
0000
,
1000
0000
0000
1000
0000
0000
1000
0000
0001
0000
0000
0001
0000
0000
0001
0000
,
1000
0000
0000
0001
0000
0000
0100
0000
0100
0000
0000
0000
0000
0000
0000
0000
,
0001
0001
1000
1000
,
0001
1000
0001
0001
,
0100
0100
0100
0010
,
1000
0100
0010
0000
0001
0100
0010
0000
,
1000
1000
1000
0001
,
1000
1000
1000
0100
,
0010
0001
1000
0100
,
0010
0001
0100
0000
0010
1000
0100
0000
,
1000
1000
1000
1000
,
1000
0000
1000
0000
1000
0000
1000
0001
,
1000
0000
1000
0000
1000
0000
1000
0001
,
0100
0001
1000
0100
,
0010
0010
0010
0010
,
0010
0010
0001
0100
,
0010
1000
0100
0010
,
0001
0000
0000
1000
0000
0000
0100
0000
0000
0000
0000
0000
0000
0000
0000
0000
,
0001
0000
0100
0000
0010
1000
0100
0000
,
0001
0000
0100
0000
0010
1000
0100
0000
,
0001
0000
0100
0000
0010
1000
0100
1000
,
0001
0001
1000
0100
,
0001
0000
0010
0000
0100
1000
0010
0000
,
0001
0000
0010
0000
0100
1000
0010
0000
,
0100
0001
0100
0000
0001
0100
0001
0100
,
0001
1000
0100
0001
,
0100
0001
0100
0000
1000
0000
0100
0000
,
0010
0001
0010
0000
1000
0000
0010
0000
,
0100
0000
0000
0100
0000
0000
0100
0000
0001
0000
0000
0001
0000
0000
0001
0000
,
0010
0000
0000
0010
0000
0000
0010
0000
0100
0000
0000
1000
0000
0000
0001
0000
,
0100
0000
0000
0000
,
0000
0000
0000
0000
;

//---------------dance-double - ----------------
#NOTEDATA:;
#CHARTNAME:;
#STEPSTYPE:dance-double;
#DESCRIPTION:;
#CHARTSTYLE:;
#DIFFICULTY:Easy;
#METER:4;
#RADARVALUES:0.176858,0.317437,0.126975,0.000000,0.000000,117.000000,105.000000,12.000000,0.000000,0.000000,0.000000,0.000000,0.000000,0.000000,0.176858,0.317437,0.126975,0.000000,0.000000,117.000000,105.000000,12.000000,0.000000,0.000000,0.000000,0.000000,0.000000,0.000000;
#CREDIT:;
#NOTES:
00000000
00000000
00000000
00000000
,
00000000
00000000
00000000
00000000
,
00100000
00000000
00000000
00000000
,
10000000
00000000
00000000
00000000
,
01000000
00000000
00000000
00000000
,
00010000
00010000
00001000
00000000
,
00000010
00000000
00000000
00000000
,
00000001
00000000
00000000
00000000
,
00000100
00000000
00001000
00000000
,
00010000
00000000
00001000
00000000
,
00000010
00000000
00000000
00000000
,
00100000
00000000
00000000
00000000
,
00010000
00000000
00001000
00000000
,
00000010
00000000
00000100
00000000
,
00001001
00000000
00000000
00000000
,
00010000
00000000
00000000
00000000
,
00010000
00000000
00000000
00000000
,
00001000
00001000
00100000
00000000
,
00010000
00000000
00010000
00000000
,
10000000
00000000
00000000
00000000
,
10000000
00000000
00000000
00000000
,
01000000
00000000
00010000
00000000
,
00001000
00000000
00010000
00000000
,
00001010
00000000
00001000
00000000
,
00000100
00000000
00010000
00000000
,
00001000
00000000
00100000
00000000
,
00010000
00000000
10000000
00000000
,
11000000
00000000
00010000
00000000
,
01000000
00000000
01000000
00000000
,
00001000
00000000
00010000
00000000
,
00010000
00000000
00010000
00000000
,
00000010
00000000
00001001
00000000
,
00001000
00000000
00000100
00000000
,
00010000
00000000
00000100
00000000
,
00001000
00000000
00000010
00000000
,
00010000
00010000
00001000
00000000
,
00100000
00000000
00010000
00000000
,
00100000
00000000
00001000
00000000
,
01000000
00000000
00100000
00000000
,
00100000
00000000
10000000
00010000
,
01000000
00000000
01000000
00000000
,
01000000
00000000
01000000
00001000
,
00010000
00000000
00010000
00000000
,
00000010
00000000
00000100
00000000
,
00000001
00000000
00000001
00000000
,
00001000
00000000
00000100
00000000
,
00010000
00000000
00001000
00000000
,
00100000
00000000
10010000
00000000
,
00010000
00000000
00000000
00000000
,
00010000
00000000
00000000
00000000
,
00010000
00000000
00000000
00000000
,
01000000
00001000
00010000
00000000
,
00000100
00000000
00000000
00000000
,
00000100
00000000
00000000
00000000
,
00000100
00000000
00000010
00000000
,
00000001
00000100
00000010
00000000
,
00001001
00000000
00000000
00000000
,
00011000
00000000
00000000
00000000
,
10010000
00000000
01100000
00000000
,
00110000
00000000
00011000
00000000
,
00000110
00000000
00000000
00000000
,
00000000
00000000
00000000
00000000
;

//---------------dance-double - ----------------
#NOTEDATA:;
#CHARTNAME:;
#STEPSTYPE:dance-double;
#DESCRIPTION:;
#CHARTSTYLE:;
#DIFFICULTY:Medium;
#METER:7;
#RADARVALUES:0.343134,0.476155,0.126975,0.052906,0.000000,227.000000,215.000000,12.000000,5.000000,0.000000,0.000000,0.000000,0.000000,0.000000,0.343134,0.476155,0.126975,0.052906,0.000000,227.000000,215.000000,12.000000,5.000000,0.000000,0.000000,0.000000,0.000000,0.000000;
#CREDIT:;
#NOTES:
00000000
00000000
00000000
00000000
,
00000000
00000000
00000000
00000000
,
00010000
00000000
00001000
00001000
,
00010000
00000000
00001000
00001000
,
00100000
10000000
00010000
01000000
,
00100000
01000000
00001000
00010000
,
00000000
00001000
00000000
00001000
,
00000000
00010000
00000000
00010000
,
00000010
00001000
00000000
00000000
00000001
00000100
00000000
00000000
,
00000010
00001000
00000100
00000010
,
00000202
00000000
00000000
00000303
,
00002020
00000000
00000000
00003030
,
00010000
00001000
00100000
00010000
,
10000000
10000000
01000000
01000000
,
00110000
00000000
00000000
00000000
,
00000000
00001000
00000000
00001000
,
00000000
00010000
00000000
00010000
,
00000010
00001000
00000100
00000000
,
00010000
00010000
00001000
00001000
,
00000000
00100000
00000000
00100000
,
00000000
01000000
00000000
01000000
,
10000000
00100000
01000000
00010000
,
00100000
00100000
00001000
00001000
,
00010100
00000000
00001000
00001000
,
00000010
00010000
00001000
00100000
,
00010000
01000000
00100000
10000000
,
01000000
00010000
00001000
00010000
,
00000010
00000010
00000010
00000010
,
00001000
00000100
00001000
00000010
,
00000100
00001000
00001000
00001000
,
00020000
00000000
00000000
00030000
,
00110000
10010000
11000000
00000000
,
01100000
00000000
00001000
00000000
00010000
00010000
00010000
00000000
,
00001100
00000010
00000001
00000100
,
00000010
00001000
00000010
00000100
,
00000001
00000001
00000001
00000000
00000010
00000010
00000010
00000000
,
00001100
00010000
00001000
00100000
,
00010000
10000000
01000000
01000000
,
00100000
00100000
00010000
01000000
,
00001000
00000000
00010000
00010000
00001000
00010000
00001000
00000000
,
00010000
00000100
00001000
00000100
,
00010000
00000100
00001000
00000010
,
00000100
00000001
00000100
00000001
,
00000010
00000100
00010000
00001000
,
00100000
00010000
00100000
00001000
,
00100000
00010000
10000000
00100000
,
01000000
01000000
00001000
00001000
,
00010000
00000010
00001001
00000000
,
00000001
00000010
00000100
00001000
,
00000010
00010000
00000010
00001000
,
00000100
00010000
00001000
00000100
,
00000010
00010000
00000010
00001000
,
00000001
00000010
00000100
00001000
,
00000010
00010000
00000010
00001000
,
00000100
00000100
00010000
00010000
,
00001000
00000100
00000010
00010000
,
00001000
01000000
01000000
00000000
00100000
00000000
00010000
00000000
,
00001000
00000010
00000010
00000000
00000001
00000000
00001000
00000000
,
00000010
00010000
00010000
00000000
00001000
01000000
01000000
00000000
,
00001000
00010000
00010000
00001000
00010000
00001000
01000000
00000000
,
10010000
00000000
00000000
00000000
,
00000000
00000000
00000000
00000000
;

//---------------dance-double - ----------------
#NOTEDATA:;
#CHARTNAME:;
#STEPSTYPE:dance-double;
#DESCRIPTION:;
#CHARTSTYLE:;
#DIFFICULTY:Hard;
#METER:13;
#RADARVALUES:0.533596,0.666617,0.031744,0.000000,0.354471,353.000000,350.000000,3.000000,0.000000,0.000000,0.000000,0.000000,0.000000,0.000000,0.533596,0.666617,0.031744,0.000000,0.354471,353.000000,350.000000,3.000000,0.000000,0.000000,0.000000,0.000000,0.000000,0.000000;
#CREDIT:;
#NOTES:
00000000
00000000
00000000
00000000
,
00000000
00000000
00000000
00000000
,
00000000
00000000
10000000
00000000
01000000
00000000
00000000
00000000
00100000
00000000
00010000
00100000
00000000
00000000
00001000
00000000
,
00000000
00000000
01000000
00000000
00010000
00000000
00000000
00000000
10000000
00000000
01000000
10000000
00000000
00000000
00100000
00000000
,
00000000
00000000
01000000
00000000
00010000
00000000
00000000
00000000
00100000
00000000
01000000
00100000
00000000
00000000
00010000
00000000
,
01000000
00000000
00000000
00001000
00010000
00000000
00000010
00000000
00001000
00000000
00000000
00000100
00000010
00000000
00000001
00000000
,
00000000
00000000
00001000
00000000
00000010
00000000
00000000
00000000
00000100
00000000
00000001
00000010
00000000
00000000
00000100
00000000
,
00000000
00000000
00001000
00000000
00000001
00000000
00000000
00000000
00000100
00000000
00000010
00001000
00000000
00000000
00000100
00000000
,
00010000
00000000
00000000
00001000
00000000
00000000
00100000
00000000
00010000
00100000
00000000
00001000
00000000
00000000
01000000
00000000
,
00010000
00000000
00100000
00000000
01000000
00000000
10000000
00000000
00010000
00000000
01000000
00000000
00100000
10000000
00100000
10000000
,
00100000
10000000
00000000
01000000
00000000
00000000
00100000
00010000
00100000
00000000
01000000
00000000
00010000
00000000
00001000
00000000
,
00000100
00000001
00000000
00000100
00000000
00000000
00000010
00001000
00000010
00000000
00010000
00000000
00001000
00000000
00010000
00000000
,
00000100
00001000
00000000
00000100
00000000
00000000
00010000
00001000
00010000
00001000
00000000
00100000
00000000
00000000
00010000
00000000
,
01000000
00010000
00000000
00100000
00000000
00000000
01000000
10000000
01000000
00000000
00100000
00000000
00001000
00000000
00010000
00000000
,
00000100
00000000
00000000
10000000
,
00010000
01000000
00001000
00100000
,
00010000
01000000
00001000
00100000
,
00010000
00010000
00010000
10000000
,
00000000
00100000
00000000
01000000
00100000
00000000
10000000
01000000
00000000
00100000
00010000
00000000
01000000
00000000
00001000
00000000
,
00010000
00000100
00001000
00000010
,
00010000
00001000
01000000
00010000
,
00100000
01000000
00010000
00001000
,
00000010
00000001
00000100
00000010
00001000
00000100
00000010
00000001
,
00000100
00000000
00000010
00000000
00001000
00000000
00000100
00000100
,
00000100
00000000
00010000
00000000
00001000
00000000
00100000
00100000
,
00100000
00000000
01000000
00000000
10000000
00000000
00010000
00010000
,
00010000
00000000
01000000
00000000
00001000
00010000
00001000
00000010
,
00001000
00000000
00010000
00000000
00100000
00000000
10000000
10000000
,
10000000
00000000
01000000
00000000
00010000
00000000
00001000
00001000
,
00100000
00000000
00000000
01000000
00000000
00000000
10000000
00000000
00100000
00000000
00000000
00010000
00000000
00000000
00001000
00000000
,
00000010
00000000
00000000
00000001
00000000
00000000
00000100
00000000
00001000
00000000
00000000
00010000
00001000
00010000
00001000
00010000
,
00001000
00000000
00000000
00100000
00000000
00000000
01000000
00000000
01000000
00000000
00000000
00000000
10000000
00000000
00100000
00000000
,
01000000
00001000
00010000
00000010
,
00001000
00000100
00010000
00001000
,
00100000
00010000
01000000
00001000
,
00010000
00000000
00000100
00000100
00000100
00000000
00000010
00000001
,
00000100
00001000
00010000
01000000
,
10000000
00010000
01000000
00001000
,
00010000
00010000
00010000
00010000
,
00000100
00000000
00000000
00000010
00000000
00000000
00000001
00000000
00000100
00000000
00000010
00000000
00001000
00000000
00000100
00000000
,
00000001
00000100
00001000
00000100
,
00010000
00000000
00001000
00000000
00100000
00000000
00001000
00010000
,
00001000
00000010
00000001
00000100
,
00000010
00001000
00000100
00010000
00000000
00010000
00000100
00000010
,
00000001
00000100
00001000
00010000
,
01000000
00000000
00000000
00000000
10000000
00000000
00000000
00000000
00010000
00000000
00000000
01000000
00000000
00000000
00001000
00000000
,
00000010
00000000
00000000
00000001
00000000
00000000
00000100
00000000
00000010
00000000
00000000
00001000
00000000
00000000
00000100
00000000
,
00011000
00000000
00000000
00110000
00000000
00000000
11000000
00000000
00000000
00000000
00000000
00000000
00000000
00000000
00000000
00000000
,
00100000
00000000
00000000
00000000
00010000
00000000
00000000
00000000
01000000
00000000
00000000
00001000
00010000
00000000
00000000
00000000
,
00000010
00000000
00000000
00000000
00001000
00000000
00000000
00000000
00000100
00000000
00000000
00010000
00001000
00000000
00000000
00000000
,
00100000
00000000
00000000
00000000
00010000
00000000
00000000
00000000
01000000
00000000
00000000
00001000
00010000
00000000
00000000
00000000
,
00000010
00000000
00000000
00001000
00000100
00000000
00000010
00000000
00000001
00000000
00000000
00000100
00000010
00000000
00001000
00000000
,
00000100
00000000
00000000
00000000
00000010
00000000
00000000
00000000
00000001
00000000
00000000
00000100
00000010
00000000
00000000
00000000
,
00001000
00000000
00000000
00000000
00000100
00000000
00000000
00000000
00000010
00000000
00000000
00000001
00000100
00000000
00001000
00000000
,
00010000
00000000
00001000
00010000
00000000
00000000
01000000
00000000
10000000
01000000
00000000
10000000
00000000
00000000
00100000
00000000
,
01000000
00000000
00010000
00000000
00100000
00000000
01000000
00000000
00010000
00000000
00001000
00000000
00000100
00000001
00000100
00000001
,
00000100
00000001
00000000
00001000
00000000
00000000
00000100
00000000
00000010
00000000
00000001
00000000
00000100
00000000
00000010
00000000
,
00010000
00001000
00000000
00010000
00000000
00000000
00000100
00000010
00000100
00000000
00001000
00000000
00000010
00000000
00000100
00000000
,
00001000
00010000
00000000
00000100
00000000
00000000
00000010
00000001
00000010
00000000
00000000
00000100
00000000
00000000
00010000
00001000
,
00010000
00001000
00000000
00100000
00010000
00000000
10000000
00100000
10000000
00000000
01000000
00000000
00010000
00000000
00001000
00000000
,
00000100
00000000
00000000
00000000
,
00000000
00000000
00000000
00000000
;

//---------------dance-double - ----------------
#NOTEDATA:;
#CHARTNAME:;
#STEPSTYPE:dance-double;
#DESCRIPTION:;
#CHARTSTYLE:;
#DIFFICULTY:Challenge;
#METER:13;
#RADARVALUES:0.628827,0.677728,0.105812,0.105812,0.312146,416.000000,406.000000,10.000000,10.000000,0.000000,0.000000,0.000000,0.000000,0.000000,0.628827,0.677728,0.105812,0.105812,0.312146,416.000000,406.000000,10.000000,10.000000,0.000000,0.000000,0.000000,0.000000,0.000000;
#CREDIT:;
#NOTES:
00000000
00000000
00000000
00000000
,
00000000
00000000
00000000
00000000
,
00100000
00000000
00001000
00000000
01000000
00000000
00000000
00000000
00100000
00000000
00000000
00010000
00000000
00000000
00001000
00000000
,
00000100
00000000
00000010
00000000
00010000
00000000
00000000
00000000
00001000
00000000
00000000
00000010
00000000
00000000
00000001
00000000
,
00001000
00000000
00000001
00000000
00000100
00000000
00000000
00000000
00000010
00000000
00000000
00001000
00000000
00000000
00010000
00000000
,
01000000
00000000
00000000
01000000
00010000
00000000
01000000
00000000
00100000
00000000
00000000
00100000
10000000
00000000
01000000
00000000
,
00100000
00000000
01000000
00000000
10000000
00000000
00000000
00000000
01000000
00000000
00000000
00010000
00000000
00000000
00001000
00000000
,
00100000
00000000
00001000
00000000
00010000
00000000
00000000
00000000
00001000
00000000
00000000
00000010
00000000
00000000
00000100
00000000
,
00000010
00000001
00000000
00000010
00000001
00000000
00000100
00000000
00000010
00001000
00000000
00000010
00001000
00000000
00000100
00000000
,
00000010
00001000
00010000
00100000
01000000
00100000
10000000
00000000
,
10010000
00000000
00000000
10000000
01000000
00000000
00010000
00000000
00001000
00000000
00000010
00000000
00000001
00000000
00001000
00000000
,
00001001
00000000
00000000
00000001
00000100
00000000
00001000
00000000
00010000
00000000
00100000
00000000
10000000
00000000
00010000
00000000
,
10000000
01000000
00000000
01000000
00100000
00000000
01000000
00000000
00100000
00001000
00000000
00001000
00010000
00000000
00000010
00000000
,
00000100
00000001
00000000
00000001
00001000
00000000
00000100
00000000
00000010
00000000
00000001
00000000
00000010
00000000
00001000
00000000
,
00022000
00000000
00000000
00033000
,
00100000
00000000
10000000
00000000
01000000
00000000
00000000
00000000
00100000
00000000
00000000
01000000
10000000
00000000
00010000
00000000
,
01000000
00000000
00001000
00000000
00010000
00000000
00000000
00000000
00000010
00000000
00000000
00010000
00001000
00000000
00000100
00000000
,
00000001
00000000
00000000
00001000
00000100
00000000
00000010
00000000
00000001
00000000
00000000
00000000
00000100
00000000
00000000
00000000
,
00001000
01000000
00100000
10000000
,
00010000
00000000
10000000
00000000
01000000
00000000
00000000
00000000
00100000
00000000
00000000
01000000
10000000
00000000
00100000
00000000
,
00010000
00000000
00001000
00000000
00100000
00000000
00000000
00000000
00001000
00000000
00000000
00010000
00000010
00000000
00000100
00000000
,
00000010
00000000
00000000
00001000
00000100
00000000
00000010
00000000
00000100
00000000
00000000
00000000
00010000
00000000
00000000
00000000
,
00001000
00010000
00000010
00001000
00000100
00000010
00000100
00000010
,
00000001
00000100
00000010
00000100
00001000
00010000
00100000
00000000
,
10000000
01000000
00100000
01000000
00010000
00001000
00000010
00000000
,
00002000
00100000
00023000
00100000
,
00032000
00000000
00100000
00000000
00013000
01000000
10000000
00000000
,
00100000
10000000
00010000
10000000
01000000
00010000
00001000
00000000
,
00000010
00000001
00001000
00000001
00000100
00001000
00010000
00000000
,
00000010
00000000
00000000
00000010
00010000
00000000
00001000
00000000
00100000
00000000
00000000
00100000
00001000
00000000
00010000
00000000
,
00000100
00000000
00000000
00000100
00010000
00000000
00001000
00000000
01000000
00000000
00000000
01000000
00001000
00000000
00010000
00000000
,
01000000
00000000
00000000
10000000
00000000
00000000
00010000
00000000
10010000
00000000
00000000
00000000
00000000
00000000
00000000
00000000
,
00100000
00000000
00000000
01000000
00100000
00000000
01000000
00000000
00100000
00000000
00010000
00000000
00001000
00000000
00000100
00000000
,
00000010
00000000
00000000
00001000
00000010
00000000
00010000
00000000
00001000
00000000
00000010
00000000
00000001
00000000
00000100
00000000
,
00000001
00000000
00000000
00000010
00000001
00000000
00001000
00000000
00000010
00000000
00000100
00000000
00000010
00000000
00001000
00000000
,
00000001
00000010
00000000
00000100
00001000
00000000
00000010
00000000
00010000
00001000
00000000
00100000
00010000
00000000
10000000
00000000
,
00100000
00000000
00000000
01000000
00010000
00000000
01000000
00000000
00100000
00000000
10000000
00000000
01000000
00000000
00100000
00000000
,
00001000
00000000
00000000
00010000
00001000
00000000
00010000
00000000
01000000
00000000
00100000
00000000
01000000
00000000
10000000
00000000
,
00020000
00100000
20030000
00100000
,
30020000
00000000
00100000
00000000
10030000
00010000
01000000
00001000
,
00010000
00000100
00000001
00000100
00001000
00000100
00000001
00000100
,
00010000
00000100
00000001
00000100
00001000
00000100
00000001
00000000
,
00001000
00100000
10000000
00100000
00010000
00100000
10000000
00100000
,
00001000
00100000
10000000
00100000
00010000
00100000
10000000
00000000
,
00010000
00000100
00000001
00000100
00001000
00000100
00000001
00000100
,
00010000
00000100
00000001
00000100
00001000
00000100
00000001
00000000
,
00001000
00100000
10000000
00100000
00010000
10000000
00100000
00000000
,
01010000
00000000
00000000
00011000
00000000
00000000
00001100
00000000
00000000
00000000
00000000
00000000
00000000
00000000
00000000
00000000
,
00000010
00000000
00010000
00000000
00000100
00000000
00000000
00000000
00000010
00000000
00000000
00001000
00000000
00000000
00010000
00000000
,
01000000
00000000
00100000
00000000
00001000
00000000
00000000
00000000
00010000
00000000
00000000
00100000
00000000
00000000
10000000
00000000
,
00010000
00000000
10000000
00000000
01000000
00000000
00000000
00000000
00100000
00000000
00000000
00010000
00000000
00000000
00001000
00000000
,
00000100
00000000
00000000
00000100
00001000
00000000
00000100
00000000
00000010
00000000
00000000
00000010
00000001
00000000
00000100
00000000
,
00000010
00000000
00000100
00000000
00000001
00000000
00000000
00000000
00000100
00000000
00000000
00001000
00000000
00000000
00010000
00000000
,
00000010
00000000
00010000
00000000
00001000
00000000
00000000
00000000
00010000
00000000
00000000
00100000
00000000
00000000
01000000
00000000
,
00100000
10000000
00000000
00100000
10000000
00000000
01000000
00000000
00100000
00010000
00000000
00100000
00010000
00000000
01000000
00000000
,
00100000
00010000
00001000
00000010
00000100
00000010
00000001
00000000
,
00001001
00000000
00000000
00000001
00000100
00000000
00001000
00000000
00010000
00000000
00100000
00000000
10000000
00000000
00010000
00000000
,
10010000
00000000
00000000
10000000
01000000
00000000
00010000
00000000
00001000
00000000
00000010
00000000
00000001
00000000
00001000
00000000
,
00000001
00000100
00000000
00000100
00000010
00000000
00000100
00000000
00000010
00010000
00000000
00010000
00001000
00000000
00100000
00000000
,
01000000
10000000
00000000
10000000
00010000
00000000
01000000
00000000
00100000
00000000
10000000
00000000
00100000
00000000
00010000
00000000
,
00022000
00000000
00000000
00000000
,
00033000
00000000
00000000
00000000
,
00000000
00000000
00000000
00000000
;

//---------------dance-single - ----------------
#NOTEDATA:;
#CHARTNAME:;
#STEPSTYPE:dance-single;
#DESCRIPTION:;
#CHARTSTYLE:;
#DIFFICULTY:Hard;
#METER:15;
#RADARVALUES:0.857079,0.935909,0.550224,0.412668,0.835917,567.000000,515.000000,52.000000,39.000000,0.000000,0.000000,0.000000,0.000000,0.000000,0.857079,0.935909,0.550224,0.412668,0.835917,567.000000,515.000000,52.000000,39.000000,0.000000,0.000000,0.000000,0.000000,0.000000;
#CREDIT:;
#NOTES:
0000
0000
0000
0000
,
0000
0000
0000
0000
,
0010
0000
1000
0000
0100
0000
0010
0000
0001
0000
0000
0011
0000
0000
0110
0000
,
0100
0000
0010
0000
1000
0000
0100
0000
1000
0000
0000
1100
0000
0000
0110
0000
,
0010
0000
0001
0000
1000
0000
0001
0000
0100
0000
0000
0101
0000
0000
1001
0000
,
0001
0000
0001
0010
0001
0000
0010
0000
0100
0000
0010
0100
0010
0000
0110
0000
,
0100
0000
0010
0000
1000
0000
0100
0000
0010
0000
0000
1010
0000
0000
1001
0000
,
0001
0000
0100
0000
0010
0000
1000
0000
0100
0000
0000
0110
0000
0000
1100
0000
,
1000
0000
0100
1000
0000
1000
0100
0000
0010
0001
0000
0001
0010
0000
0011
0000
,
0001
0010
0001
0010
0100
0000
2000
0000
0000
0000
3001
0000
0010
0000
0100
0000
,
1000
0100
1000
0000
0100
1000
0100
0000
1000
0100
1000
0100
1000
0000
0100
0000
,
0010
0001
0010
0000
0001
0010
0001
0000
0010
0001
0010
0001
0010
0000
0001
0000
,
1000
0001
1000
0000
0001
1000
0001
0000
1000
0001
1000
0000
0001
1000
0001
0000
,
1000
0000
0001
0000
1000
0000
0001
0000
1000
0001
1000
0001
1000
0001
1000
0002
,
2000
0000
0000
3003
,
1001
0000
0001
0000
0100
0000
0000
0000
0200
0000
0000
0320
0000
0000
1030
0000
,
1100
0000
0100
0000
0010
0000
0000
0000
0020
0000
0000
0032
0000
0000
1003
0000
,
0020
0000
0000
2030
0000
0000
3100
0000
0020
0000
0000
0000
0030
0000
0000
0000
,
0100
0001
0000
0010
0000
1000
0000
0100
0000
0001
0000
1000
0000
0010
0000
0000
,
0110
0000
0010
0000
0001
0000
0000
0000
0002
0000
0000
0203
0000
0000
1300
0000
,
0110
0000
0010
0000
1000
0000
0000
0000
2000
0000
0000
3200
0000
0000
0301
0000
,
0200
0000
0000
0302
0000
0000
0103
0000
0001
0000
0000
0000
1100
0000
0000
0000
,
1000
0010
1000
0010
0100
0001
0100
0001
1000
0100
1000
0000
0100
0000
0010
0000
,
0002
0000
0000
0013
0100
0000
0010
1000
0020
0000
0000
1000
0000
0000
0031
0000
,
0200
0000
0000
0301
0010
0000
0001
0010
0002
0000
0000
0010
0000
0000
0103
0000
,
2000
0000
0000
0010
0000
0000
3001
0000
0200
0000
0000
1000
0000
0000
0310
0000
,
0022
0000
0000
0000
0033
0000
0001
0010
0001
0000
0100
0000
0010
0000
1000
0000
,
2200
0000
0300
3100
0010
0000
0010
0001
0100
0000
0001
0010
0000
0010
0100
0000
,
0110
0000
0000
0100
0000
0000
1010
0000
0110
0000
0000
0010
0000
0000
0011
0000
,
0001
0010
0001
0000
0010
0100
0010
0000
0100
1000
0100
0000
1000
0100
0010
0001
,
0100
0000
0010
0000
0100
0000
0010
0000
1000
0000
0001
0000
1000
0010
0100
0001
,
0020
0000
0000
0100
0000
0000
0130
0000
0220
0000
0000
0000
0330
0000
0000
0000
,
1001
0000
0001
0010
0100
0000
0010
0000
1000
0000
0100
1000
0010
0000
0100
0000
,
0001
0000
0010
0001
0100
0000
0010
0000
1000
0000
0100
1000
0010
0000
0100
0000
,
1000
0000
0100
0010
0001
0000
0010
0000
0001
0000
0010
0100
1000
0000
0010
0000
,
0100
0000
0001
0000
1000
0000
0100
0000
0110
0000
0000
0000
0010
0001
1000
0000
,
1001
0000
0001
0100
0001
0000
0010
0001
1000
0000
0100
0000
1000
0000
0010
0000
,
0110
0000
0100
0001
1000
0000
0010
0000
0011
0000
1000
0100
0010
0001
0010
0000
,
0002
0000
0010
0000
0013
0000
0001
0010
0001
0000
0000
0011
0000
0000
0110
0000
,
1100
0000
0000
1010
0000
0000
0110
0000
0101
0000
0100
0001
1000
0100
0010
0000
,
0010
0000
0010
0001
0000
0001
0100
0000
0100
1000
0000
1000
0010
0000
1010
0000
,
1000
0100
0000
0100
0010
0000
0010
0001
1000
0000
0000
0000
2002
0000
3003
0000
,
0001
0000
0001
0010
0000
0010
0100
0000
0100
1000
0000
1000
0010
0000
1010
0000
,
0200
0001
1000
0001
0000
0001
1300
0000
,
1100
0000
0100
0010
0000
0010
0001
0000
0001
0010
0000
0010
0100
0000
0110
0000
,
0010
1000
0000
1000
0100
0000
0100
0010
0000
0010
0001
0000
0011
0000
0001
0010
,
0100
0000
0000
0110
0000
0000
1010
0000
1100
0000
0000
0110
0000
0000
0010
0000
,
0001
0000
0000
0200
0000
0000
0002
0000
0000
0000
0000
0000
0303
0000
0000
0000
,
1100
0000
1000
0010
0100
0000
0010
0000
0001
0010
0001
0010
0001
0010
0001
0000
,
0011
0000
0010
0100
1000
0000
0100
0000
1000
0100
1000
0100
1000
0100
1000
0100
,
0010
0000
0001
0010
0001
0000
0100
0000
0010
0000
1000
0010
1000
0000
0100
0000
,
0200
0001
1300
0110
,
1010
0000
0010
1000
0100
0000
0010
0000
0010
0100
0010
0100
0010
0100
0010
0000
,
0011
0000
0001
0010
0100
0000
1000
0000
0100
1000
0100
1000
0100
1000
0100
0000
,
1100
0000
0100
0010
0000
0010
0001
0000
0001
0010
0000
0010
0100
0000
1000
0100
,
0020
0000
0001
0000
1030
0000
0110
0001
,
1000
0001
1000
0000
0001
1000
0001
0000
1000
0001
1000
0001
1000
0001
1000
0001
,
0100
0010
0100
0000
0010
0100
0010
0000
0100
0010
0100
0010
0100
0010
0100
0010
,
1000
0010
1000
0000
0010
0100
0010
0000
0001
0010
0001
0000
0100
0001
0100
0000
,
1000
0100
1000
0100
0010
0001
0010
0001
1000
0010
1000
0010
0100
0001
0100
0002
,
2000
0000
0000
0000
,
3003
0000
0000
0000
;

//---------------dance-single - ----------------
#NOTEDATA:;
#CHARTNAME:;
#STEPSTYPE:dance-single;
#DESCRIPTION:;
#CHARTSTYLE:;
#DIFFICULTY:Challenge;
#METER:17;
#RADARVALUES:1.071727,1.323182,0.433830,0.380924,1.481372,709.000000,668.000000,41.000000,36.000000,0.000000,0.000000,0.000000,0.000000,0.000000,1.071727,1.323182,0.433830,0.380924,1.481372,709.000000,668.000000,41.000000,36.000000,0.000000,0.000000,0.000000,0.000000,0.000000;
#CREDIT:;
#NOTES:
// measure 0
0000
0000
0000
0000
,  // measure 1
0000
0000
0000
0000
,  // measure 2
0010
0000
0001
0010
0100
0000
1000
0000
0010
0000
1000
0010
0000
1000
0010
0000
,  // measure 3
0001
0000
0100
0010
1000
0000
0100
0000
1000
0000
0100
0010
0000
0100
0010
0000
,  // measure 4
0001
0000
1000
0010
0100
0000
0001
0000
0010
0000
0001
0010
0000
0100
0010
1000
,  // measure 5
0100
0000
0010
0100
0000
0100
0001
0000
0010
0000
1000
0100
0001
0000
1001
0000
,  // measure 6
0001
0000
0100
0001
1000
0000
0010
0000
1000
0000
0100
1000
0000
1000
0010
0000
,  // measure 7
0100
0000
0001
1000
0100
0000
0010
0000
0001
0000
0010
0001
0000
0100
0010
1000
,  // measure 8
0100
0000
1000
0100
0000
0100
1000
0010
0100
0000
0001
0010
0000
0001
0010
0100
,  // measure 9
1000
0000
0010
0000
0002
0000
0200
0003
0000
0000
0310
0000
0001
0010
0100
1000
,  // measure 10
0010
0100
0010
0100
0010
0100
0010
0100
0010
0100
0010
0100
0010
0001
0100
0010
,  // measure 11
1000
0001
1000
0001
1000
0001
1000
0001
1000
0001
1000
0001
1000
0100
0010
0001
,  // measure 12
0100
0010
0100
0010
0100
0010
0100
0010
0100
0010
0100
0010
0100
0010
1000
0100
,  // measure 13
0001
1000
0001
1000
0001
1000
0001
1000
0001
1000
0001
1000
0001
1000
0001
2000
,  // measure 14
0002
0000
0000
3003
,  // measure 15
1001
0000
0001
0100
0010
0000
1000
0010
0100
0000
0001
1000
0000
0100
1000
0000
,  // measure 16
1010
0000
0010
0100
0001
0000
1000
0100
0010
0000
0010
0001
0000
0001
0100
0000
,  // measure 17
0101
0000
0001
0100
0000
1000
0100
0010
0002
0000
0000
0000
0003
0000
0000
0000
,  // measure 18
0001
0000
0010
0000
0000
0000
1000
0100
0000
0000
1010
0000
0000
0000
1000
0100
0000
0000
1010
0000
0000
0000
0010
0001
0000
0000
0011
0000
0000
0000
0001
0000
,  // measure 19
0100
0000
0001
1000
0100
0000
0010
1000
0100
0000
1000
0100
0000
0010
0001
0000
,  // measure 20
0011
0000
0001
0100
0010
0000
0010
1000
0100
0000
1000
0100
0000
0010
0100
0000
,  // measure 21
0101
0000
1000
0100
0000
0010
0100
0000
2100
0000
0000
0000
3010
0000
0000
0000
,  // measure 22
1000
0000
0010
0000
0001
0000
0010
0000
1000
0100
0001
0100
1000
0100
0001
0010
,  // measure 23
0200
0000
0000
0000
0000
0000
0000
0310
0001
0000
0000
0000
0010
0000
0001
0000
0100
0000
0000
0000
0010
0000
1000
0000
0000
0000
0010
0000
0100
0000
0000
0000
,  // measure 24
0020
0000
0000
0000
0000
0000
0000
0130
0001
0000
0000
0000
0010
0000
1000
0000
0100
0000
0000
0000
0010
0000
0001
0000
0000
0000
1000
0000
0100
0000
0000
0000
,  // measure 25
1100
0000
0000
0101
0000
0000
1100
0000
1010
0000
0000
0011
0000
0000
2000
0000
,  // measure 26
0020
0000
0000
0000
3030
0000
0010
1000
0100
0000
0010
0000
0001
0000
1000
0000
,  // measure 27
0002
0000
0000
0000
0000
0000
0000
0103
0010
0000
0000
0000
1000
0000
0010
0000
0100
0000
0000
0000
1000
0000
0100
0000
0000
0000
0010
0000
0001
0000
0000
0000
,  // measure 28
2000
0000
0000
0000
0000
0000
0000
3100
0010
0000
0000
0000
0001
0000
0010
0000
0100
0000
0000
0000
0010
0000
1000
0000
0000
0000
1000
0000
0100
0000
0000
0000
,  // measure 29
0020
0000
0001
0000
0001
0000
0100
0000
0100
0000
1030
0000
1000
0010
0100
0001
,  // measure 30
0200
0000
0001
0000
0001
0000
1000
0000
1000
0000
0010
0000
0310
0001
1000
0100
,  // measure 31
0010
0000
0000
0011
0000
0000
2000
0000
0200
0000
3300
0000
1000
0100
1000
0000
,  // measure 32
1010
0000
0010
1000
0001
0000
0001
0100
0010
1000
0100
0010
0001
1000
0001
0000
,  // measure 33
0101
0000
0001
0010
0100
0000
0100
0010
1000
0100
0010
0001
1000
0010
0100
0000
,  // measure 34
0110
0000
0010
1000
0001
0000
0100
0001
1000
0100
0010
0001
0100
0010
2000
0000
,  // measure 35
0000
0000
0010
0000
0000
0000
3100
0000
1000
0000
0010
0000
0001
1000
0001
0000
,  // measure 36
1001
0000
0001
0010
0100
0000
0010
1000
0100
0010
0001
1000
0010
0100
0001
0000
,  // measure 37
0011
0000
0010
0001
0100
0000
0100
0010
1000
0100
0010
0001
0100
0010
1000
0000
,  // measure 38
2010
0000
0000
3100
0010
0000
0010
1000
0100
0000
0010
0001
0100
0000
0010
0001
,  // measure 39
1000
0100
0010
0001
0010
0000
0110
0000
0100
0010
1000
0100
0010
0001
0100
0010
,  // measure 40
2000
0100
0000
3100
0010
0000
0011
0000
0002
0010
0000
0013
0100
0000
1100
0000
,  // measure 41
0200
0001
0000
0301
1000
0000
2000
0000
0020
0000
3030
0000
0010
0001
1000
0000
,  // measure 42
0020
0001
0000
0031
0100
0000
0101
0000
0200
0010
0000
0310
1000
0010
0200
0000
,  // measure 43
0001
1000
0001
1000
0000
1000
0301
0000
,  // measure 44
1000
0001
0000
0101
0010
0000
1010
0000
1000
0100
0000
0110
0001
0000
0101
0000
,  // measure 45
0100
0010
0000
1010
0100
0000
1100
0000
0100
0010
0000
0011
0100
0000
0101
0000
,  // measure 46
0001
0010
0000
0110
1000
0000
1001
0000
0001
0100
0000
1010
0101
0000
1100
0000
,  // measure 47
2000
0000
0000
3200
0000
0000
0002
0000
0000
0000
0000
0000
0303
0000
0000
0000
,  // measure 48
1001
0000
0001
0010
0100
0000
1000
0010
0100
0001
1000
0100
0010
0001
0010
0100
,  // measure 49
1000
0000
0000
0010
0000
0000
0100
0000
0000
0001
0000
0000
1000
0000
0000
0100
0000
0000
0010
0000
0000
0001
0000
0000
0100
0000
0000
0010
0000
0000
1000
0000
0000
0001
0000
0000
0010
0000
0000
0100
0000
0000
1000
0000
0100
0000
0010
0000
,  // measure 50
0001
0010
0100
1000
0010
0100
0001
1000
0100
0010
0001
0010
1000
0100
0010
0001
,  // measure 51
0200
0000
0000
0000
1000
0000
0000
0000
0301
0000
0000
0001
1100
0000
0010
0000
,  // measure 52
0100
0001
1000
0100
0010
0001
0100
0010
1000
0001
0010
0100
1000
0010
0100
0001
,  // measure 53
1000
0000
0000
0010
0000
0000
0001
0000
0000
0100
0000
0000
0010
0000
0000
1000
0000
0000
0001
0000
0000
0010
0000
0000
0100
0000
0000
1000
0000
0000
0100
0000
0010
0000
0001
0000
1000
0000
0100
0000
0010
0000
0001
0000
0000
0010
0000
0000
,  // measure 54
0100
0010
1000
0001
0010
0100
1000
0010
0100
0001
1000
0100
0010
0001
0010
0100
,  // measure 55
2000
0000
0010
0000
3020
0000
0001
0000
0032
0000
0100
0000
0203
0310
0001
0010
,  // measure 56
0001
0000
0100
0000
0001
0000
0100
0000
0000
0001
0000
0000
0100
0000
0000
0001
0000
0000
0100
0000
0000
0001
0000
0000
0100
0000
0000
0001
0000
0000
0100
0000
0000
0001
0000
0000
0100
0000
0001
0000
1000
0000
0100
0000
0010
0000
0001
0000
,  // measure 57
1000
0000
0010
0000
1000
0000
0010
0000
0000
1000
0000
0000
0010
0000
0000
1000
0000
0000
0010
0000
0000
1000
0000
0000
0010
0000
0000
1000
0000
0000
0010
0000
0000
1000
0000
0000
0010
0000
1000
0000
0010
0000
1000
0000
0100
0000
0010
0000
,  // measure 58
0001
0000
0010
0000
0001
0000
0010
0000
0000
0001
0000
0000
0010
0000
0000
0001
0000
0000
0010
0000
0000
0001
0000
0000
0010
0000
0001
0000
0010
0000
0001
0000
0010
0000
0001
0000
0010
0000
0000
0001
0000
0000
0100
0000
0000
0010
0000
0000
,  // measure 59
1000
0000
0100
0000
1000
0000
0100
0000
0000
1000
0000
0000
0100
0000
1000
0000
0100
0000
1000
0000
0000
0100
0000
0000
1000
0000
0100
0000
1000
0000
0100
0000
0000
1000
0000
0000
0100
0000
1000
0000
0010
0000
0100
0000
0001
0000
2000
0000
,  // measure 60
0002
0000
0000
0000
,  // measure 61
3003
0000
0000
0000
;
