#VERSION:0.83;
#TITLE:NOTHING GONNA STOP (Dance Mania Mix);
#SUBTITLE:;
#ARTIST:MICKY;
#TITLETRANSLIT:;
#SUBTITLETRANSLIT:;
#ARTISTTRANSLIT:;
#GENRE:;
#ORIGIN:;
#CREDIT:;
#BANNER:NOTHING GONNA STOP (Dance Mania Mix).png;
#BACKGROUND:NOTHING GONNA STOP (Dance Mania Mix)-bg.png;
#PREVIEWVID:;
#JACKET:NOTHING GONNA STOP (Dance Mania Mix)-jacket.png;
#CDIMAGE:;
#DISCIMAGE:;
#LYRICSPATH:;
#CDTITLE:;
#MUSIC:NOTHING GONNA STOP (Dance Mania Mix).ogg;
#OFFSET:0.000000;
#SAMPLESTART:67.879997;
#SAMPLELENGTH:15.000000;
#SELECTABLE:YES;
#DISPLAYBPM:145.000000;
#BPMS:0.000=144.562,
4.000=145.000;
#STOPS:;
#DELAYS:;
#WARPS:;
#TIMESIGNATURES:0.000=4=4;
#TICKCOUNTS:0.000=4;
#COMBOS:0.000=1;
#SPEEDS:0.000=1.000=0.000=0;
#SCROLLS:0.000=1.000;
#FAKES:;
#LABELS:0.000=Song Start;
#BGCHANGES:;
#KEYSOUNDS:;
#ATTACKS:
;

//---------------dance-single - ----------------
#NOTEDATA:;
#CHARTNAME:;
#STEPSTYPE:dance-single;
#DESCRIPTION:;
#CHARTSTYLE:;
#DIFFICULTY:Easy;
#METER:3;
#RADARVALUES:0.138696,0.203883,0.061318,0.439448,0.000000,95.000000,89.000000,6.000000,43.000000,0.000000,0.000000,0.000000,0.000000,0.000000,0.138696,0.203883,0.061318,0.439448,0.000000,95.000000,89.000000,6.000000,43.000000,0.000000,0.000000,0.000000,0.000000,0.000000;
#CREDIT:;
#DISPLAYBPM:145.000000;
#NOTES:
0000
0000
0000
0000
,
0000
0000
0000
0000
,
0000
0000
0000
0000
,
0020
0000
0000
0030
,
0002
0000
0000
0003
,
0200
0000
0000
0300
,
0020
0000
0000
0030
,
2000
0000
0000
3000
,
0200
0000
0000
0300
,
1001
0000
0000
0000
,
0010
0000
0000
0000
,
1000
0000
0000
0000
,
0001
0000
0000
0000
,
0100
0000
0000
0000
,
0010
0000
0000
0000
,
1000
0000
0000
0000
,
0001
0000
0000
0000
,
1001
0000
0200
0300
,
0020
0030
0002
0003
,
2000
3000
0200
0300
,
0020
0030
0002
0003
,
2000
3000
0200
0300
,
0020
0030
0002
0003
,
0200
0000
0000
0300
,
2002
0000
0000
3003
,
0100
0010
0100
0001
,
2000
0000
0000
3000
,
0100
0010
0001
1000
,
0200
0000
0000
0300
,
0020
0030
0200
0300
,
2000
3000
0002
0003
,
0220
0330
0000
0000
,
2002
3003
0000
0000
,
0010
1000
0100
0010
,
0002
0000
0000
0003
,
0010
0001
0100
0010
,
2000
0000
0000
3000
,
0001
0000
1000
0000
,
0200
0000
0000
0300
,
0020
0000
0000
0030
,
0002
0000
0000
0003
,
0010
0100
1000
0000
,
0010
0100
0001
0000
,
0010
0000
0100
0000
,
1000
0000
0001
0000
,
0000
0100
0000
0001
,
0000
1000
0000
0000
,
0020
0030
1000
0000
,
0200
0000
0000
0300
,
2002
0000
0000
3003
,
0010
0000
0001
0000
,
1000
0000
0100
0000
,
1000
1000
0001
0001
,
2000
0000
0000
3000
,
0002
0000
0000
0003
,
0200
0000
0000
0300
,
0020
0000
0000
0000
,
0130
0000
0000
0000
;

//---------------dance-single - ----------------
#NOTEDATA:;
#CHARTNAME:;
#STEPSTYPE:dance-single;
#DESCRIPTION:;
#CHARTSTYLE:;
#DIFFICULTY:Medium;
#METER:8;
#RADARVALUES:0.305132,0.407767,0.204394,0.480327,0.000000,209.000000,189.000000,20.000000,47.000000,0.000000,0.000000,0.000000,0.000000,0.000000,0.305132,0.407767,0.204394,0.480327,0.000000,209.000000,189.000000,20.000000,47.000000,0.000000,0.000000,0.000000,0.000000,0.000000;
#CREDIT:;
#DISPLAYBPM:145.000000;
#NOTES:
0000
0000
0000
0000
,
0000
0000
0000
0000
,
0000
0000
0000
0000
,
1000
0000
1000
0000
,
0001
0000
0001
0000
,
0020
0000
0000
0030
,
0200
0000
0000
0300
,
0010
0001
0010
0000
0100
1000
0100
0000
,
1000
0010
1000
0000
0001
0100
0001
0000
,
2002
0000
3003
0000
0100
0010
0100
0000
,
2200
0000
3300
0000
0010
0001
0010
0000
,
0202
0000
0303
0000
1000
0100
1000
0000
,
0022
0000
0033
0000
0001
0100
0001
0000
,
2020
0000
3030
0000
0100
0010
0100
0000
,
2002
0000
3003
0000
0001
1000
0001
0000
,
0220
0000
0000
0330
,
0001
1000
0010
0100
,
1002
0103
2000
3100
,
0002
0103
2000
3100
,
0002
0013
2000
3010
,
0002
0013
2000
3010
,
2002
3003
0010
0001
,
0010
1000
0100
0100
,
2002
0000
0000
3003
,
0100
0100
0100
0100
,
1001
0000
0100
0000
0010
0000
0001
1000
,
0200
0000
0000
0310
,
0001
0000
0100
0000
0010
0000
1000
0001
,
0200
0000
0000
0300
,
1001
0000
0000
0010
0000
0000
0100
0000
,
1000
0000
0000
0010
0000
0000
0100
0000
,
0002
0000
0000
0000
,
2000
0000
0000
3003
,
0010
0000
0100
0000
0001
1000
0100
0000
,
0010
0000
0001
0000
1000
0001
0100
0000
,
0020
1030
0000
0000
,
0001
0000
0010
0000
0100
0000
1000
0001
,
1000
0021
1000
0001
,
0230
0000
1300
0001
,
0220
0000
0000
0300
,
2000
0000
0000
3030
,
0010
0000
0100
0000
1000
0001
0100
0000
,
0010
0000
1000
0000
0001
1000
0100
0000
,
0020
0031
0100
0100
,
1000
0000
0010
0000
0100
0000
0001
1000
,
0001
1020
0001
1000
,
0230
0000
0301
1000
,
0220
0030
0002
0300
,
2000
3003
0001
0100
,
2002
0000
0000
3003
,
0010
0000
0100
0000
0001
1000
0001
0000
,
0010
0000
0100
0000
1000
0001
1000
0000
,
0010
0010
0100
0100
,
1001
0000
0100
0000
0010
0001
0100
0000
,
1001
0000
0100
0000
0010
1000
0100
0000
,
0010
0001
0010
0000
0100
1000
0100
0000
,
0010
0001
1000
0100
,
1001
0000
0000
0000
;

//---------------dance-single - ----------------
#NOTEDATA:;
#CHARTNAME:;
#STEPSTYPE:dance-single;
#DESCRIPTION:;
#CHARTSTYLE:;
#DIFFICULTY:Hard;
#METER:10;
#RADARVALUES:0.417549,0.495146,0.245273,0.378130,0.000000,286.000000,262.000000,24.000000,37.000000,0.000000,0.000000,0.000000,0.000000,0.000000,0.417549,0.495146,0.245273,0.378130,0.000000,286.000000,262.000000,24.000000,37.000000,0.000000,0.000000,0.000000,0.000000,0.000000;
#CREDIT:;
#DISPLAYBPM:145.000000;
#NOTES:
0000
0000
0000
0000
,
0000
0000
0000
0000
,
0000
0000
0000
0000
,
2001
0100
0100
3100
,
1002
0100
0100
0103
,
0010
1000
0010
0000
0100
0001
0100
0000
,
0010
0100
0010
0000
1000
0001
1000
0000
,
0011
1100
0101
1001
,
0010
0001
0100
1000
0100
0001
0010
0000
,
2002
0000
0003
0000
3010
1000
0100
0010
,
0002
0000
0000
0000
0013
0001
0100
0010
,
2000
0000
0000
0000
3100
0010
0100
1000
,
0020
0000
0000
0000
1030
0100
0001
0100
,
0020
0000
0000
0000
0031
0100
1000
0100
,
0002
0000
0000
0000
1003
0010
0100
0001
,
0200
0000
0000
0000
0310
1000
0100
0020
,
0002
0000
0000
0033
,
2002
0000
0003
0000
3010
1000
0100
0010
,
0200
0000
0000
0000
0310
0001
0100
0010
,
0200
0000
0000
0000
1300
0100
0001
1000
,
0200
0000
0000
0000
1300
0001
0100
0010
,
2000
0000
0000
0000
3010
1000
0100
0010
,
0002
0000
0000
0000
0013
0001
0100
0010
,
2000
0000
0000
0000
3001
0010
0100
0010
,
0001
0100
1000
0100
0001
0010
0100
0000
,
1001
0100
0000
0010
0000
0001
0000
0100
,
0010
1000
0000
0100
0000
0001
0000
0100
,
1000
0001
0000
0010
0000
0001
0000
1000
,
0100
0010
0000
0001
0000
1000
0000
0100
,
0001
0100
0000
0010
0000
0001
0000
0100
,
0010
1000
0000
0001
0000
0010
0000
0100
,
1000
0001
0000
1000
0000
0100
0000
0010
,
2002
0000
0000
3003
,
1001
0000
0010
0100
0001
0010
0100
0000
,
1001
0000
0010
0100
1000
0010
0100
0000
,
0011
0000
0100
1000
0001
0010
0100
0000
,
0101
0000
0010
0100
0001
0100
1000
0000
,
2010
3100
0012
0103
,
2002
0000
0000
3003
,
0220
0000
0000
0330
,
1000
0100
0001
0100
,
2002
0000
3003
0000
1000
0001
1000
0000
,
0010
0001
0100
0000
0010
1000
0100
0000
,
0010
0001
0010
0000
0100
1000
0100
0000
,
0010
0100
1000
0010
0100
0001
0100
0000
,
2010
3100
0012
0103
,
2002
0000
0000
3003
,
0010
0100
0000
2002
0000
0000
3003
0000
,
0020
0000
0000
0030
,
1000
0000
0100
0000
0010
0001
0010
0000
,
0001
0000
0100
0000
0010
1000
0010
0000
,
0100
0010
1000
0001
0010
0001
1000
0100
,
0010
0001
0010
0100
1000
0001
0100
0000
,
0001
0000
0010
0000
0100
1000
0100
0000
,
1000
0000
0010
0000
0100
0001
0100
0000
,
0010
0100
0001
1000
0100
1000
0001
0010
,
0100
1000
0100
0010
0001
1000
0010
0000
,
1001
0000
0000
0000
;

//---------------dance-double - ----------------
#NOTEDATA:;
#CHARTNAME:;
#STEPSTYPE:dance-double;
#DESCRIPTION:;
#CHARTSTYLE:;
#DIFFICULTY:Easy;
#METER:2;
#RADARVALUES:0.188335,0.262136,0.051099,0.071538,0.000000,129.000000,124.000000,5.000000,7.000000,0.000000,0.000000,0.000000,0.000000,0.000000,0.188335,0.262136,0.051099,0.071538,0.000000,129.000000,124.000000,5.000000,7.000000,0.000000,0.000000,0.000000,0.000000,0.000000;
#CREDIT:;
#DISPLAYBPM:145.000000;
#NOTES:
00000000
00000000
00000000
00000000
,
00000000
00000000
00000000
00000000
,
00000000
00000000
00000000
00000000
,
00002000
00000000
00000000
00003000
,
00020000
00000000
00000000
00030000
,
00002000
00000000
00000000
00003000
,
00000020
00000000
00000000
00000030
,
00000002
00000000
00000000
00000003
,
00000200
00000000
00000000
00000300
,
00010000
00000000
00100000
00000000
,
01000000
00000000
10000000
00000000
,
01000000
00000000
00010000
00000000
,
00001000
00000000
00000010
00000000
,
00000001
00000000
00000001
00000000
,
00001000
00000000
00001000
00000000
,
00000100
00000000
00000100
00000000
,
00010000
00000000
00001000
00000000
,
00011000
00000000
01000000
00000000
,
00100000
00000000
10000000
00000000
,
01000000
00000000
00010000
00000000
,
00001000
00000000
00000100
00000000
,
00000001
00000000
00000010
00000000
,
00000100
00000000
00010000
00000000
,
00001000
00000000
00010000
00000000
,
01000000
00000000
10000000
00010000
,
10010000
00000000
01000000
00000000
,
00010000
00000000
00001000
00000000
,
00000010
00000000
00000001
00000000
,
00000100
00000000
00001000
00000000
,
00010000
00000000
00000100
00000000
,
00000010
00000000
00000100
00000000
,
00010000
00000000
01000000
00000000
,
10000000
00000000
00010000
00000000
,
10010000
00000000
01000000
00100000
,
00010000
00000000
00001000
00000100
,
00000001
00000000
00000001
00000100
,
00001000
00000000
00000100
00001000
,
00010000
00000000
01000000
10000000
,
10000000
00000000
01000000
00010000
,
00010000
00000000
01000000
00010000
,
00002000
00000000
00000000
00003000
,
00011000
00000000
00001000
00000100
,
00000001
00000000
00000001
00000001
,
00000100
00000000
00000010
00000010
,
00001000
00000000
00000100
00010000
,
00001000
00000000
01000000
00010000
,
00100000
00000000
00010000
10000000
,
01000000
00000000
00010000
00001000
,
00010000
00000000
00000000
00000000
,
00011000
00000000
00001000
00000000
,
00000100
00000000
00000010
00000000
,
00001000
00000000
00000001
00000000
,
00000100
00000000
00001000
00000000
,
00010000
00010000
01000000
01000000
,
10000000
10000000
00100000
00100000
,
10000000
10000000
01000000
01000000
,
00010000
00010000
00001000
00001000
,
00010000
00000000
00000000
00000000
,
00000000
00000000
00000000
00000000
;

//---------------dance-double - ----------------
#NOTEDATA:;
#CHARTNAME:;
#STEPSTYPE:dance-double;
#DESCRIPTION:;
#CHARTSTYLE:;
#DIFFICULTY:Medium;
#METER:5;
#RADARVALUES:0.289072,0.320388,0.091978,0.419009,0.000000,198.000000,189.000000,9.000000,41.000000,0.000000,0.000000,0.000000,0.000000,0.000000,0.289072,0.320388,0.091978,0.419009,0.000000,198.000000,189.000000,9.000000,41.000000,0.000000,0.000000,0.000000,0.000000,0.000000;
#CREDIT:;
#DISPLAYBPM:145.000000;
#NOTES:
00000000
00000000
00000000
00000000
,
00000000
00000000
00000000
00000000
,
00000000
00000000
00000000
00000000
,
00200000
00000000
00000000
00300000
,
00020000
00000000
00000000
00030000
,
00002000
00000000
00000000
00003000
,
00000020
00000030
00000002
00000003
,
00000200
00000300
00002000
00003000
,
00020000
00030000
01000000
00010000
,
00011000
00000000
00000000
00000000
00100000
00001000
00010000
00000000
,
00000100
00000000
00010000
00000000
00100000
00000000
10000000
00010000
,
02000000
00000000
03000000
00000000
00100000
00010000
00001000
00000000
,
00000100
00000001
00000010
00001000
,
00020000
00000000
00030000
00000000
00010000
00000100
00001000
00000000
,
00000100
00000000
00010000
00000000
01000000
00000000
10000000
00010000
,
20000000
00000000
30020000
20000000
,
00000000
00000000
30030000
01010000
,
00022000
00033000
00001000
00000100
,
00002002
00003003
00000010
00001000
,
00020020
00030030
00000100
00001000
,
00202000
00303000
00010000
01000000
,
20020000
30030000
00100000
00010000
,
00020200
00030300
00000010
00001000
,
00022000
00000000
00000000
00033000
,
00001000
00000000
00000100
00000000
00000001
00000000
00000010
00000001
,
00001000
00000000
00000100
00000000
00000010
00000000
00000001
00001000
,
00000100
00000000
00010000
00000000
00100000
00000000
10000000
00010000
,
01000000
00000000
00100000
00000000
10000000
00000000
01000000
00010000
,
00001000
00000000
00000100
00000000
00000010
00000000
00010000
00001000
,
00010000
00000000
00001000
00000000
00100000
00000000
00001000
00000100
,
00000001
00000010
00000001
00000100
,
00002000
00000000
00000000
00003000
,
00020000
00000000
00000000
00030000
,
00100000
00000000
10000000
00000000
00100000
00010000
00001000
00000000
,
00010000
00000000
00000100
00000000
00000010
00000001
00001000
00000000
,
00000010
00000000
00000100
00000000
00001000
00000100
00000001
00000000
,
00000100
00000000
00001000
00000000
00010000
01000000
10000000
00000000
,
01000000
00010000
00001000
00000010
,
00001000
00000000
00010000
00000000
00000010
00001000
00000001
00000000
,
00000020
00000030
00002000
00003000
,
00020000
00030000
02000000
03000000
,
10000000
01000000
00010000
00000000
00001000
00000000
00000100
00000000
,
00000001
00000010
00001000
00000000
00010000
00000000
01000000
00000000
,
10000000
00100000
00010000
00001000
,
00000010
00000000
00000001
00000000
00001000
00000001
00000100
00000000
,
00002000
00003000
00020000
00030000
,
02000000
03000000
00200000
00300000
,
00002000
00000000
00000000
00003000
,
00000010
00000001
00000100
00001000
,
00020000
00000000
00001000
00031000
,
00000200
00000000
00000010
00000310
,
00020000
00000000
00001000
00031000
,
00100000
10000000
01000000
00100000
,
00001000
00000000
00010000
00000000
00100000
10000000
01000000
00000000
,
00010000
00000000
00001000
00000000
00000010
00000001
00000100
00000000
,
00000001
00000010
00000100
00010000
,
00001000
00000000
01000000
00000000
00100000
10000000
01000000
00000000
,
00100000
00000000
00000000
00000000
,
00000000
00000000
00000000
00000000
;

//---------------dance-double - ----------------
#NOTEDATA:;
#CHARTNAME:;
#STEPSTYPE:dance-double;
#DESCRIPTION:;
#CHARTSTYLE:;
#DIFFICULTY:Hard;
#METER:7;
#RADARVALUES:0.510986,0.495146,0.204394,0.000000,0.061318,350.000000,330.000000,20.000000,0.000000,0.000000,0.000000,0.000000,0.000000,0.000000,0.510986,0.495146,0.204394,0.000000,0.061318,350.000000,330.000000,20.000000,0.000000,0.000000,0.000000,0.000000,0.000000,0.000000;
#CREDIT:;
#DISPLAYBPM:145.000000;
#NOTES:
00000000
00000000
00000000
00000000
,
00000000
00000000
00000000
00000000
,
00000000
00000000
00000000
00000000
,
00000010
00000000
00000000
00000100
00000000
00000000
00000001
00000000
00000000
00001000
00000000
00000000
00000100
00000000
00010000
00000000
,
00100000
00000000
00000000
01000000
00000000
00000000
00010000
00000000
00000000
10000000
00000000
00000000
01000000
00000000
00100000
00000000
,
00001000
00000000
00000000
00010000
00000000
00000000
00000100
00000000
00000000
00000010
00000000
00000000
00000001
00000000
00000100
00000000
,
00001000
00000000
00000000
00010000
00000000
00000000
01000000
00000000
00000000
10000000
00000000
00000000
00100000
00000000
00010000
00000000
,
00001000
00000000
00000000
00000010
00000000
00000000
00000001
00000000
00000000
00001000
00000000
00000000
00000100
00000000
00010000
00000000
,
00001000
00000000
00000000
00010000
00000000
00000000
00001000
00000000
01000000
00000000
00000000
00010000
00000000
00000000
10000000
00000000
,
00100000
00010000
00001000
00010000
00000100
00000010
00000001
00001000
,
00000010
00000100
00001000
00010000
01000000
10000000
00010000
01000000
,
00100000
00000000
00000000
00010000
10000000
01000000
00010000
00001000
,
00000100
00001000
00010000
01000000
00010000
00000010
00001000
00000100
,
00000010
00000000
00000000
00000001
00000100
00001000
00000100
00000010
,
00000100
00010000
00100000
01000000
00100000
00010000
10000000
00010000
,
01000000
01000000
10010000
01001000
,
00001000
00010000
00001000
00000100
00001000
00010000
01000000
00000000
,
00100000
00001000
00010000
00010000
00001000
00010000
00001000
00000010
,
00000100
00001000
00000001
00000100
00001000
00010000
01000000
00100000
,
00010000
00000000
00010000
00000000
10000000
00100000
00010000
00100000
,
01000000
00001000
00010000
00000010
00000100
00000001
00000010
00001000
,
00000010
00000001
00001100
00010010
,
00011000
01001000
00110000
00011000
,
00010010
00000100
00001000
00010000
,
00100000
00010000
00001000
00010000
00001000
00000100
00000010
00000000
,
00001000
00010000
00100000
01000000
10000000
01000000
00010000
00100000
,
00001000
00010000
00000100
00000000
00000100
00000000
00000010
00000000
,
00000010
00000100
00010000
00001000
00000100
00000001
00000100
00001000
,
00010000
00010000
00001000
00001000
,
00001000
00010000
00000000
00000100
00001000
00000100
00000000
00010000
,
00100000
01000000
00000000
10000000
01000000
00010000
00000100
00000000
,
00001010
00000100
00000100
00001000
,
00011000
01000000
01000000
01000000
,
00010000
00000100
00010000
00001000
00000100
00000000
00000001
00000010
,
00000100
00001000
00000010
00000100
00000001
00000000
00001000
00000100
,
00001000
00100000
01000000
00010000
00100000
01000000
10000000
00000000
,
01000000
00010000
00001000
00100000
00001000
00000010
00000001
00000000
,
00000010
00000100
00001000
00000001
00001000
00000100
00010000
01000000
,
00100000
00001000
01000000
00010000
00100000
00000000
00100000
00001000
,
00010000
00000010
00001000
00000100
00000001
00000100
00001000
00000010
,
00010000
01000000
10000000
00100000
01000000
00010000
00100000
00000000
,
10010000
00000000
00000000
00000000
00100000
00001000
00010000
00000010
,
00010000
00001000
01000000
00001000
00010000
00000100
00010000
00001000
,
01000000
00000000
00000000
00000000
00010000
00001000
00000100
00000000
,
00000010
00001000
00000001
00000010
00000100
00010000
00001000
00000000
,
00010000
00110000
11000000
01010000
,
00011000
00001000
00000100
00001000
,
00010000
00001000
00000000
00001100
00000000
00000000
00000000
00000000
,
00000011
00000000
00000000
00000100
00001000
00010000
01000000
00000000
,
10010000
01100000
10000000
01000000
,
00010000
01000000
00100000
00010000
00001000
00000000
00000010
00000000
,
00000001
00000100
00001000
00000100
00000010
00000000
00010000
00000000
,
01000000
10000000
00100000
01000000
00010000
00000000
01000000
00000000
,
00001000
00010000
00000100
00000010
00000001
00000000
00001000
00000000
,
00001000
00000100
00010000
00100000
10000000
00000000
01000000
00000000
,
10000000
00100000
00010000
00000000
00010000
00000100
00000010
00000000
,
00000001
00000010
00001000
00000000
00001000
01000000
00100000
00000000
,
10000000
00000000
00000000
00000000
,
00000000
00000000
00000000
00000000
;

//---------------dance-single - ----------------
#NOTEDATA:;
#CHARTNAME:;
#STEPSTYPE:dance-single;
#DESCRIPTION:;
#CHARTSTYLE:;
#DIFFICULTY:Beginner;
#METER:3;
#RADARVALUES:0.121177,0.233010,0.153296,0.306592,0.000000,83.000000,68.000000,15.000000,30.000000,0.000000,0.000000,0.000000,0.000000,0.000000,0.121177,0.233010,0.153296,0.306592,0.000000,83.000000,68.000000,15.000000,30.000000,0.000000,0.000000,0.000000,0.000000,0.000000;
#CREDIT:;
#DISPLAYBPM:145.000000;
#NOTES:
0000
0000
0000
0000
,
0000
0000
0000
0000
,
0000
0000
0000
0000
,
0200
0000
0000
0300
,
0000
0000
0000
0000
,
2000
0000
0000
3000
,
0000
0000
0000
0000
,
0002
0000
0000
0003
,
0000
0000
0000
0000
,
0020
0000
0030
0000
,
0200
0000
0300
0000
,
0002
0000
0003
0000
,
2000
0000
3000
0000
,
0200
0000
0300
0000
,
0020
0000
0030
0000
,
0002
0000
0000
0000
,
0000
0000
0000
0000
0000
0003
0000
0000
,
0200
0000
0300
0000
,
0020
0000
0030
0000
,
2000
0000
3000
0000
,
0200
0000
0300
0000
,
0002
0000
0003
0000
,
0020
0000
0030
0000
,
0200
0000
0000
0000
,
0000
0000
0300
0000
,
2000
0000
3000
0000
,
0020
0000
0030
0000
,
0200
0000
0300
0000
,
0002
0000
0003
0000
,
1000
0000
0010
0000
,
0100
0000
0001
0000
,
0010
0000
0100
0000
,
1000
0000
0001
0000
,
1001
0000
1000
0000
,
0010
0000
0110
0000
,
0100
0000
1010
0000
,
1000
0000
1001
0000
,
0002
0000
0003
0000
,
0020
0000
0030
0000
,
0200
0000
0300
0000
,
2000
0000
3000
0000
,
0010
0000
0110
0000
,
1000
0000
1001
0000
,
0001
0000
0101
0000
,
0100
0000
0110
0000
,
0010
0000
1010
0000
,
1000
0000
1001
0000
,
0001
0000
0110
0000
,
1000
0000
0110
0000
,
0100
0000
1001
0000
,
0010
0000
1001
0000
,
0100
0000
0110
0000
,
0020
0000
0030
0000
,
0200
0000
0300
0000
,
2000
0000
3000
0000
,
0002
0000
0003
0000
,
0020
0000
0000
0000
,
0030
0000
0000
0000
;

//---------------dance-single - ----------------
#NOTEDATA:;
#CHARTNAME:;
#STEPSTYPE:dance-single;
#DESCRIPTION:;
#CHARTSTYLE:;
#DIFFICULTY:Challenge;
#METER:15;
#RADARVALUES:0.801518,0.848365,0.153296,0.562085,0.797139,549.000000,534.000000,15.000000,55.000000,0.000000,0.000000,0.000000,0.000000,0.000000,0.801518,0.848365,0.153296,0.562085,0.797139,549.000000,534.000000,15.000000,55.000000,0.000000,0.000000,0.000000,0.000000,0.000000;
#CREDIT:;
#DISPLAYBPM:145.000000;
#NOTES:
// measure 0
0000
0000
0000
0000
,  // measure 1
0000
0000
0000
0000
,  // measure 2
0000
0000
0000
0000
,  // measure 3
1000
0000
1000
0100
0000
0001
0100
0000
0001
0100
0000
1000
0100
0000
2000
0000
,  // measure 4
3010
0000
0001
0010
0000
1000
0010
0000
1000
0010
0000
0001
0010
0000
0002
0000
,  // measure 5
1003
0000
0001
1000
0000
0100
1000
0000
0100
1000
0000
0010
1000
0000
0200
0000
,  // measure 6
0310
0000
1000
0001
0000
0100
0001
0000
0010
0001
0000
0100
0001
0000
0020
0000
,  // measure 7
1030
0000
0001
0100
0000
1000
0010
0000
1000
0100
0000
0001
0010
0000
0100
0000
,  // measure 8
1000
0000
0010
1000
0000
0100
1000
0000
0010
0001
0000
0100
0001
0000
0010
0000
,  // measure 9
0200
0000
1000
0000
1300
0000
0000
1000
0100
0000
0001
0010
1000
0000
0010
0000
,  // measure 10
0002
0000
0100
0000
0103
0000
0000
0100
0010
0000
1000
0100
0010
0000
0001
0000
,  // measure 11
0020
0000
1000
0000
1030
0000
0000
1000
0100
0000
0010
0001
1000
0000
0001
0000
,  // measure 12
2000
0000
0100
0000
3100
0000
0000
0100
1000
0000
0010
0100
0001
0000
1000
0000
,  // measure 13
1010
0000
0010
0000
0110
0000
0000
0100
0001
0000
0010
1000
0100
0000
0010
0000
,  // measure 14
0011
0000
0001
0000
1001
0000
0000
0001
0100
0000
0010
1000
0100
0000
0001
0000
,  // measure 15
0101
0000
0100
0000
0110
0000
0000
0010
1000
0000
0100
0010
0001
0000
1000
0000
,  // measure 16
0010
0000
1000
0010
0000
0100
0001
0000
1000
0000
0010
0100
0001
0000
0100
0000
,  // measure 17
1000
0000
0100
0000
0010
0000
0001
0100
0010
0000
1000
0000
0010
0000
0100
0000
,  // measure 18
0001
0000
0010
0000
0100
0000
1000
0010
0100
0000
0001
0000
1000
0000
0010
0000
,  // measure 19
1000
0000
0100
0000
0001
0000
1000
0100
0010
0000
0001
0000
0100
0000
0010
0000
,  // measure 20
1000
0000
0100
0000
1000
0000
0001
0100
0010
0000
0100
0000
1000
0000
0010
0000
,  // measure 21
0100
0000
0001
0000
0010
0000
1000
0010
0001
0000
0100
0001
0000
1000
0001
0000
,  // measure 22
0010
0000
1000
0010
0000
0100
0001
0000
0010
0000
0000
1010
0000
0000
1000
0000
,  // measure 23
0001
0000
1000
0001
0100
0000
0001
1000
0100
0000
1000
0001
0010
0000
0001
1000
,  // measure 24
0010
0000
1000
0010
0001
0000
0001
0100
1000
0000
0010
0000
0100
0000
0001
0000
,  // measure 25
1000
0000
0001
0100
1000
0000
0010
0100
0001
0000
0100
0000
0010
0000
1000
0000
,  // measure 26
0001
0000
0100
0010
1000
0000
0010
0100
0001
0000
1000
0000
0010
0000
0001
0000
,  // measure 27
0100
0000
0010
1000
0100
0000
0010
0001
0100
0000
0010
0000
1000
0000
0100
0000
,  // measure 28
0010
0000
0001
0100
0010
0000
1000
0100
0010
0000
0001
0000
1000
0000
0010
0000
,  // measure 29
0100
0000
1000
0100
0010
0000
0001
0100
0010
0000
1000
0000
0100
0000
0000
0000
,  // measure 30
0010
0000
1000
0010
0100
0000
0001
0010
0100
0000
1000
0000
0010
0000
1000
0000
,  // measure 31
0010
1000
0100
0010
0001
0010
0100
1000
0010
0000
0000
1000
0000
0000
0200
0000
,  // measure 32
0002
0000
0303
0000
2020
3030
1001
0000
,  // measure 33
1100
0000
1000
0001
0100
0000
0001
1000
0100
0000
0010
0000
0001
0000
0100
0000
,  // measure 34
0101
0000
0001
1000
0100
0000
1000
0001
0100
0000
0010
0000
1000
0000
0100
0000
,  // measure 35
0110
0000
0010
1000
0100
0000
0010
0001
0100
0000
0010
0000
1000
0000
0001
0000
,  // measure 36
1001
0000
1000
0001
0100
0000
0001
1000
0100
0000
0010
0000
0001
0000
0100
0000
,  // measure 37
0020
1000
0130
0010
0002
0100
1003
0100
,  // measure 38
0020
0000
0001
0000
0130
0000
0010
0000
2000
0000
0000
0100
0000
0000
3001
0000
,  // measure 39
1000
0000
0001
1000
0100
0000
0001
1000
0010
0000
1000
0001
0100
0000
1000
0001
,  // measure 40
0010
0000
0100
0000
1000
0000
0010
0000
1000
0100
0010
0001
0100
0010
1000
0000
,  // measure 41
0200
0000
0310
1000
0002
0000
0103
0010
2000
0000
3100
0010
0002
0000
1003
0000
,  // measure 42
0020
0000
1030
0100
0002
0000
0013
0100
2000
0000
3100
0001
0020
0000
0130
0000
,  // measure 43
2000
0000
3100
0010
0002
0000
0103
0010
2000
0000
3010
0100
0002
0000
1003
0000
,  // measure 44
0020
0000
1030
0100
0020
0000
0031
0010
0200
0000
1300
0010
0200
0000
0310
0001
,  // measure 45
1000
0100
0010
0000
0011
0000
0001
0000
0100
0010
1000
0000
1001
0000
1000
0000
,  // measure 46
0010
0000
0100
0010
1000
0000
0010
0100
0001
0000
0100
0010
1000
0000
0010
0100
,  // measure 47
0001
0000
0010
0100
1000
0000
0010
0100
0001
0000
1000
0100
0010
0000
0001
0000
,  // measure 48
0200
0000
0000
2300
0000
0000
3010
0000
,  // measure 49
2000
0000
3100
0002
0000
0103
2000
0000
3010
0002
0000
0013
2000
0000
3010
0000
,  // measure 50
0200
0000
0301
0200
0000
1300
0200
0000
0301
0200
0000
1300
0200
0000
0301
0000
,  // measure 51
0020
0000
1030
0020
0000
0031
0020
0000
1030
0020
0000
0031
0020
0000
0130
0000
,  // measure 52
0002
0000
0013
2000
0000
3100
0002
0000
0013
2000
0000
3100
0002
0000
0103
0000
,  // measure 53
1000
0100
0001
0100
0000
0100
1000
0100
0010
0001
0000
0001
0010
0100
1000
0010
,  // measure 54
0100
0001
0010
0100
0000
0100
1000
0010
0100
0001
0000
0100
0010
1000
0100
0010
,  // measure 55
0001
0100
0010
1000
0000
1000
0100
0010
0001
0100
0000
0010
1000
0010
0001
0100
,  // measure 56
0010
0000
1000
0010
0000
0100
0001
0000
0010
0000
0100
0010
0000
1000
0001
0000
,  // measure 57
0200
0300
0000
0000
;
