#TITLE:NO LIMIT (RM Remix);
#SUBTITLE:;
#ARTIST:2 UNLIMITED;
#TITLETRANSLIT:;
#SUBTITLETRANSLIT:;
#ARTISTTRANSLIT:;
#GENRE:;
#CREDIT:;
#BANNER:NO LIMIT (RM Remix).png;
#BACKGROUND:NO LIMIT (RM Remix)-bg.png;
#LYRICSPATH:;
#CDTITLE:;
#MUSIC:NO LIMIT (RM Remix).ogg;
#OFFSET:0.000000;
#SAMPLESTART:37.429001;
#SAMPLELENGTH:15.000000;
#SELECTABLE:YES;
#DISPLAYBPM:141.000000;
#BPMS:0.000000=140.699997
,4.000000=141.080002
;
#STOPS:
;
#BGCHANGES:;
#KEYSOUNDS:;
#ATTACKS:;

//---------------dance-single - ----------------
#NOTES:
     dance-single:
     :
     Easy:
     6:
     0.311015,0.310811,0.135418,0.020834,0.000000,209.000000,196.000000,13.000000,2.000000,0.000000,0.000000,0.311015,0.310811,0.135418,0.020834,0.000000,209.000000,196.000000,13.000000,2.000000,0.000000,0.000000:
0000
0000
0000
0000
,
0000
0000
0000
0000
,
0000
0000
0000
0000
,
1001
0000
0000
0000
,
1000
1000
0001
0001
,
0010
0010
0010
0010
,
0001
0001
1000
0100
,
0001
0001
1000
0100
,
0001
0001
1000
0100
,
0001
0100
0010
1000
,
0001
0001
0010
0100
,
1000
1000
0010
0100
,
0001
0001
0010
0100
,
1000
0100
0001
0100
,
1000
1000
0100
0100
,
0010
0010
0001
0001
,
1000
1000
0010
0010
,
1001
0100
1001
0100
,
0010
0010
0001
0001
,
1000
1000
0010
0010
,
0100
0100
0001
0001
,
1001
0010
1001
0010
,
0100
0001
0100
0001
,
1000
0010
1001
0000
,
0010
0100
1000
0000
,
0010
0100
0001
0000
,
1000
0100
1000
0100
,
0010
0001
1001
0000
,
0010
0100
0001
0000
,
0010
0100
1000
0000
,
0001
0100
1000
0100
,
0001
0100
1000
0100
,
0001
0100
1000
0100
,
0001
0100
1000
0010
,
0001
0001
1000
0100
,
0001
0100
1000
0100
,
0001
0100
1000
0100
,
0010
0001
0100
0010
,
1000
1000
0001
0001
,
0100
0100
0010
0010
,
1000
1000
0001
0001
,
0110
0001
0110
1000
,
0001
0001
0010
0010
,
0100
0100
1000
1000
,
0010
0010
0100
0100
,
1001
0100
1001
0100
,
0010
0001
1000
0100
,
0010
0001
0100
0010
,
1000
0001
0010
0100
,
1000
1000
0001
0001
,
0100
0010
1000
0100
,
0010
0001
1000
0100
,
0010
0001
0100
0010
,
1000
1001
0100
0010
,
2002
3003
0000
0000
;

//---------------dance-single - ----------------
#NOTES:
     dance-single:
     :
     Medium:
     9:
     0.430064,0.480344,0.166668,0.020834,0.000000,289.000000,273.000000,16.000000,2.000000,0.000000,0.000000,0.430064,0.480344,0.166668,0.020834,0.000000,289.000000,273.000000,16.000000,2.000000,0.000000,0.000000:
0000
0000
0000
0000
,
0000
0000
0000
0000
,
0000
0000
0000
0000
,
1001
0100
0010
0100
,
0001
0010
0001
0000
1000
0100
1000
0000
,
0001
0100
0010
1000
,
0001
0000
0001
0000
0010
0100
0010
0100
,
1000
0000
1000
0000
0010
0100
0010
0100
,
0001
0000
0001
0000
1000
0100
1000
0100
,
0010
0000
0010
0000
0001
0100
0010
1000
,
0001
0000
0010
0000
0100
1000
0100
1000
,
0001
0000
0100
0000
0010
1000
0010
1000
,
0100
0000
0010
0000
0001
1000
0001
1000
,
0010
0000
0100
0000
0001
0010
0100
1000
,
0001
0000
0001
0000
0000
0100
0000
0100
,
0010
0000
0010
0000
0000
1000
0000
1000
,
0001
0000
0001
0000
0000
0010
0000
0010
,
0100
1000
0001
0000
0100
0010
1000
0000
,
0001
0000
0001
0000
0000
0010
0000
0010
,
0100
0000
0100
0000
0000
1000
0000
1000
,
0001
0000
0001
0000
0000
0100
0000
0100
,
0010
1000
0100
0000
0010
0001
0100
0000
,
0000
0010
0000
0010
1000
0100
0000
0000
,
1000
0001
0100
0010
0000
0000
0000
0000
,
1000
0001
0100
0001
0000
0000
0000
0000
,
0010
0100
0010
0001
0000
1000
0000
0000
,
0000
0010
0000
0010
0100
0001
0000
0000
,
1000
0100
0010
0001
0000
0000
0000
0000
,
1000
0010
0100
0001
0000
0000
0000
0000
,
1000
0100
0010
0001
0000
1000
0000
0000
,
0010
0100
0001
0000
0010
0100
1000
0000
,
0001
0100
1000
0000
0001
1000
0100
0000
,
0010
0001
0100
0000
0010
1000
0001
0000
,
0010
0010
0100
0100
1000
0001
0100
0000
,
0010
0010
0010
0010
1000
0100
0010
0000
,
0001
1000
0100
0000
0010
0001
0100
0000
,
0010
0010
1000
0000
0001
0000
0100
0000
,
0010
1000
0100
0000
0010
0001
1000
0000
,
0010
0000
0010
0000
0100
0001
0100
0001
,
0010
0000
0010
0000
0100
1000
0100
1000
,
0001
0000
0001
0000
0100
0010
0100
0010
,
1000
0001
0100
0000
0010
1000
0001
0000
,
0010
0000
0010
0000
0100
1000
0100
1000
,
0001
0000
0001
0000
0100
0010
0100
0010
,
1000
0000
1000
0000
0001
0010
0001
0010
,
0100
1000
0001
0000
0100
0010
1000
0000
,
1100
0000
0011
0000
1000
0010
0100
0000
,
1001
0000
0110
0000
1000
0001
0100
0000
,
0011
0000
1100
0000
0001
0100
0010
0000
,
1001
0000
0110
0000
1000
0001
0100
0010
,
0110
0000
1001
0000
0100
0010
0001
0000
,
1100
0000
1010
0000
0100
0001
0010
0000
,
0101
0000
0011
0000
0100
1000
0001
0000
,
0100
0010
1000
0000
0001
0010
0001
1000
,
0220
0330
0000
0000
;

//---------------dance-single - ----------------
#NOTES:
     dance-single:
     :
     Hard:
     13:
     0.622030,0.593366,0.062501,0.020834,0.187502,418.000000,412.000000,6.000000,2.000000,0.000000,0.000000,0.622030,0.593366,0.062501,0.020834,0.187502,418.000000,412.000000,6.000000,2.000000,0.000000,0.000000:
0000
0000
0000
0000
,
0000
0000
0000
0000
,
0000
0000
0000
0000
,
1001
0000
0010
0000
0100
1000
0001
0100
,
0010
0000
0010
0000
1000
0100
0010
0001
,
1000
0100
1000
0100
1000
0100
1000
0100
,
0010
0000
0001
0000
0010
0000
0001
0000
1000
0100
1000
0000
0001
0000
0100
0000
,
0010
0000
1000
0000
0010
0000
1000
0000
0001
0100
0001
0000
0010
0000
0100
0000
,
1000
0000
0001
0000
1000
0000
0001
0000
0010
0100
0010
0000
0001
0000
1000
0000
,
0010
0100
0010
0000
1000
0000
0001
0000
0010
0100
0010
0000
0001
0000
1000
0000
,
0010
0000
0100
0000
0010
0000
0100
0000
0001
0010
0001
0000
1000
0000
0100
0000
,
0010
0000
0001
0000
0010
0000
0001
0000
1000
0010
1000
0000
0100
0000
0010
0000
,
0001
0000
1000
0000
0001
0000
1000
0000
0010
0100
0010
0000
1000
0000
0001
0000
,
0010
0100
0010
0000
0001
0000
1000
0000
0010
0100
0010
0000
1000
0000
0001
0000
,
0010
0000
0100
0000
1000
0000
0001
0100
0010
0000
1000
0000
0001
0000
0010
0000
,
0001
0000
1000
0000
0100
0000
0010
0001
1000
0000
0010
0000
0100
0000
0001
0000
,
0100
0000
0001
0000
0010
0000
0100
1000
0001
0000
0100
0000
0010
0000
1000
0000
,
0010
0100
0001
0100
0010
1000
0001
0010
,
0100
0000
0001
0000
0010
0000
0100
1000
0001
0000
0100
0000
0010
0000
1000
0000
,
0010
0000
1000
0000
0001
0000
0010
0100
1000
0000
0010
0000
0100
0000
0001
0000
,
0010
0000
0100
0000
1000
0000
0001
0100
0010
0000
1000
0000
0100
0000
0010
0000
,
0100
0010
0100
1000
0010
0100
0001
0100
,
0000
0010
0000
0010
1000
0100
0010
0001
,
1000
1000
0100
0010
0000
0001
1000
0010
,
0100
0100
0001
1000
0000
0100
0100
0010
,
0001
0100
0010
1000
0000
1000
0001
0100
,
0010
1000
0000
1000
0001
0010
0100
1000
,
0001
0100
1000
0100
0000
0010
1000
0001
,
0100
0001
0010
0100
0000
0100
1000
0010
,
0100
0001
1000
0100
0000
0010
0000
0001
,
0100
0000
0010
0000
1000
0000
0001
0010
0100
0000
1000
0000
0001
0000
0000
0000
,
1000
0000
0001
0000
0100
0000
0010
1000
0001
0000
0010
0000
0100
0000
0000
0000
,
1000
0000
0010
0000
0100
0000
0001
0100
0010
0000
1000
0000
0100
0000
0000
0000
,
0010
0000
0010
0000
0001
0000
0001
0000
0100
0000
0010
1000
0100
0000
0000
0000
,
1000
0000
1000
0000
1000
0000
1000
0000
1000
0000
0001
0100
0000
0000
0000
0000
,
0010
0000
1000
0100
0000
0000
0000
0000
0010
0000
0001
0100
0000
0000
0000
0000
,
0010
1000
0000
0000
0100
0001
0000
0000
1000
0100
0000
0000
0010
0000
0000
0000
,
0001
0100
0010
1000
0100
0010
0001
0000
,
1000
0000
1000
0000
0010
0000
0100
0001
1000
0000
0100
0000
0010
0000
0001
0000
,
0010
0000
0100
0000
0010
0000
0001
0100
0010
0000
1000
0000
0001
0000
0100
0000
,
0001
0000
0100
0000
0010
0000
1000
0100
0010
0000
0001
0000
0100
0000
0010
0000
,
0100
0000
0010
0000
1000
0001
0000
0000
0100
0000
0010
0000
1000
0001
0000
0000
,
0010
0000
0100
0000
1000
0000
0001
0100
0010
0000
1000
0000
0001
0000
0100
0000
,
0001
0000
1000
0000
0010
0000
0100
0001
1000
0000
0100
0000
0010
0000
0001
0000
,
0010
0000
0100
0000
1000
0000
0001
0100
0010
0000
1000
0000
0010
0000
0100
0000
,
0010
0000
0100
0000
0001
1000
0000
0000
0100
0000
0010
0000
0001
1000
0000
0000
,
0010
0100
0001
0010
0100
1000
0001
0100
,
0010
1000
0001
0010
0100
1000
0001
0100
,
1000
0100
0001
0010
0100
1000
0001
0100
,
0110
1000
0001
0010
0110
1000
0001
0100
,
0010
1000
0001
0010
0100
1000
0010
0100
,
0001
1000
0100
0010
0001
1000
0100
0010
,
0001
0100
1000
0100
0001
0010
0100
1000
,
1001
0100
0010
1000
1001
0010
0100
1000
,
2002
3003
0000
0000
;

//---------------dance-double - ----------------
#NOTES:
     dance-double:
     :
     Easy:
     6:
     0.311015,0.395577,0.197919,0.020834,0.000000,209.000000,190.000000,19.000000,2.000000,0.000000,0.000000,0.311015,0.395577,0.197919,0.020834,0.000000,209.000000,190.000000,19.000000,2.000000,0.000000,0.000000:
00000000
00000000
00000000
00000000
,
00000000
00000000
00000000
00000000
,
00000000
00000000
00000000
00000000
,
00000001
00000000
00000100
00000000
,
00001000
00000000
00010000
00000000
,
01000000
00000000
00000000
00000000
,
10000000
10000000
01000000
00010000
,
00001000
00001000
00000100
00000001
,
00001000
00000001
00000100
00001000
,
00010000
00010000
01000000
10000000
,
10010000
01000000
00010000
00001000
,
00010000
01001000
00010000
00000100
,
00000010
00001001
00000100
00001000
,
00010000
01001000
00010000
01001000
,
00100000
10000000
01000000
00010000
,
00100000
10000000
01000000
00010000
,
00100000
10000000
01000000
00010000
,
00001000
00000100
00000001
00000110
,
00000010
00000001
00000100
00001000
,
00000010
00000001
00000100
00001000
,
00000010
00000001
00000100
00001000
,
00010000
01000000
10000000
01100000
,
00010000
00001000
00000100
00000001
,
00000100
00001000
00010000
01000000
,
00010000
00001000
00000100
00000001
,
00000100
00001000
00010000
01000000
,
00001000
00010000
00000010
00001000
,
00010000
00001000
01000000
00010000
,
00001000
00010000
00000010
00001000
,
00010000
00001000
01000000
00010000
,
10000000
10000000
01000000
00000000
,
00010000
00001000
00000100
00000000
,
00000001
00001000
00000100
00000000
,
00000001
00000100
00000010
00000000
,
00000100
00001000
00010000
00000000
,
10000000
00000000
00100000
01000000
,
00010000
00000000
00001000
00000100
,
00000001
00000000
00000010
00000100
,
00001000
00010000
00000100
00000101
,
00001000
00010000
00000100
00000101
,
00001000
00010000
00000100
00000101
,
00001000
00010000
01000000
00001000
,
00010000
00001000
01000000
11000000
,
00010000
00001000
01000000
11000000
,
00010000
00001000
01000000
11000000
,
00010000
00001000
00000100
00010000
,
00100000
00010000
10000000
01000000
,
00010000
00001000
00000100
00000001
,
00000010
00000001
00000100
00001000
,
00010000
00001000
00100000
01000000
,
10000000
01000000
00010000
01001000
,
00010000
00010100
00001000
00010100
,
00001000
01001000
00010000
00010100
,
00000010
00000001
00000100
00000001
,
00002200
00003300
00000000
00000000
;

//---------------dance-double - ----------------
#NOTES:
     dance-double:
     :
     Medium:
     9:
     0.433040,0.452088,0.375004,0.020834,0.000000,291.000000,255.000000,36.000000,2.000000,0.000000,0.000000,0.433040,0.452088,0.375004,0.020834,0.000000,291.000000,255.000000,36.000000,2.000000,0.000000,0.000000:
00000000
00000000
00000000
00000000
,
00000000
00000000
00000000
00000000
,
00000000
00000000
00000000
00000000
,
00000001
00000100
00001000
00010000
,
01000000
00000000
01000000
00000000
10000000
00010000
01000000
00000000
,
10010000
01000000
01000000
01000000
,
10010000
00000000
11000000
00000000
00010000
10000000
01000000
00000000
,
00010000
00000000
00001000
00000000
00000100
00000001
00000010
00000000
,
00001000
00000000
00000001
00000000
00000100
00001000
00010000
00000000
,
00100000
10000000
00010000
10000000
,
10010000
01000000
01010000
00001000
,
00011000
01000000
00011000
00000100
,
00001100
00010000
00001001
00000100
,
00001000
00000000
00010000
00000000
01000000
10000000
00100000
00000000
,
01010000
00000000
11000000
00000000
00000000
00100000
00000000
00010000
,
01000000
00000000
00011000
00000000
00000000
00000100
00000000
00001000
,
00000100
00000000
00010100
00000000
00000000
00000010
00000000
00000100
,
00000001
00000000
00000001
00000000
00001000
00000100
00001000
00000000
,
00000101
00000000
00001100
00000000
00000010
00001000
00000100
00000000
,
00010100
00000000
00011000
00000000
00001000
00010000
00100000
00000000
,
10010000
00000000
11000000
00000000
00100000
10000000
01000000
00000000
,
00110000
00000000
01010000
00000000
00100000
10000000
01000000
00000000
,
00010000
00000000
10000000
00000000
00100000
10000000
01000000
00000000
,
00010000
00000000
10000000
00000000
00010000
10000000
01000000
00000000
,
00010000
00010000
00001000
00001000
,
00000100
00000000
00000100
00000000
00000001
00001000
00000100
00000000
,
00001000
00000001
00000100
00000000
00000010
00001000
00000100
00000000
,
00010000
00001000
00100000
01000000
10000000
00010000
01000000
00000000
,
10000000
10000000
01000000
01000000
,
00010000
00000000
00010000
00000000
00001000
00000100
00000001
00000000
,
00000001
00000010
00000001
00000000
00001000
00000100
00001000
00000000
,
00000010
00000000
00010000
00000000
00100000
10000000
01000000
00000000
,
00010000
00010000
00001000
00001000
,
00000100
00000100
00000001
00000001
00001000
00000000
00000100
00000000
,
00000001
00000001
00000100
00000100
00001000
00010000
01000000
00000000
,
00100000
00100000
00010000
00010000
10000000
00000000
01000000
00000000
,
10000000
00010000
10000000
00010000
,
10000000
01000000
00010000
00000000
00010000
00001000
00000100
00000000
,
00000101
00000000
00001100
00000000
00000010
00000001
00000100
00000000
,
00001100
00000000
00010100
00000000
00001000
00010000
00100000
00000000
,
10010000
00000000
01010000
00000000
00100000
10000000
01000000
00000000
,
10010000
00000000
11000000
00000000
00100000
00010000
01000000
00000000
,
01001000
00000000
00011000
00000000
00010000
00001000
00000010
00000000
,
00001001
00000000
00000101
00000000
00000010
00000001
00000100
00000000
,
00001010
00000000
00001100
00000000
00000010
00000001
00000100
00000000
,
00000010
00010000
00000100
00000000
00010000
00001000
01000000
00000000
,
10000000
00010000
10000000
00010000
,
00100000
10000000
01000000
00000000
00100000
00010000
01000000
00000000
,
00001000
00100000
00001000
00100000
,
00001000
00010000
00000100
00000000
00000010
00000001
00000100
00000000
,
00000001
00001000
00000001
00001000
,
00000001
00001000
00000100
00000000
00000001
00001000
00000100
00000000
,
00000010
00010000
00001000
00000000
00100000
00010000
01000000
00000000
,
00100000
10000000
01000000
00000000
10000000
00010000
01000000
00000000
,
00022000
00033000
00000000
00000000
;

//---------------dance-double - ----------------
#NOTES:
     dance-double:
     :
     Hard:
     12:
     0.580363,0.508599,0.427088,0.020834,0.005208,390.000000,349.000000,41.000000,2.000000,0.000000,0.000000,0.580363,0.508599,0.427088,0.020834,0.005208,390.000000,349.000000,41.000000,2.000000,0.000000,0.000000:
00000000
00000000
00000000
00000000
,
00000000
00000000
00000000
00000000
,
00000000
00000000
00000000
00000000
,
00000001
00001000
00000100
00000000
00001000
00010000
01000000
00000000
,
10000000
00010000
01000000
00000000
00010000
00001000
00000100
00000000
,
00000010
00000001
00000100
00001000
00010000
01000000
10000000
00000000
,
00100000
10000000
01000000
00010000
00001000
00000100
00000001
00000010
,
00000001
00000100
00001000
00000100
00000001
00000010
00001000
00000010
,
00000001
00000100
00001000
00010000
00001000
00000100
00001000
00010000
,
01000000
10000000
00100000
01000000
00100000
10000000
01000000
00010000
,
00001000
00000100
00000010
00001000
00000100
00010000
00001000
00000100
,
00000001
00000010
00000001
00000100
00001000
00010000
01000000
10000000
,
00010000
01000000
00100000
10000000
01000000
00010000
00001000
00000100
,
00001000
00010000
01000000
00010000
00001000
00000100
00000001
00000001
,
00001100
00000000
00000101
00000000
00000010
00001000
00000100
00010000
,
00011000
00000000
01001000
00000000
00100000
00010000
10000000
01000000
,
10010000
00000000
01010000
00000000
10000000
01000000
00010000
00001000
,
00010100
00000000
00011000
00000000
00000010
00000001
00000100
00000000
,
00001100
00000000
00000101
00000000
00000010
00001000
00000100
00010000
,
01001000
00000000
00011000
00000000
00100000
00010000
10000000
01000000
,
10010000
00000000
01010000
00000000
10000000
01000000
00010000
00001000
,
00010100
00000000
00011000
00000000
00000010
00000001
00000100
00000000
,
00000001
00001000
00000100
00000010
00000001
00000100
00001000
00010000
,
00100000
00010000
00001000
00010000
00100000
10000000
01010000
00000000
,
00100000
10000000
01000000
00000000
01001000
00010000
00001000
00000000
,
00000010
00001000
00000100
00010000
00001000
00000100
00000001
00000000
,
00001000
00000100
00000010
00000001
00000100
00000001
00000100
00001000
,
00010000
01000000
10000000
00100000
01000000
00010000
11000000
00000000
,
00100000
00010000
01000000
00000000
00011000
00010000
00000100
00000000
,
00001000
00000010
00001000
00000100
00000001
00000100
00001000
00000000
,
00001001
00001001
00000101
00000000
00001000
00010000
01000000
00000000
,
00100000
10000000
01000000
00010000
00001000
00010000
01000000
00000000
,
00010000
00001000
00000100
00000000
00001000
00010000
01000000
00000000
,
10000000
00100000
10000000
01000000
00010000
00001000
01001000
00000000
,
00100000
00000000
00100000
00000000
00001000
00000000
00001000
00000000
00010000
00000000
00010000
00000100
00000000
00000000
00000000
00000000
,
00000010
00000001
00000100
00001000
00010000
00001000
00000100
00000000
,
00010000
00001000
00000100
00000000
00001000
00010000
01000000
00000000
,
10000000
00100000
00010000
00001000
00000010
00000001
00000100
00000000
,
00001001
00000000
00000101
00000000
00000010
00001000
00000100
00010000
,
00011000
00000000
01001000
00000000
00100000
10000000
01000000
10000000
,
01010000
00000000
01001000
00000000
00100000
10000000
01000000
00010000
,
00011000
00000000
00010100
00000000
00000010
00000001
00000100
00000000
,
00001001
00000000
00000101
00000000
00000010
00001000
00000100
00010000
,
00011000
00000000
01001000
00000000
00100000
10000000
01000000
10000000
,
01010000
00000000
01001000
00000000
00100000
10000000
01000000
00010000
,
00010100
00000000
00011000
00000000
00000010
00000001
00000100
00000000
,
00000010
00000001
00000100
00001000
00010000
01000000
10000000
00100000
,
10000000
01000000
00010000
01000000
10000000
00100000
00010000
00100000
,
10000000
01000000
00010000
00001000
00010000
01000000
00010000
00001000
,
00000100
00000001
00000010
00000100
00000010
00000001
00000100
00001000
,
00010000
01000000
00100000
00010000
01000000
00001000
00010000
01000000
,
10000000
00100000
10000000
01000000
00010000
00001000
00000100
00000001
,
00001000
00000100
00000010
00000001
00000100
00001000
00010000
01000000
,
00010000
00001000
00000100
00001000
00010000
01000000
10000000
00100000
,
02020000
03030000
00000000
00000000
;

//---------------dance-single - ----------------
#NOTES:
     dance-single:
     :
     Beginner:
     3:
     0.122025,0.254300,0.083334,0.020834,0.000000,82.000000,74.000000,8.000000,2.000000,0.000000,0.000000,0.122025,0.254300,0.083334,0.020834,0.000000,82.000000,74.000000,8.000000,2.000000,0.000000,0.000000:
0000
0000
0000
0000
,
0000
0000
0000
0000
,
0000
0000
0000
0000
,
0110
0000
0000
0000
,
0000
0000
0000
0000
,
0000
0000
0000
0000
,
0100
0000
0000
0000
,
0100
0000
0000
0000
,
0010
0000
0000
0000
,
0010
0010
0010
0000
,
1000
0000
0000
0000
,
1000
0000
0000
0000
,
0001
0000
0000
0000
,
0001
0001
0001
0000
,
0001
0000
0000
0000
,
0100
0000
0000
0000
,
0010
0000
0000
0000
,
1000
0001
1000
0001
,
1000
0000
0000
0000
,
0100
0000
0000
0000
,
0010
0000
0000
0000
,
0100
0010
0100
0010
,
0100
0000
0000
0000
,
0100
0000
0000
0000
,
0001
0000
0000
0000
,
0001
0000
0000
0000
,
0010
0000
0000
0000
,
0010
0000
0000
0000
,
0100
0000
0000
0000
,
1000
0000
0000
0000
,
1000
0000
0000
0000
,
0000
0000
0000
0000
,
0000
0000
0000
0000
,
0000
0000
0000
0000
,
0001
0000
0000
0000
,
0000
0000
0000
0000
,
0000
0000
0000
0000
,
0000
0000
0000
0000
,
0100
0100
0000
0000
,
0010
0010
0000
0000
,
1000
0001
0000
0000
,
1001
1001
1001
0000
,
0001
0001
0000
0000
,
1000
1000
0000
0000
,
0010
0010
0000
0000
,
0110
0110
0110
0000
,
1000
0000
0001
0000
,
0100
0000
0010
0000
,
1000
0000
0100
0000
,
0010
0010
0001
0001
,
0100
0000
0100
0000
,
0010
0000
0010
0000
,
1000
0000
1000
0000
,
0001
0000
0001
0000
,
2002
3003
0000
0000
;

//---------------dance-single - ----------------
#NOTES:
     dance-single:
     :
     Challenge:
     17:
     0.955367,0.932432,0.208336,0.020834,1.208346,642.000000,622.000000,20.000000,2.000000,0.000000,0.000000,0.955367,0.932432,0.208336,0.020834,1.208346,642.000000,622.000000,20.000000,2.000000,0.000000,0.000000:
// measure 0
0000
0000
0000
0000
,  // measure 1
0000
0000
0000
0000
,  // measure 2
0000
0000
0000
0000
,  // measure 3
1001
0000
1001
0000
0010
0100
0010
0100
,  // measure 4
1000
0001
1000
0001
1000
0001
1000
0001
1000
0001
1000
0001
1000
0001
1000
0001
,  // measure 5
1000
0001
1000
0001
1000
0001
1000
0001
1000
0001
1000
0001
1000
0001
1000
0001
,  // measure 6
1000
0100
0010
0001
1000
0100
0010
0001
1000
0010
0100
0000
0001
0010
0100
0000
,  // measure 7
0001
0010
0100
1000
0001
0010
0100
1000
0001
0010
1000
0000
0001
0100
0010
0000
,  // measure 8
1000
0010
0100
0010
1000
0010
0100
0010
1000
0010
0001
0000
1000
0100
0001
0000
,  // measure 9
0100
1000
0100
0001
0100
1000
0100
0001
0100
0010
0001
0000
0010
0100
1000
0000
,  // measure 10
0010
0100
1000
0100
0010
0100
1000
0100
0010
0001
1000
0000
0010
0100
0001
0000
,  // measure 11
0010
0001
1000
0001
0100
0001
1000
0001
0010
0100
1000
0000
1000
0100
0010
0000
,  // measure 12
0001
0100
0010
0100
0001
0100
0010
0100
0001
1000
0100
0000
0001
0010
1000
0000
,  // measure 13
0100
0010
0100
0010
0100
0010
0100
0010
1000
0001
1000
0001
1000
0001
1000
0001
,  // measure 14
1000
0000
0010
0000
0001
0000
0010
0001
0100
0000
0010
0000
1000
0000
0100
0000
,  // measure 15
0010
0000
1000
0000
0100
0000
0001
0010
0100
0000
1000
0000
0100
0000
0001
0000
,  // measure 16
0010
0000
0001
0000
0100
0000
0001
0010
1000
0000
0100
0000
0010
0000
1000
0000
,  // measure 17
0001
0010
0000
0000
0010
0100
0000
0000
1000
0100
1000
0000
1010
0000
0000
0000
,  // measure 18
1000
0000
0100
0000
0001
0000
0010
0100
0001
0000
0010
0000
1000
0000
0010
0000
,  // measure 19
0001
0000
0100
0000
1000
0000
0010
1000
0100
0000
0010
0000
0001
0000
1000
0000
,  // measure 20
0100
0000
0010
0000
0001
0000
0010
1000
0001
0000
0010
0000
0001
0000
0100
0000
,  // measure 21
0010
0100
0000
0000
1000
0001
0000
0000
0100
0010
0100
0000
1001
0000
0010
1000
,  // measure 22
0010
0000
0001
0100
0001
0000
0010
1000
0010
0000
0101
0000
0000
0000
1100
0000
,  // measure 23
0010
0000
0001
0010
0001
0000
0100
0010
0100
0000
1100
0000
1010
0000
0010
1000
,  // measure 24
0010
0000
0001
0010
0001
0000
0100
0001
0100
0000
1000
0100
1000
0100
0010
0000
,  // measure 25
0001
0000
0010
0001
0010
0000
0100
0010
0100
0000
1000
0100
1000
0100
0010
0000
,  // measure 26
0001
0000
0010
0100
0010
0000
0100
1000
0100
0000
1100
0000
0000
0000
0011
0000
,  // measure 27
0100
0000
1000
0010
1000
0000
0001
0100
0001
0000
0011
0000
0101
0000
1000
0001
,  // measure 28
1000
0000
0001
0010
0001
0000
0100
0001
0100
0000
1000
0100
1000
0100
0010
0000
,  // measure 29
0001
0000
0010
0100
0010
0000
0001
0010
0001
0000
0001
0010
0001
0010
0100
0000
,  // measure 30
1000
0100
1000
0000
0100
0000
1000
0100
1000
0000
0100
0000
0010
0001
0010
0000
,  // measure 31
0001
0100
0001
0000
0010
0000
0001
0010
0001
0000
0100
0000
0010
1000
0010
0000
,  // measure 32
0100
0010
0100
0000
0010
0000
0100
1000
0100
0000
0001
0000
0010
1000
0010
0000
,  // measure 33
0100
0001
1000
0100
0110
0110
0110
0000
,  // measure 34
1000
0010
0000
0000
0000
0000
1000
0010
0000
0000
0000
0000
0100
0001
0000
0000
0000
0000
0100
0001
0000
0000
0000
0000
1000
0000
0000
0000
0000
0000
0100
0000
0000
1000
0100
0000
0000
0000
0000
0000
0000
0000
0001
0000
0000
0000
0000
0000
,  // measure 35
0101
0000
0000
0000
0000
0000
1000
0000
0000
0100
0010
0000
0000
0000
0000
0000
0000
0000
0001
0000
0000
0000
0000
0000
0011
0000
0000
0000
0000
0000
0001
0000
0000
0010
0100
0000
0000
0000
0000
0000
0000
0000
1000
0000
0000
0000
0000
0000
,  // measure 36
0010
1000
0000
0000
0000
0000
0010
1000
0000
0000
0000
0000
0001
0100
0000
0000
0000
0000
0001
0100
0000
0000
0000
0000
0010
0000
0000
0000
0000
0000
0001
0000
0000
0010
0100
0000
0000
0000
0000
0000
0000
0000
1000
0000
0000
0000
0000
0000
,  // measure 37
0010
1000
0000
0000
0000
0000
0001
0010
0000
0000
0000
0000
0010
1000
0000
0000
0000
0000
0001
0010
0000
0000
0000
0000
1000
0100
0000
0000
0000
0000
0100
0001
0000
0000
0000
0000
1000
0100
0000
0000
0000
0000
0100
0000
0000
0001
0000
0000
,  // measure 38
0010
0000
0100
1000
0010
0000
0100
0001
0010
0000
0100
1000
0010
0000
0100
0001
,  // measure 39
0010
0000
0010
0001
0100
0000
0010
1000
0100
0000
0010
0001
0100
0000
0010
1000
,  // measure 40
0100
0000
0010
0001
0100
0000
0010
1000
0100
0000
0010
0001
0100
0000
0010
1000
,  // measure 41
0001
0010
0000
0000
0010
0100
0000
0000
0001
0010
0001
0000
1001
0000
1000
0010
,  // measure 42
0001
0000
0001
0010
1000
0000
1000
0010
0001
0000
0001
0010
1000
0000
1000
0010
,  // measure 43
0001
0000
0001
0100
1000
0000
1000
0100
0001
0000
0001
0100
1000
0000
1000
0100
,  // measure 44
0001
0000
0001
0010
0100
0000
0100
0010
0001
0000
0001
0100
1000
0000
1000
0100
,  // measure 45
0010
0001
0000
0000
0100
0010
0000
0000
1000
0100
1000
0000
1001
0000
0000
0000
,  // measure 46
1000
0100
1000
0100
1000
0100
1000
0100
1000
0010
1000
0010
1000
0010
1000
0010
,  // measure 47
1000
0100
1000
0100
1000
0100
1000
0100
1000
0001
1000
0001
1000
0001
1000
0001
,  // measure 48
0100
0010
0100
0010
0100
0010
0100
0010
0100
0001
0100
0001
0100
0001
0100
0001
,  // measure 49
0100
0010
0100
0010
0100
0010
0100
0010
0100
1000
0100
1000
0100
1000
0100
1000
,  // measure 50
0010
0100
0010
0100
0010
0100
0010
0100
0010
0001
0010
0001
0010
0001
0010
0001
,  // measure 51
0010
0100
0010
0100
0010
0100
0010
0100
0010
1000
0010
1000
0010
1000
0010
1000
,  // measure 52
0001
0010
0001
0010
0001
0100
0001
0100
0001
1000
0001
1000
0001
0010
0100
1000
,  // measure 53
0010
0100
0001
1000
0100
0010
0001
0100
0010
1000
0100
0010
0001
1000
0010
0000
,  // measure 54
2002
3003
0000
0000
;
