#VERSION:0.83;
#TITLE:NIGHT IN MOTION;
#SUBTITLE:;
#ARTIST:CUBIC22;
#TITLETRANSLIT:;
#SUBTITLETRANSLIT:;
#ARTISTTRANSLIT:;
#GENRE:;
#ORIGIN:;
#CREDIT:;
#BANNER:NIGHT IN MOTION.png;
#BACKGROUND:NIGHT IN MOTION-bg.png;
#PREVIEWVID:;
#JACKET:NIGHT IN MOTION-jacket.png;
#CDIMAGE:;
#DISCIMAGE:;
#LYRICSPATH:;
#CDTITLE:;
#MUSIC:NIGHT IN MOTION.ogg;
#OFFSET:0.000000;
#SAMPLESTART:8.922000;
#SAMPLELENGTH:15.000000;
#SELECTABLE:YES;
#BPMS:0.000=131.135;
#STOPS:;
#DELAYS:;
#WARPS:;
#TIMESIGNATURES:0.000=4=4;
#TICKCOUNTS:0.000=4;
#COMBOS:0.000=1;
#SPEEDS:0.000=1.000=0.000=0;
#SCROLLS:0.000=1.000;
#FAKES:;
#LABELS:0.000=Song Start;
#BGCHANGES:;
#KEYSOUNDS:;
#ATTACKS:
;

//---------------dance-single - ----------------
#NOTEDATA:;
#CHARTNAME:;
#STEPSTYPE:dance-single;
#DESCRIPTION:;
#CHARTSTYLE:;
#DIFFICULTY:Beginner;
#METER:2;
#RADARVALUES:0.144117,0.159992,0.031526,0.010509,0.000000,96.000000,93.000000,3.000000,1.000000,0.000000,0.000000,0.000000,0.000000,0.000000,0.144117,0.159992,0.031526,0.010509,0.000000,96.000000,93.000000,3.000000,1.000000,0.000000,0.000000,0.000000,0.000000,0.000000;
#CREDIT:;
#NOTES:
0000
0000
0000
0000
,
0000
0000
0000
0000
,
0000
0000
0000
0000
,
0000
0000
0000
0000
,
0000
0000
1001
0000
,
0010
0000
0100
0000
,
1000
0000
0001
0000
,
0010
0000
0100
0000
,
0001
0000
0001
0000
,
0010
0000
0100
0000
,
1000
0000
0001
0000
,
0010
0000
0100
0000
,
0001
0000
0001
0000
,
0010
0000
1000
0000
,
0010
0000
1000
0000
,
0010
0000
1000
0000
,
0100
0000
0100
0000
,
1000
0000
0010
0000
,
1000
0000
0010
0000
,
1000
0000
0010
0000
,
1000
0000
0100
0000
,
0010
0000
0010
0000
,
0010
0000
0010
0000
,
1001
0000
0100
0000
,
0100
0000
0100
0000
,
0010
0000
1000
0000
,
0010
0000
0001
0000
,
0100
0000
0001
0000
,
1000
0000
0100
0000
,
1000
0000
0010
0000
,
0001
0000
0010
0000
,
0001
0000
0100
0000
,
1000
0000
0100
0000
,
1000
0000
0001
0000
,
1000
0000
1001
0000
,
0010
0000
0010
0000
,
1000
0000
1000
0000
,
0010
0000
0001
0000
,
0100
0000
0100
0000
,
0001
0000
0010
0000
,
0100
0000
0100
0000
,
1000
0000
0010
0000
,
0100
0000
0001
0000
,
0010
0000
0010
0000
,
0100
0000
0100
0000
,
0010
0000
0100
0000
,
0010
0000
0010
0000
,
0100
0000
0010
0000
,
1000
0000
0001
0000
,
0010
0000
1000
0000
,
0010
0000
2000
3000
;

//---------------dance-single - ----------------
#NOTEDATA:;
#CHARTNAME:;
#STEPSTYPE:dance-single;
#DESCRIPTION:;
#CHARTSTYLE:;
#DIFFICULTY:Easy;
#METER:5;
#RADARVALUES:0.273221,0.346649,0.094577,0.000000,0.000000,182.000000,173.000000,9.000000,0.000000,0.000000,0.000000,0.000000,0.000000,0.000000,0.273221,0.346649,0.094577,0.000000,0.000000,182.000000,173.000000,9.000000,0.000000,0.000000,0.000000,0.000000,0.000000,0.000000;
#CREDIT:;
#NOTES:
0000
0000
0000
0000
,
0000
0000
0000
0000
,
0000
0000
0000
0000
,
0000
0000
0000
0000
,
0000
0000
1001
0000
,
0010
0010
0100
0010
,
1000
1000
0001
0001
,
0010
0010
0100
0010
,
0001
0001
0001
1000
,
0010
0010
0100
0010
,
1000
1000
0001
0001
,
0010
0010
0100
0010
,
0001
0001
0001
0001
,
0010
0100
1000
0001
,
0010
0100
1000
0001
,
0010
0100
1000
0001
,
0100
0010
0100
0010
,
1000
0001
0010
0100
,
1000
0001
0010
0100
,
1000
0001
0010
0100
,
1000
0010
0100
0001
,
0010
0000
0010
0000
,
0010
0000
0010
0000
,
1001
0000
0100
0000
,
0100
0000
0100
0000
,
0010
0001
1000
1000
,
0010
0100
0001
1000
,
0100
0010
0001
0001
,
1000
0010
0100
0001
,
1000
0100
0010
0010
,
0001
1000
0010
0100
,
0001
0010
0100
0100
,
1000
0010
0100
0001
,
1000
0000
0001
0000
,
1000
0000
1001
0000
,
0010
0100
0010
0010
,
1000
0001
1000
1000
,
0010
0100
0001
1000
,
0100
0100
0100
0010
,
0001
1000
0010
0010
,
0100
0100
0100
0010
,
1000
0001
0010
0010
,
0100
1000
0001
0100
,
0010
0010
0010
1001
,
0100
0100
0100
1001
,
0010
1001
0100
1001
,
0010
0010
0010
1001
,
0100
0100
0010
0010
,
1000
0100
0001
0100
,
0010
0010
1000
0100
,
0010
0001
1000
1001
;

//---------------dance-single - ----------------
#NOTEDATA:;
#CHARTNAME:;
#STEPSTYPE:dance-single;
#DESCRIPTION:;
#CHARTSTYLE:;
#DIFFICULTY:Medium;
#METER:10;
#RADARVALUES:0.423343,0.479976,0.598985,0.000000,0.000000,282.000000,225.000000,57.000000,0.000000,0.000000,0.000000,0.000000,0.000000,0.000000,0.423343,0.479976,0.598985,0.000000,0.000000,282.000000,225.000000,57.000000,0.000000,0.000000,0.000000,0.000000,0.000000,0.000000;
#CREDIT:;
#NOTES:
0000
0000
0000
0000
,
0000
0000
0000
0000
,
0000
0000
0000
0000
,
0000
0000
0000
0000
,
0000
0000
1001
0000
,
0110
0000
1001
0000
0010
0100
0001
0000
,
1100
0000
1100
0000
0001
0100
0010
0000
,
1001
0000
0110
0000
0001
1000
0100
0000
,
0101
0000
0101
0000
1000
0100
0010
0000
,
1001
0000
0110
0000
0001
1000
0100
0000
,
0101
0000
1100
0000
0010
0001
0100
0000
,
1010
0000
0101
0000
0010
1000
0100
0000
,
0011
0000
1100
0000
0001
0100
0010
0000
,
1000
0000
0100
0000
0010
0001
0010
0000
,
0100
0000
1000
0000
0010
0100
0010
0000
,
1000
0000
0001
0000
0010
0100
0010
0000
,
0001
0000
0100
0000
0010
1000
0010
0000
,
0100
0000
0001
0000
1000
0100
1000
0000
,
0010
0000
0100
0000
0001
0010
0001
0000
,
1000
0000
0100
0000
0010
0001
0010
0000
,
0100
0000
1000
0000
0010
0100
0010
0000
,
1000
1000
0000
0100
,
0010
0010
0000
0001
,
1000
1000
0010
0000
,
0100
0100
0000
0001
,
1000
0100
0010
0000
0001
0000
0100
0000
,
0010
1000
0100
0000
0010
0000
0001
0000
,
1000
0010
0100
0000
0001
0000
0010
0000
,
0100
1000
0001
0000
0100
0000
0010
0000
,
1000
0100
0010
0000
0001
0000
1000
0000
,
0010
0100
0001
0000
1000
0000
0100
0000
,
0010
0001
0100
0000
0010
0000
1000
0000
,
0100
0010
0001
0000
1000
0000
0010
0000
,
0100
0001
0100
0000
0010
1000
0100
0000
,
0010
0001
0100
0000
0010
1000
0001
0000
,
0110
0000
1001
0000
0010
0100
0001
0000
,
1100
0000
1100
0000
0001
0100
0010
0000
,
1001
0000
0110
0000
0001
1000
0100
0000
,
0101
0000
0101
0000
1000
0100
0010
0000
,
1001
0000
0110
0000
0001
1000
0100
0000
,
0101
0000
1100
0000
0010
0001
0100
0000
,
1010
0000
0101
0000
0010
1000
0100
0000
,
0011
0000
1100
0000
0001
0100
0010
0000
,
1001
0000
1100
0000
0101
1000
0100
0000
,
1001
0000
0110
0000
1001
0100
0010
0000
,
1001
0000
1100
0000
0101
1000
0010
0000
,
0101
0000
0011
0000
1100
0001
0100
0000
,
0110
0000
1001
0000
0110
0001
1000
0000
,
1100
0000
0101
0000
1010
0100
0010
0000
,
1001
0000
0110
0000
1100
0010
0001
0000
,
0101
0000
1010
0000
0100
0010
1001
0000
;

//---------------dance-single - ----------------
#NOTEDATA:;
#CHARTNAME:;
#STEPSTYPE:dance-single;
#DESCRIPTION:;
#CHARTSTYLE:;
#DIFFICULTY:Hard;
#METER:12;
#RADARVALUES:0.523924,0.693299,0.872206,0.000000,0.288984,349.000000,266.000000,83.000000,0.000000,0.000000,0.000000,0.000000,0.000000,0.000000,0.523924,0.693299,0.872206,0.000000,0.288984,349.000000,266.000000,83.000000,0.000000,0.000000,0.000000,0.000000,0.000000,0.000000;
#CREDIT:;
#NOTES:
0000
0000
0000
0000
,
0000
0000
0000
0000
,
0000
0000
0000
0000
,
0000
0000
0000
0000
,
0000
0000
0000
0000
1000
0001
1000
0000
,
0010
0000
0000
0010
0000
0000
0010
0000
0000
0000
0100
0000
0001
0000
0010
0000
,
0100
0000
0000
0100
0000
0000
0100
0000
0000
0000
1000
0000
0001
0000
0100
0000
,
0010
0000
0000
0010
0000
0000
0010
0000
0000
0000
1000
0000
0100
0000
0010
0000
,
0001
0000
0000
0001
0000
0000
0001
0000
0000
0000
1000
0000
0010
0000
0100
0000
,
0001
0000
0000
1000
0000
0000
0100
0000
0000
0000
0010
0000
0001
0000
0100
0000
,
0010
0000
0000
1000
0000
0000
0100
0000
0000
0000
0010
0000
0001
0000
1000
0000
,
0010
0000
0000
0100
0000
0000
0001
0000
0000
0000
1000
0000
0100
0000
0010
0000
,
0001
0000
0000
1000
0000
0000
0010
0000
0000
0000
0100
0000
0001
0000
0000
0000
,
0000
0000
1000
0000
0000
0010
0000
0000
0100
0000
0000
0100
0000
0000
0001
0000
,
0000
0000
0010
0000
0000
0100
0000
0000
1000
0000
0000
1000
0000
0000
0001
0000
,
0000
0000
0100
0000
0000
0010
0000
0000
1000
0000
0000
1000
0000
0000
0100
0000
,
0000
0000
0010
0000
0000
0001
0000
0000
0100
0000
0000
0100
0000
0000
0010
0000
,
0000
0000
1000
0000
0000
0100
0000
0000
0010
0000
0000
0010
0000
0000
0001
0000
,
0000
0000
0100
0000
0000
0010
0000
0000
1000
0000
0000
1000
0000
0000
0100
0000
,
0000
0000
0010
0000
0000
0001
0000
0000
1000
0000
0000
1000
0000
0000
0100
0000
,
0000
0000
0010
0000
0000
0001
0000
0000
1000
0000
0000
0000
0000
0000
0000
0000
,
1001
0000
1001
0000
0000
1100
0000
0000
,
0011
0000
0011
0000
0000
0101
0000
0000
,
1010
0000
1010
0000
0000
1100
0000
0000
,
1001
0000
1001
0000
0000
0110
0000
0000
,
1000
0000
0001
0000
0010
0100
0000
0000
1000
0000
0000
0001
0000
0000
0100
0000
,
0010
0000
1000
0000
0100
0010
0000
0000
0001
0000
0000
1000
0000
0000
0010
0000
,
0100
0000
0001
0000
1000
0100
0000
0000
0010
0000
0000
0001
0000
0000
0100
0000
,
0010
0000
1000
0000
0001
0010
0000
0000
0100
0000
0000
1000
0000
0000
0001
0000
,
0100
0000
0010
0000
1000
0100
0000
0000
0010
0000
0000
0001
0000
0000
0100
0000
,
0010
0000
1000
0000
0100
0010
0000
0000
0001
0000
0000
1000
0000
0000
0010
0000
,
0100
0000
0001
0000
0010
0100
0000
0000
1000
0000
0000
0010
0000
0000
0100
0000
,
0001
0000
1000
0000
0100
0010
0000
0000
0001
0000
0000
0100
0000
0000
0010
0000
,
1000
1000
1000
0100
0010
0001
1000
0010
,
0100
0001
1000
0100
0010
0001
0100
0000
,
1001
0000
0000
1001
0000
0000
1001
0000
0000
0000
0100
0000
0010
0000
0001
0000
,
1001
0000
0000
1001
0000
0000
1001
0000
0000
0000
0100
0000
0010
0000
0001
0000
,
0101
0000
0000
0101
0000
0000
0101
0000
0000
0000
0010
0000
1000
0000
0100
0000
,
0110
0000
0000
0110
0000
0000
0110
0000
0000
0000
0001
0000
1000
0000
0100
0000
,
0110
0000
0000
0110
0000
0000
0110
0000
0000
0000
0001
0000
0100
0000
0010
0000
,
1010
0000
0000
1010
0000
0000
1010
0000
0000
0000
0100
0000
0010
0000
0001
0000
,
1001
0000
0000
1001
0000
0000
1001
0000
0000
0000
0100
0000
0010
0000
0001
0000
,
0101
0000
0000
0101
0000
0000
0101
0000
0000
0000
0010
0000
1000
0000
0100
0000
,
0011
0000
0000
0101
0000
0000
1001
0000
0000
0000
1100
0000
1100
0000
1100
0000
,
1001
0000
0000
0101
0000
0000
1010
0000
0000
0000
1100
0000
1100
0000
1100
0000
,
0011
0000
0000
0101
0000
0000
1001
0000
0000
0000
1010
0000
1010
0000
1010
0000
,
1100
0000
0000
1001
0000
0000
0101
0000
0000
0000
0110
0000
0110
0000
0110
0000
,
1001
0000
0000
1100
0000
0000
0101
0000
0000
0000
1010
0000
1010
0000
1010
0000
,
0110
0000
0000
0101
0000
0000
1100
0000
0000
0000
0011
0000
0011
0000
0011
0000
,
1100
0000
0000
1001
0000
0000
0110
0000
0000
0000
1001
0000
1001
0000
1001
0000
,
0110
0000
0000
0101
0000
0000
0011
0000
0000
0000
1100
0000
0101
0000
0000
0000
;

//---------------dance-double - ----------------
#NOTEDATA:;
#CHARTNAME:;
#STEPSTYPE:dance-double;
#DESCRIPTION:;
#CHARTSTYLE:;
#DIFFICULTY:Easy;
#METER:4;
#RADARVALUES:0.283730,0.346649,0.273221,0.000000,0.000000,189.000000,163.000000,26.000000,0.000000,0.000000,0.000000,0.000000,0.000000,0.000000,0.283730,0.346649,0.273221,0.000000,0.000000,189.000000,163.000000,26.000000,0.000000,0.000000,0.000000,0.000000,0.000000,0.000000;
#CREDIT:;
#NOTES:
00000000
00000000
00000000
00000000
,
00000000
00000000
00000000
00000000
,
00000000
00000000
00000000
00000000
,
00000000
00000000
00000000
00000000
,
00000000
00000000
10010000
01100000
,
00001000
00010000
00000100
00000010
,
00000001
00000100
00000001
00000100
,
00001000
00000100
00010000
00001000
,
00100000
01000000
00100000
01000000
,
10010000
01000000
00001000
00010000
,
00000010
00000100
00000010
00000100
,
00001001
00000100
00010000
00001000
,
00100000
00010000
10000000
01000000
,
00100000
00001000
00010000
00000000
,
00000010
00000100
00000001
00000000
,
00000010
00000100
00010000
00000000
,
00001000
01000000
00100000
00000000
,
10000000
01000000
00100000
00000000
,
00001000
00010000
00000100
00000000
,
00000010
00000001
00000100
00000000
,
00000010
00010000
00001000
00000000
,
00011000
00000000
00000000
00000000
,
10010000
00000000
00000000
00000000
,
00011000
00000000
00000000
00000000
,
00001001
00000000
00000000
00000000
,
00000010
00000100
00010000
00010000
,
00001000
01000000
00100000
10000000
,
01000000
00100000
00001000
00001000
,
00010000
00000100
00000010
00000001
,
00000100
00000010
00010000
00010000
,
00001000
00100000
01000000
10000000
,
00010000
01000000
00001000
00001000
,
00010000
00000010
00000100
00000001
,
00001000
00000000
00001000
00000000
,
00001000
00000000
00000110
00001001
,
00000100
00010000
00001000
01000000
,
00100000
10000000
01000000
10010000
,
01000000
00001000
00010000
00000100
,
00000010
00000001
00000100
00000110
,
00001000
00000100
00010000
00001000
,
00100000
00010000
10000000
01100000
,
00010000
01000000
00001000
00010000
,
00000100
00001000
00000001
00000110
,
00001001
00000100
00010000
00011000
,
00100000
01000000
10000000
10010000
,
01100000
00001000
00010000
00011000
,
00000100
00000010
00000001
00001001
,
00000110
00010000
00001000
00011000
,
00100000
01000000
10000000
10010000
,
01000000
00100000
10000000
10010000
,
01000000
00001000
00011000
00001001
;

//---------------dance-double - ----------------
#NOTEDATA:;
#CHARTNAME:;
#STEPSTYPE:dance-double;
#DESCRIPTION:;
#CHARTSTYLE:;
#DIFFICULTY:Medium;
#METER:6;
#RADARVALUES:0.366296,0.426645,0.304747,0.000000,0.000000,244.000000,215.000000,29.000000,0.000000,0.000000,0.000000,0.000000,0.000000,0.000000,0.366296,0.426645,0.304747,0.000000,0.000000,244.000000,215.000000,29.000000,0.000000,0.000000,0.000000,0.000000,0.000000,0.000000;
#CREDIT:;
#NOTES:
00000000
00000000
00000000
00000000
,
00000000
00000000
00000000
00000000
,
00000000
00000000
00000000
00000000
,
00000000
00000000
00000000
00000000
,
00000000
00000000
00011000
00001010
,
00000001
00000000
00000100
00000000
00000010
00001000
00000100
00000000
,
00010000
00000000
00001000
00000000
00100000
00010000
01000000
00000000
,
00100000
00000000
10000000
00000000
01000000
00100000
00001000
00000000
,
00010000
00000000
00000100
00000000
00000010
00000001
00001000
00000000
,
00000100
00000000
00010000
00000000
00001000
00100000
00010000
00000000
,
10000000
00000000
01000000
00000000
00100000
00001000
00010000
00000100
,
00001000
00000000
00000001
00000000
00000100
00000010
00001000
00000000
,
00000100
00000000
00010000
00000000
00001000
00100000
00010000
10000000
,
00000000
01000000
00000000
00100000
00000000
00001000
00000000
00011000
,
00000000
00000100
00000000
00000010
00000000
00000001
00000000
00000101
,
00000000
00000010
00000000
00001000
00000000
00000100
00000000
00011000
,
00000000
00100000
00000000
01000000
00000000
10000000
00000000
01010000
,
00000000
00100000
00000000
00001000
00000000
00010000
00000000
00001010
,
00000000
00000100
00000000
00000001
00000000
00000010
00000000
00001100
,
00000000
00010000
00000000
00001000
00000000
00100000
00000000
10010000
,
00000000
01000000
00000000
00100000
00000000
00010000
00000000
00000000
,
01000000
01000000
00000000
00000000
,
00001000
00010000
00001000
00000000
00000000
00000000
00000000
00000000
,
00000100
00000100
00000000
00000000
,
00000010
00000001
00001000
00000000
00000000
00000000
00000000
00000000
,
00000100
00010000
00001000
00100000
,
00010000
10000000
01000000
00000000
00010000
10000000
01000000
00000000
,
00010000
01000000
00001000
00010000
,
00000100
00000010
00000001
00000000
00000100
00000010
00001000
00000000
,
00000100
00010000
00001000
01000000
,
00100000
10000000
01000000
00000000
00100000
00010000
01000000
00000000
,
00001000
00010000
00000100
00000010
,
00000001
00001000
00000100
00000000
00000001
00001000
00000100
00000000
,
00010000
00001000
00010000
00000000
00100000
00010000
00100000
00000000
,
10000000
01000000
10000000
00000000
00110000
00000000
00011000
00000000
,
00000100
00000000
00000010
00000000
00000001
00000100
00000010
00000000
,
00001000
00000000
00000100
00000000
00010000
00001000
00100000
00000000
,
00010000
00000000
10000000
00000000
00100000
01000000
00001000
00000000
,
00010000
00000000
00000100
00000000
00000010
00000001
00000100
00000000
,
00000010
00000000
00010000
00000000
00001000
00100000
00010000
00000000
,
10000000
00000000
01000000
00000000
00100000
00001000
00010000
00000000
,
00000010
00000000
00000100
00000000
00000001
00001000
00000100
00000000
,
00010000
00000000
00001000
00000000
00100000
01000000
10000000
00000000
,
10010000
00000000
01001000
00000000
00010000
00000100
00001000
00000000
,
00000101
00000000
00000011
00000000
00001000
00000100
00010000
00000000
,
00101000
00000000
10010000
00000000
01000000
00100000
00001000
00000000
,
00010100
00000000
00001001
00000000
00000010
00000100
00000001
00000000
,
00001100
00000000
00011000
00000000
00100000
00010000
10000000
00000000
,
01100000
00000000
10010000
00000000
01000000
00001000
00010000
00000000
,
00001010
00000000
00000101
00000000
00000010
00000100
00010000
00000000
,
00101000
10010000
00011000
00001001
;

//---------------dance-double - ----------------
#NOTEDATA:;
#CHARTNAME:;
#STEPSTYPE:dance-double;
#DESCRIPTION:;
#CHARTSTYLE:;
#DIFFICULTY:Hard;
#METER:7;
#RADARVALUES:0.427846,0.453311,0.147119,0.000000,0.288984,285.000000,271.000000,14.000000,0.000000,0.000000,0.000000,0.000000,0.000000,0.000000,0.427846,0.453311,0.147119,0.000000,0.288984,285.000000,271.000000,14.000000,0.000000,0.000000,0.000000,0.000000,0.000000,0.000000;
#CREDIT:;
#NOTES:
00000000
00000000
00000000
00000000
,
00000000
00000000
00000000
00000000
,
00000000
00000000
00000000
00000000
,
00000000
00000000
00000000
00000000
,
00000000
00000000
00000000
00000000
00010000
00001000
00100000
00000000
,
00010000
00000000
00000000
10000000
00000000
00000000
01000000
00000000
00000000
00000000
00100000
00000000
00010000
00000000
01000000
00000000
,
00001000
00000000
00000000
00010000
00000000
00000000
00000100
00000000
00000000
00000000
00001000
00000000
00000001
00000000
00000100
00000000
,
00000010
00000000
00000000
00001000
00000000
00000000
00000100
00000000
00000000
00000000
00010000
00000000
00001000
00000000
01000000
00000000
,
00010000
00000000
00000000
10000000
00000000
00000000
01000000
00000000
00000000
00000000
00100000
00000000
00010000
00000000
01000000
00000000
,
00001000
00000000
00000000
00010000
00000000
00000000
00000010
00000000
00000000
00000000
00001000
00000000
00000001
00000000
00000010
00000000
,
00000100
00000000
00000000
00001000
00000000
00000000
00000010
00000000
00000000
00000000
00010000
00000000
00001000
00000000
00100000
00000000
,
00010000
00000000
00000000
10000000
00000000
00000000
00100000
00000000
00000000
00000000
01000000
00000000
00010000
00000000
00100000
00000000
,
00001000
00000000
00000000
00010000
00000000
00000000
00000010
00000000
00000000
00000000
00001000
00000000
00000001
00000000
00000010
00000000
,
00000000
00000000
00000100
00000000
00000000
00010000
00000000
00000000
00001000
00000000
00000000
00010000
00000000
00000000
00000100
00000000
,
00000000
00000000
00010000
00000000
00000000
00001000
00000000
00000000
00100000
00000000
00000000
00001000
00000000
00000000
00010000
00000000
,
00000000
00000000
00000010
00000000
00000000
00001000
00000000
00000000
00000001
00000000
00000000
00001000
00000000
00000000
00000010
00000000
,
00000000
00000000
00000100
00000000
00000000
00000001
00000000
00000000
00001000
00000000
00000000
00000001
00000000
00000000
00000100
00000000
,
00000000
00000000
00000010
00000000
00000000
00010000
00000000
00000000
00001000
00000000
00000000
01000000
00000000
00000000
00100000
00000000
,
00000000
00000000
10000000
00000000
00000000
01000000
00000000
00000000
00100000
00000000
00000000
00001000
00000000
00000000
00010000
00000000
,
00000000
00000000
00000010
00000000
00000000
00001000
00000000
00000000
00000001
00000000
00000000
00000010
00000000
00000000
00000100
00000000
,
00000000
00000000
00010000
00000000
00000000
00001000
00000000
00000000
00010000
00000000
00000000
00000000
00000000
00000000
00000000
00000000
,
00100000
01000000
00100000
00000000
00000000
10010000
00000000
00000000
,
01000000
00001000
00010000
00000000
00000000
00001001
00000000
00000000
,
00000010
00000100
00010000
00000000
00000000
00101000
00000000
00000000
,
00010000
10000000
01000000
00000000
00000000
01010000
00000000
00000000
,
00001000
00000000
00010000
00000000
00001000
00010000
00000000
00000000
00000100
00000000
00000000
00001000
00000000
00000000
00000001
00000000
,
00000100
00000000
00000010
00000000
00000100
00000010
00000000
00000000
00001000
00000000
00000000
00000100
00000000
00000000
00010000
00000000
,
00001000
00000000
00100000
00000000
00001000
00100000
00000000
00000000
00010000
00000000
00000000
10000000
00000000
00000000
01000000
00000000
,
00100000
00000000
00001000
00000000
00100000
00001000
00000000
00000000
00010000
00000000
00000000
00000100
00000000
00000000
00000010
00000000
,
00000001
00000000
00000100
00000000
00000010
00001000
00000000
00000000
00000100
00000000
00000000
00010000
00000000
00000000
00001000
00000000
,
00100000
00000000
00010000
00000000
10000000
01000000
00000000
00000000
00100000
00000000
00000000
00001000
00000000
00000000
00010000
00000000
,
00000100
00000000
00000010
00000000
00000001
00001000
00000000
00000000
00000010
00000000
00000000
00010000
00000000
00000000
00001000
00000000
,
00100000
00000000
00010000
00000000
01000000
00100000
00000000
00000000
10000000
00000000
00000000
01000000
00000000
00000000
00100000
00000000
,
00010000
01000000
00010000
00100000
00001000
00010000
00000100
00000010
,
00000001
00000100
00000010
00001000
00000100
00010000
00001000
00000000
,
00100000
00000000
00000000
00010000
00000000
00000000
01000000
00000000
00000000
00000000
00100000
00000000
10000000
00000000
01000000
00000000
,
00100000
00000000
00000000
00001000
00000000
00000000
00010000
00000000
00000000
00000000
00000010
00000000
00001000
00000000
00000100
00000000
,
00000010
00000000
00000000
00000001
00000000
00000000
00001000
00000000
00000000
00000000
00000100
00000000
00010000
00000000
00001000
00000000
,
00100000
00000000
00000000
00010000
00000000
00000000
10000000
00000000
00000000
00000000
01000000
00000000
00100000
00000000
00010000
00000000
,
01000000
00000000
00000000
00001000
00000000
00000000
00010000
00000000
00000000
00000000
00000100
00000000
00000010
00000000
00000001
00000000
,
00000100
00000000
00000000
00000010
00000000
00000000
00010000
00000000
00000000
00000000
00001000
00000000
00100000
00000000
01000000
00000000
,
10000000
00000000
00000000
00010000
00000000
00000000
01000000
00000000
00000000
00000000
00001000
00000000
00010000
00000000
00000100
00000000
,
00000010
00000000
00000000
00000001
00000000
00000000
00001000
00000000
00000000
00000000
00000010
00000000
00010000
00000000
00001000
00000000
,
00100000
00000000
00000000
01000000
00000000
00000000
10010000
00000000
00000000
00000000
01000000
00000000
00001000
00000000
00010000
00000000
,
00000100
00000000
00000000
00000010
00000000
00000000
00001001
00000000
00000000
00000000
00000010
00000000
00000100
00000000
00000001
00000000
,
00001000
00000000
00000000
00000100
00000000
00000000
00010010
00000000
00000000
00000000
00001000
00000000
00000100
00000000
00010000
00000000
,
00001000
00000000
00000000
00100000
00000000
00000000
10010000
00000000
00000000
00000000
01000000
00000000
00100000
00000000
00001000
00000000
,
00010000
00000000
00000000
00000100
00000000
00000000
00001001
00000000
00000000
00000000
00000100
00000000
00000010
00000000
00001000
00000000
,
00000100
00000000
00000000
00010000
00000000
00000000
00101000
00000000
00000000
00000000
00010000
00000000
10000000
00000000
00100000
00000000
,
01000000
00000000
00000000
00001000
00000000
00000000
00010010
00000000
00000000
00000000
00001000
00000000
00000001
00000000
00000010
00000000
,
00000100
00000000
00000000
00001000
00000000
00000000
00011000
00000000
00000000
00000000
00110000
00000000
11000000
00000000
00000000
00000000
;

//---------------dance-couple - ----------------
#NOTEDATA:;
#CHARTNAME:;
#STEPSTYPE:dance-couple;
#DESCRIPTION:;
#CHARTSTYLE:;
#DIFFICULTY:Challenge;
#METER:6;
#RADARVALUES:0.313754,0.693299,0.430849,0.000000,0.131356,209.000000,168.000000,41.000000,0.000000,0.000000,0.000000,0.000000,0.000000,0.000000,0.313754,0.693299,0.430849,0.000000,0.131356,209.000000,168.000000,41.000000,0.000000,0.000000,0.000000,0.000000,0.000000,0.000000;
#CREDIT:;
#NOTES:
00000000
00000000
00000000
00000000
,
00000000
00000000
00000000
00000000
,
00000000
00000000
00000000
00000000
,
00000000
00000000
00000000
00000000
,
00000000
00000000
10010000
00000110
,
00100000
00100000
01000000
00100000
,
00001000
00001000
00000001
00001000
,
01000000
01000000
00100000
01000000
,
00000001
00000001
00001000
00000001
,
10010000
00000000
00000110
00000000
01000001
00101000
00010100
00000000
,
00000011
00000000
11000000
00000000
00100100
00011000
01000010
00000000
,
10100000
00000000
00000101
00000000
01000010
00011000
00100100
00000000
,
00000011
00000000
11000000
00000000
00011000
01000100
00100010
00000000
,
00000000
00000000
10000000
00000000
00000001
00100000
00000000
00000000
01000000
00000000
00000000
01000000
00000000
00000000
00010000
00000000
,
00000000
00000000
00100000
00000000
00000001
01000000
00000000
00000000
10000000
00000000
00000000
10000000
00000000
00000000
00010000
00000000
,
00000000
00000000
01000000
00000000
00000001
00100000
00000000
00000000
10000000
00000000
00000000
10000000
00000000
00000000
01000000
00000000
,
00000000
00000000
00000010
00000000
10000000
00000001
00000000
00000000
00000100
00000000
00000000
00000100
00000000
00000000
00000010
00000000
,
00000000
00000000
00001000
00000000
10000000
00000100
00000000
00000000
00000010
00000000
00000000
00000010
00000000
00000000
00000001
00000000
,
00000000
00000000
00000100
00000000
10000000
00000010
00000000
00000000
00001000
00000000
00000000
00001000
00000000
00000000
00000100
00000000
,
00000000
00000000
00100010
00000000
00000000
10000001
00000000
00000000
00011000
00000000
00000000
00011000
00000000
00000000
01000100
00000000
,
00000000
00000000
00100010
00000000
00000000
10000001
00000000
00000000
00011000
00000000
00000000
00000000
00000000
00000000
00000000
00000000
,
10000000
00000000
10000000
00000000
00000000
01000000
00000000
00000000
,
00100000
00000000
00100000
00000000
00000000
00010000
00000000
00000000
,
00000001
00000000
00000001
00000000
00000000
00000010
00000000
00000000
,
00000100
00000000
00000100
00000000
00000000
00001000
00000000
00000000
,
10000001
01000000
00100000
00000000
00010000
00000000
01000000
00000000
,
00100001
10000000
01000000
00000000
00100000
00000000
00010000
00000000
,
10001000
00000010
00000100
00000000
00000001
00000000
00000010
00000000
,
10000100
00001000
00000001
00000000
00000100
00000000
00000010
00000000
,
01000001
00000000
00100000
00000000
10000000
01000000
00000000
00000000
00100000
00000000
00000000
00010000
00000000
00000000
01000000
00000000
,
00100001
00000000
10000000
00000000
01000000
00100000
00000000
00000000
00010000
00000000
00000000
10000000
00000000
00000000
00100000
00000000
,
10000100
00000000
00000001
00000000
00000010
00000100
00000000
00000000
00001000
00000000
00000000
00000010
00000000
00000000
00000100
00000000
,
10000001
00000000
00001000
00000000
00000100
00000010
00000000
00000000
00000001
00000000
00000000
00000100
00000000
00000000
00000010
00000000
,
10001000
00000000
00010001
00000000
,
10001000
00000000
10010000
00000110
,
00010001
00000000
00000000
10000000
00000001
00000000
01000000
00000000
00000000
00000000
00100000
00000000
00010000
00000000
01000000
00000000
,
00100001
00000000
00000000
10000000
00000001
00000000
01000000
00000000
00000000
00000000
00100000
00000000
00010000
00000000
10000000
00000000
,
00100001
00000000
00000000
01000000
00000001
00000000
00010000
00000000
00000000
00000000
10000000
00000000
01000000
00000000
00100000
00000000
,
00010001
00000000
00000000
10000000
00000001
00000000
00100000
00000000
00000000
00000000
01000000
00000000
00010000
00000000
00100000
00000000
,
01000001
00000000
00000000
00001000
01000000
00000000
00000100
00000000
00000000
00000000
00000010
00000000
00000001
00000000
00000100
00000000
,
01000010
00000000
00000000
00001000
01000000
00000000
00000100
00000000
00000000
00000000
00000010
00000000
00000001
00000000
00001000
00000000
,
01000010
00000000
00000000
00000100
01000000
00000000
00000001
00000000
00000000
00000000
00001000
00000000
00000100
00000000
00000010
00000000
,
01000001
00000000
00000000
00001000
01000000
00000000
00000010
00000000
00000000
00000000
00000100
00000000
00000001
00000000
00000010
00000000
,
01100110
00000000
00000000
01100110
00000000
00000000
01100110
00000000
00000000
00000000
00010001
00000000
10001000
00000000
01000100
00000000
,
01100110
00000000
00000000
01100110
00000000
00000000
01100110
00000000
00000000
00000000
00010001
00000000
01000100
00000000
00100010
00000000
,
10011001
00000000
00000000
10011001
00000000
00000000
10011001
00000000
00000000
00000000
01000100
00000000
00100010
00000000
00010001
00000000
,
01010101
00000000
00000000
01010101
00000000
00000000
01010101
00000000
00000000
00000000
00100010
00000000
10001000
00000000
01000100
00000000
,
01100110
00000000
00000000
11001100
00000000
00000000
01010101
00000000
00000000
00000000
10101010
00000000
10101010
00000000
10101010
00000000
,
01100110
00000000
00000000
01010101
00000000
00000000
11001100
00000000
00000000
00000000
00110011
00000000
00110011
00000000
00110011
00000000
,
11001100
00000000
00000000
10011001
00000000
00000000
01100110
00000000
00000000
00000000
10011001
00000000
10011001
00000000
10011001
00000000
,
01100110
00000000
00000000
01010101
00000000
00000000
00110011
00000000
00000000
00000000
11001100
00000000
01010101
00000000
00000000
00000000
;

//---------------dance-solo - ----------------
#NOTEDATA:;
#CHARTNAME:;
#STEPSTYPE:dance-solo;
#DESCRIPTION:;
#CHARTSTYLE:;
#DIFFICULTY:Easy;
#METER:3;
#RADARVALUES:0.258209,0.399980,0.252204,0.000000,0.000000,172.000000,148.000000,24.000000,0.000000,0.000000,0.000000,0.000000,0.000000,0.000000,0.258209,0.399980,0.252204,0.000000,0.000000,172.000000,148.000000,24.000000,0.000000,0.000000,0.000000,0.000000,0.000000,0.000000;
#CREDIT:;
#NOTES:
000000
000000
000000
000000
,
000000
000000
000000
000000
,
000000
000000
000000
000000
,
000000
000000
000000
000000
,
000000
000000
010010
000000
,
100000
001000
000100
000100
,
000001
001000
000100
000100
,
100000
000010
001000
001000
,
000001
010000
001000
001000
,
000100
000001
010000
000100
,
100000
001000
000100
000001
,
001000
000010
010000
001000
,
000100
000001
100000
001000
,
000000
010000
000000
000001
,
000000
100000
000000
000010
,
000000
001000
000000
000100
,
000000
100000
000000
001000
,
000000
000100
000000
000001
,
000000
010000
000000
000010
,
000000
001000
000000
000100
,
000000
100000
000000
000001
,
001100
000000
000000
000000
,
100001
000000
000000
000000
,
000100
001000
000000
000000
,
100001
000000
000000
000000
,
000100
001000
000010
000010
,
000100
001000
010000
010000
,
000001
001000
000100
000100
,
100000
001000
000100
000001
,
100000
001000
000100
000100
,
000001
001000
000010
000010
,
100000
000100
001000
001000
,
000010
100000
000001
010000
,
001000
001000
001000
000000
,
000100
000100
000100
000000
,
010001
000000
100010
000000
,
001000
000001
100000
001000
,
010001
000000
000110
000000
,
001000
000100
100000
001000
,
010001
000000
100010
000000
,
001000
000001
000100
001000
,
100001
000000
010100
000000
,
100000
001000
000100
000001
,
010010
010100
100000
001000
,
000100
000001
010000
000100
,
100001
000110
000001
001000
,
000100
100000
001000
010000
,
100001
001100
000001
001000
,
000010
100000
001000
000100
,
010001
100010
001000
000100
,
100010
010001
000110
100001
;

//---------------dance-solo - ----------------
#NOTEDATA:;
#CHARTNAME:;
#STEPSTYPE:dance-solo;
#DESCRIPTION:;
#CHARTSTYLE:;
#DIFFICULTY:Medium;
#METER:6;
#RADARVALUES:0.367798,0.373315,0.042034,0.000000,0.000000,245.000000,241.000000,4.000000,0.000000,0.000000,0.000000,0.000000,0.000000,0.000000,0.367798,0.373315,0.042034,0.000000,0.000000,245.000000,241.000000,4.000000,0.000000,0.000000,0.000000,0.000000,0.000000,0.000000;
#CREDIT:;
#NOTES:
000000
000000
000000
000000
,
000000
000000
000000
000000
,
000000
000000
000000
000000
,
000000
000000
000000
000000
,
000000
000000
010100
000110
,
000001
000000
001000
000010
000000
100000
001000
000000
,
010000
000000
000001
000100
000000
001000
100000
000000
,
000100
000000
001000
000010
000000
100000
001000
000000
,
000100
000000
000001
010000
000000
000010
100000
000000
,
001000
000000
000100
000001
000000
001000
000010
000000
,
100000
000000
001000
010000
000000
000001
000100
000000
,
001000
000000
100000
000100
000000
001000
000010
000000
,
000100
000000
000001
010000
000000
001000
100000
000000
,
000000
000001
001000
000100
100000
000010
010000
000000
,
000000
001000
000100
000001
010000
000010
100000
000000
,
000000
000100
001000
000001
100000
000100
010000
000000
,
000000
001000
000100
000001
010000
001000
000100
000000
,
000000
000001
001000
000100
100000
001000
010000
000000
,
000000
000100
100000
000010
001000
000001
100000
000000
,
000000
001000
000100
000001
010000
000010
100000
000000
,
000000
000100
010000
001000
000100
000001
001000
000000
,
000010
000000
000010
000000
000000
100000
000000
000000
,
000100
000000
000100
000000
000000
001000
000000
000000
,
000001
000000
000001
000000
000000
000010
000000
000000
,
001000
000000
001000
000000
000000
010000
000000
000000
,
000001
001000
000000
000000
000010
100000
001000
000000
,
010000
000001
000000
000000
000100
001000
100000
000000
,
000001
001000
000000
000000
000100
100000
000010
000000
,
010000
001000
000000
000000
000100
000001
001000
000000
,
000100
100000
000000
000000
001000
010000
000001
000000
,
000100
001000
000000
000000
010000
000001
100000
000000
,
000010
001000
000000
000000
000100
100000
001000
000000
,
000100
000001
000000
000000
001000
000010
100000
000000
,
000001
000100
000001
000000
010000
000100
010000
000000
,
000010
000100
000010
000000
100001
000000
001100
000000
,
010000
000000
000001
100000
000000
000100
001000
000000
,
000010
000000
100000
000001
000000
000100
001000
000000
,
100000
000000
000001
001000
000000
000100
100000
000000
,
000010
000000
010000
000001
000000
000100
001000
000000
,
010000
000000
000001
100000
000000
000010
001000
000000
,
000100
000000
100000
001000
000000
000100
000001
000000
,
010000
000000
000010
001000
000000
000100
100000
000000
,
001000
000000
000100
000001
000000
010000
000010
000000
,
100000
000100
001000
000001
000000
000100
000010
000000
,
010000
000100
100000
001000
000000
000100
000001
000000
,
010000
000010
001000
000100
000000
100000
000001
000000
,
010000
001000
000100
000001
000000
001000
000100
000000
,
100000
001000
000100
000001
000000
010000
000010
000000
,
001000
000100
100000
001000
000000
010000
000001
000000
,
001000
000010
100000
000100
000000
010000
001000
000000
,
000100
000001
100000
000100
000000
010000
000010
000000
;

//---------------dance-solo - ----------------
#NOTEDATA:;
#CHARTNAME:;
#STEPSTYPE:dance-solo;
#DESCRIPTION:;
#CHARTSTYLE:;
#DIFFICULTY:Hard;
#METER:7;
#RADARVALUES:0.426345,0.453311,0.147119,0.000000,0.288984,284.000000,270.000000,14.000000,0.000000,0.000000,0.000000,0.000000,0.000000,0.000000,0.426345,0.453311,0.147119,0.000000,0.288984,284.000000,270.000000,14.000000,0.000000,0.000000,0.000000,0.000000,0.000000,0.000000;
#CREDIT:;
#NOTES:
000000
000000
000000
000000
,
000000
000000
000000
000000
,
000000
000000
000000
000000
,
000000
000000
000000
000000
,
000000
000000
000000
000000
010000
000001
001000
000000
,
001000
000000
000000
001000
000000
000000
001000
000000
000000
000000
100000
000000
000001
000000
001000
000000
,
000100
000000
000000
000100
000000
000000
000100
000000
000000
000000
100000
000000
001000
000000
010000
000000
,
000001
000000
000000
000001
000000
000000
000001
000000
000000
000000
000100
000000
001000
000000
100000
000000
,
000100
000000
000000
000100
000000
000000
000100
000000
000000
000000
001000
000000
000001
000000
000100
000000
,
001000
000000
000000
010000
000000
000000
000001
000000
000000
000000
001000
000000
000100
000000
100000
000000
,
001000
000000
000000
000100
000000
000000
000001
000000
000000
000000
010000
000000
000010
000000
001000
000000
,
000100
000000
000000
100000
000000
000000
001000
000000
000000
000000
010000
000000
000001
000000
100000
000000
,
000100
000000
000000
001000
000000
000000
000010
000000
000000
000000
100000
000000
001000
000000
000000
000000
,
000000
000000
000100
000000
000000
000001
000000
000000
010000
000000
000000
010000
000000
000000
000010
000000
,
000000
000000
100000
000000
000000
000100
000000
000000
001000
000000
000000
001000
000000
000000
000010
000000
,
000000
000000
100000
000000
000000
001000
000000
000000
000100
000000
000000
000100
000000
000000
000001
000000
,
000000
000000
010000
000000
000000
000010
000000
000000
000100
000000
000000
000100
000000
000000
001000
000000
,
000000
000000
100000
000000
000000
000100
000000
000000
001000
000000
000000
001000
000000
000000
000010
000000
,
000000
000000
100000
000000
000000
001000
000000
000000
010000
000000
000000
010000
000000
000000
000001
000000
,
000000
000000
000100
000000
000000
001000
000000
000000
100000
000000
000000
100000
000000
000000
000100
000000
,
000000
000000
001000
000000
000000
000010
000000
000000
000100
000000
000000
000000
000000
000000
000000
000000
,
000001
001000
000100
000000
000000
100010
000000
000000
,
010000
000001
000100
000000
000000
010010
000000
000000
,
000100
100000
001000
000000
000000
000101
000000
000000
,
010000
000010
000100
000000
000000
100001
000000
000000
,
000100
000000
001000
000000
000010
001000
000000
000000
000001
000000
000000
100000
000000
000000
001000
000000
,
010000
000000
000001
000000
000100
000001
000000
000000
001000
000000
000000
000100
000000
000000
100000
000000
,
001000
000000
010000
000000
000001
010000
000000
000000
000100
000000
000000
001000
000000
000000
000010
000000
,
100000
000000
001000
000000
010000
001000
000000
000000
000100
000000
000000
000001
000000
000000
001000
000000
,
000100
000000
100000
000000
001000
010000
000000
000000
000001
000000
000000
001000
000000
000000
000100
000000
,
100000
000000
001000
000000
000100
000001
000000
000000
010000
000000
000000
000010
000000
000000
000100
000000
,
001000
000000
100000
000000
000100
001000
000000
000000
000010
000000
000000
100000
000000
000000
000001
000000
,
000100
000000
001000
000000
010000
000001
000000
000000
001000
000000
000000
000100
000000
000000
100000
000000
,
001000
010000
000001
100000
000100
001000
000001
100000
,
001000
010000
000001
000100
000010
001000
000100
000000
,
100000
000000
000000
001000
000000
000000
010000
000000
000000
000000
000001
000000
000100
000000
000010
000000
,
001000
000000
000000
000100
000000
000000
100000
000000
000000
000000
001000
000000
010000
000000
000001
000000
,
000100
000000
000000
001000
000000
000000
100000
000000
000000
000000
000001
000000
001000
000000
000100
000000
,
100000
000000
000000
001000
000000
000000
000100
000000
000000
000000
000001
000000
010000
000000
000010
000000
,
001000
000000
000000
000100
000000
000000
100000
000000
000000
000000
001000
000000
000100
000000
000001
000000
,
010000
000000
000000
000010
000000
000000
100000
000000
000000
000000
000100
000000
001000
000000
000001
000000
,
100000
000000
000000
001000
000000
000000
010000
000000
000000
000000
000001
000000
000100
000000
001000
000000
,
100000
000000
000000
000010
000000
000000
001000
000000
000000
000000
000100
000000
100000
000000
001000
000000
,
010000
000000
000000
000001
000000
000000
000110
000000
000000
000000
001000
000000
000100
000000
100000
000000
,
001000
000000
000000
010000
000000
000000
000101
000000
000000
000000
001000
000000
000010
000000
100000
000000
,
001000
000000
000000
000100
000000
000000
010001
000000
000000
000000
000010
000000
100000
000000
000100
000000
,
001000
000000
000000
000010
000000
000000
100001
000000
000000
000000
001000
000000
000100
000000
000001
000000
,
010000
000000
000000
000010
000000
000000
100100
000000
000000
000000
001000
000000
000001
000000
000100
000000
,
001000
000000
000000
010000
000000
000000
100001
000000
000000
000000
000100
000000
001000
000000
000010
000000
,
100000
000000
000000
001000
000000
000000
010001
000000
000000
000000
000100
000000
000010
000000
010000
000000
,
000001
000000
000000
100000
000000
000000
001100
000000
000000
000000
100010
000000
010001
000000
000000
000000
;

//---------------dance-single - ----------------
#NOTEDATA:;
#CHARTNAME:;
#STEPSTYPE:dance-single;
#DESCRIPTION:;
#CHARTSTYLE:;
#DIFFICULTY:Challenge;
#METER:14;
#RADARVALUES:0.723586,0.693299,0.735595,0.199662,0.793392,482.000000,412.000000,70.000000,19.000000,0.000000,0.000000,0.000000,0.000000,0.000000,0.723586,0.693299,0.735595,0.199662,0.793392,482.000000,412.000000,70.000000,19.000000,0.000000,0.000000,0.000000,0.000000,0.000000;
#CREDIT:;
#NOTES:
// measure 0
0000
0000
0000
0000
,  // measure 1
0000
0000
0000
0000
,  // measure 2
0000
0000
0000
0000
,  // measure 3
0000
0000
0000
0000
,  // measure 4
0000
0000
0000
0000
0000
0000
0000
0000
0001
0010
0001
0000
0011
0000
0010
0000
,  // measure 5
0001
0000
1000
0100
0000
1000
0100
0000
1000
0100
0000
1000
0100
0000
0010
0000
,  // measure 6
0001
0000
1000
0010
0000
1000
0010
0000
1000
0010
0000
1000
0010
0000
1000
0000
,  // measure 7
0001
0000
0010
0001
0000
0010
0001
0000
0010
0001
0000
0010
0001
0000
1000
0000
,  // measure 8
0001
0000
0100
0001
0000
0100
0001
0000
0100
0001
0000
0100
0001
0000
0100
0000
,  // measure 9
0010
0000
1000
0000
0000
1100
0000
0000
0110
0000
0000
0011
0000
0000
1001
0000
,  // measure 10
0001
0000
1000
0000
0000
1010
0000
0000
0011
0000
0000
0101
0000
0000
1001
0000
,  // measure 11
1000
0000
0100
0000
0000
1100
0000
0000
1010
0000
0000
0101
0000
0000
0011
0000
,  // measure 12
0002
0000
0000
2003
0000
0000
3200
0000
0000
0320
0000
0000
0031
0000
0000
0000
,  // measure 13
1001
0000
0001
0010
0000
0100
1000
0000
0001
0010
0000
0100
1000
0000
0001
0000
,  // measure 14
1001
0000
1000
0010
0000
0100
0001
0000
1000
0010
0000
0100
0001
0000
1000
0000
,  // measure 15
1010
0000
0010
1000
0000
0001
0100
0000
0010
1000
0000
0001
0100
0000
0001
0000
,  // measure 16
0011
0000
0010
0001
0000
1000
0100
0000
1000
0010
0000
0100
0001
0000
0010
0000
,  // measure 17
0110
0000
0100
1000
0000
0010
0100
0000
0010
0100
0000
0001
0010
0000
0001
0000
,  // measure 18
1001
0000
1000
0100
0000
0010
0001
0000
1000
0010
0000
0100
0001
0000
0010
0000
,  // measure 19
0110
0000
0100
1000
0000
0001
0010
0000
0100
1000
0000
0010
0100
0000
0001
0000
,  // measure 20
0012
0000
0000
0000
0103
0000
0001
0100
0001
0100
0001
0000
1001
0000
0000
0000
,  // measure 21
1200
0010
0301
0010
0000
0220
0000
0330
,  // measure 22
0021
0100
1030
0010
0000
2200
0000
3300
,  // measure 23
2010
0001
3100
0001
0000
0022
0000
0033
,  // measure 24
0102
0010
1003
0001
0000
0202
0000
0303
,  // measure 25
0011
0000
0001
0100
0010
1000
0100
0000
1000
0000
0010
1000
0000
1000
0100
0000
,  // measure 26
1100
0000
1000
0010
1000
0001
1000
0000
0010
0000
0100
0010
0000
0100
0010
0000
,  // measure 27
1010
0000
1000
0001
0010
0100
1000
0000
0010
0000
1000
0100
0000
0010
0001
0000
,  // measure 28
0101
0000
0100
0001
1000
0010
0100
0000
0001
0000
0010
0001
0000
0001
1000
0000
,  // measure 29
1001
0000
0001
0010
0100
1000
0001
1000
0100
0000
1000
0010
0000
0100
0001
0000
,  // measure 30
0010
0000
0001
0010
0100
1000
0010
0100
0001
0000
1000
0100
0000
0010
0001
0000
,  // measure 31
1000
0000
0001
0010
0100
1000
0100
0010
0001
0000
1000
0010
0000
0100
0001
0000
,  // measure 32
0010
0000
0001
0010
0001
1000
0100
0010
0001
0000
0100
0001
0000
0100
0010
0000
,  // measure 33
1000
0000
0010
1000
0001
0100
0010
0000
1000
0000
0100
0010
0000
0010
0001
0000
,  // measure 34
1000
0001
0000
0001
0100
0000
0001
1000
0100
0000
0010
0000
0110
0000
0100
0000
,  // measure 35
0010
0000
0010
0001
0000
0001
0100
0000
1000
0100
0000
0010
0001
0000
0010
0000
,  // measure 36
0110
0000
0100
1000
0000
1000
0010
0000
0010
0100
0000
0100
0001
0000
0010
0000
,  // measure 37
0011
0000
0001
0100
0000
0100
0010
0000
0100
0010
0000
0010
1000
0000
1000
0000
,  // measure 38
1100
0000
1000
0010
0000
1000
0100
0000
0001
0010
0000
0001
0100
0000
0001
0000
,  // measure 39
1001
0000
0001
0010
0000
0100
1000
0000
1000
0100
0000
0010
0001
0000
1000
0000
,  // measure 40
1010
0000
0010
1000
0000
0001
0100
0000
1000
0100
0000
0010
0001
0000
0100
0000
,  // measure 41
0101
0000
0001
0100
0000
0010
1000
0000
0001
0010
0000
0100
1000
0000
0010
0000
,  // measure 42
0110
0000
0100
0001
0000
1000
0010
0000
0100
0010
0000
0100
0010
0000
1000
0000
,  // measure 43
0001
0000
0010
0000
0000
0011
0000
0000
1001
0000
0000
1100
0000
0000
0110
0000
,  // measure 44
0100
1000
0010
0000
0000
1010
0000
0000
1001
0000
0000
0101
0000
0000
0100
0000
,  // measure 45
0100
0001
0010
0000
0000
0011
0000
0000
0101
0000
0000
1100
0000
0000
1010
0000
,  // measure 46
0010
1000
0100
0000
0000
0110
0000
0000
0011
0000
0000
1001
0000
0000
1100
0000
,  // measure 47
1000
0010
0100
0000
0000
0101
0000
0000
0011
0000
0000
1001
0000
0000
0101
0000
,  // measure 48
0001
0010
0100
0000
0000
1100
0000
0000
1010
0000
0000
1001
0000
0000
0101
0000
,  // measure 49
0001
0010
0100
0000
0000
1100
0000
0000
1010
0000
0000
1001
0000
0000
2000
0000
,  // measure 50
0020
0000
0000
0000
0000
0000
3030
0000
0010
1000
0001
0000
1001
0000
0000
0000
;
