#VERSION:0.83;
#TITLE:NEVER ENDING STORY (Power Club Vocal Mix);
#SUBTITLE:;
#ARTIST:DJ AC-DC;
#TITLETRANSLIT:;
#SUBTITLETRANSLIT:;
#ARTISTTRANSLIT:;
#GENRE:;
#ORIGIN:;
#CREDIT:;
#BANNER:NEVER ENDING STORY (Power Club Vocal Mix).png;
#BACKGROUND:NEVER ENDING STORY (Power Club Vocal Mix)-bg.png;
#PREVIEWVID:;
#JACKET:NEVER ENDING STORY (Power Club Vocal Mix)-jacket.png;
#CDIMAGE:;
#DISCIMAGE:;
#LYRICSPATH:;
#CDTITLE:;
#MUSIC:NEVER ENDING STORY (Power Club Vocal Mix).ogg;
#OFFSET:0.000000;
#SAMPLESTART:15.438000;
#SAMPLELENGTH:15.000000;
#SELECTABLE:YES;
#DISPLAYBPM:140.000000;
#BPMS:0.000=139.437,
4.000=139.997;
#STOPS:;
#DELAYS:;
#WARPS:;
#TIMESIGNATURES:0.000=4=4;
#TICKCOUNTS:0.000=4;
#COMBOS:0.000=1;
#SPEEDS:0.000=1.000=0.000=0;
#SCROLLS:0.000=1.000;
#FAKES:;
#LABELS:0.000=Song Start;
#BGCHANGES:;
#KEYSOUNDS:;
#ATTACKS:
;

//---------------dance-single - ----------------
#NOTEDATA:;
#CHARTNAME:;
#STEPSTYPE:dance-single;
#DESCRIPTION:;
#CHARTSTYLE:;
#DIFFICULTY:Beginner;
#METER:2;
#RADARVALUES:0.139882,0.167775,0.072917,0.041667,0.000000,94.000000,87.000000,7.000000,4.000000,0.000000,0.000000,0.000000,0.000000,0.000000,0.139882,0.167775,0.072917,0.041667,0.000000,94.000000,87.000000,7.000000,4.000000,0.000000,0.000000,0.000000,0.000000,0.000000;
#CREDIT:;
#DISPLAYBPM:140.000000;
#NOTES:
0000
0000
0000
0000
,
0000
0000
0000
0000
,
0000
0000
0000
0000
,
0001
0000
0000
0000
,
1000
0000
0000
0000
,
0001
0000
0000
0000
,
1000
0000
0000
0000
,
0001
0000
0000
0000
,
1000
0000
0000
0000
,
0001
0000
0000
0000
,
0001
0001
0001
0000
,
1000
0000
0000
0000
,
1000
1000
1000
0000
,
0001
0000
0000
0000
,
0001
0001
0001
0000
,
1000
0000
0000
0000
,
1000
1000
1000
0000
,
0010
0000
0010
0000
,
0100
0000
0100
0000
,
0001
0000
0001
0000
,
0001
0000
0001
0000
,
0010
0000
0010
0000
,
0100
0000
0100
0000
,
1000
0000
1000
0000
,
1000
0000
1000
0000
,
1001
0000
0000
0000
,
1001
0000
0000
0000
,
0100
0000
0100
0000
,
0100
0000
0000
0000
,
0110
0000
0000
0000
,
0110
0000
0000
0000
,
0100
0000
0100
0000
,
0100
0000
0000
0000
,
0010
0000
0001
0000
,
0001
0000
0010
0000
,
0010
0000
1000
0000
,
1000
0000
0100
0000
,
0001
0001
0001
0000
,
0001
0000
0001
0000
,
1000
0000
1000
0000
,
0100
0000
0100
0000
,
1000
1000
1000
0000
,
1000
0000
1000
0000
,
0001
0000
0001
0000
,
0010
0000
0010
0000
,
0200
0000
0300
0000
,
0100
0000
0100
0000
,
0020
0000
0030
0000
,
0010
0000
0010
0000
,
1001
0000
0000
0000
,
0100
0000
0100
0000
,
1001
0000
0000
0000
,
0100
0000
0100
0000
,
0220
0000
0000
0000
0000
0000
0000
0000
0000
0000
0000
0330
0000
0000
0000
0000
;

//---------------dance-single - ----------------
#NOTEDATA:;
#CHARTNAME:;
#STEPSTYPE:dance-single;
#DESCRIPTION:;
#CHARTSTYLE:;
#DIFFICULTY:Easy;
#METER:5;
#RADARVALUES:0.258931,0.279625,0.010417,0.031250,0.000000,174.000000,173.000000,1.000000,3.000000,0.000000,0.000000,0.000000,0.000000,0.000000,0.258931,0.279625,0.010417,0.031250,0.000000,174.000000,173.000000,1.000000,3.000000,0.000000,0.000000,0.000000,0.000000,0.000000;
#CREDIT:;
#DISPLAYBPM:140.000000;
#NOTES:
0000
0000
0000
0000
,
0000
0000
0000
0000
,
0000
0000
0000
0000
,
0010
0000
0010
0000
,
0100
0000
0100
0000
,
0001
1000
0001
1000
,
0001
0100
0100
0100
,
0010
0100
0010
0100
,
0001
0010
0100
1000
,
1000
0001
0100
0000
,
0000
0000
0010
0100
,
1000
1000
0001
0001
,
1000
0100
0001
0000
,
0001
0010
0100
0000
,
0000
0000
1000
0100
,
0001
0100
0010
1000
,
0001
0010
0100
0000
,
0000
0100
0100
0001
,
1000
0001
1000
0000
,
1000
0100
0010
0001
,
1000
0010
0100
0001
,
1000
1000
0001
0010
,
0001
1000
0000
0000
,
0010
0000
0100
0000
,
1000
0100
0001
0100
,
1000
0100
0001
0100
,
1000
0100
0001
0100
,
0001
0001
0001
0001
,
1000
1000
1000
1000
,
0001
0100
1000
0100
,
0001
0100
1000
0100
,
0001
0100
1000
0100
,
0010
0100
0010
0000
,
0001
0001
1000
1000
,
0001
0001
1000
1000
,
0001
0010
0100
1000
,
0001
0010
0100
1000
,
0001
0000
0001
0000
,
1000
0200
0000
0300
,
0010
0010
0010
0010
,
0001
1000
0000
0000
,
1000
0100
0010
0000
,
1000
0001
0000
0000
,
0001
0010
0100
1000
,
0010
0100
0001
0010
,
0100
1000
0010
0100
,
0001
0010
0100
1000
,
0001
0100
0001
0100
,
1000
0100
1000
0100
,
0010
0001
0100
0010
,
1000
0100
0010
0001
,
1000
0001
1000
0100
,
0010
0001
0100
0010
,
2002
0000
0000
0000
0000
0000
0000
0000
0000
0000
0000
3003
0000
0000
0000
0000
;

//---------------dance-single - ----------------
#NOTEDATA:;
#CHARTNAME:;
#STEPSTYPE:dance-single;
#DESCRIPTION:;
#CHARTSTYLE:;
#DIFFICULTY:Medium;
#METER:8;
#RADARVALUES:0.370540,0.475363,0.281253,0.020834,0.000000,249.000000,222.000000,27.000000,2.000000,0.000000,0.000000,0.000000,0.000000,0.000000,0.370540,0.475363,0.281253,0.020834,0.000000,249.000000,222.000000,27.000000,2.000000,0.000000,0.000000,0.000000,0.000000,0.000000;
#CREDIT:;
#DISPLAYBPM:140.000000;
#NOTES:
0000
0000
0000
0000
,
0000
0000
0000
0000
,
0000
0000
0000
0000
,
1000
0100
1000
0000
1000
0100
1000
0000
,
0001
0100
0001
0000
0001
0100
0001
0000
,
0100
1000
0100
0000
0100
0010
0100
0000
,
0100
0001
0100
0000
0010
0100
0010
0000
,
0001
0010
0001
0000
0001
0010
0001
0000
,
1000
0010
1000
0000
1000
0010
1000
0000
,
0001
0000
0000
0100
1000
0000
0000
0000
,
0000
0000
0000
0000
1000
0100
0001
0100
,
1000
0000
0000
0000
0000
1000
0001
0000
,
0000
1000
0100
0000
0010
0001
0000
0000
,
1000
0100
0000
0001
0010
0000
0000
0000
,
0000
0000
0000
0000
0010
1000
0001
0100
,
1000
0000
0000
0000
0000
0001
1000
0000
,
0000
0001
0010
0000
0100
1000
0000
0000
,
0100
0010
0000
1100
0000
0010
0000
0101
,
0000
0010
0000
1001
0000
0000
0000
0000
,
0100
0000
1001
0100
0000
0001
0000
1100
,
0000
0000
0000
0000
,
1000
0010
0100
0001
0100
0000
0000
0110
,
0000
1100
0000
0000
0000
0100
1000
0000
,
1000
0100
0001
0100
1000
0100
0001
0100
,
1000
0100
0001
0100
1000
0100
0010
0001
,
1000
0000
0000
0001
1000
0000
0000
0000
,
0000
0000
0000
0000
0000
0010
0100
1000
,
0010
0100
0001
0100
1000
0100
0001
0000
,
1001
0000
0011
1001
,
1100
0000
0110
0000
,
0000
0000
0000
0000
0000
1000
0100
0010
,
0001
0100
0010
1000
0100
0010
0001
0000
,
0011
0000
0000
0000
,
0100
1000
0100
0000
1000
0001
1000
0000
,
0001
0010
0001
0000
0010
0100
0010
0000
,
0001
1000
0001
0000
1000
0100
1000
0000
,
0100
0010
0100
0000
0010
0001
0010
0000
,
0001
0010
0100
1000
0000
1100
0000
0100
,
0000
0101
0000
0000
0000
1000
0010
0100
,
0001
0000
0010
0100
0000
0000
0010
0010
,
0000
0000
0000
0000
,
1000
0100
0010
0001
0000
0011
0000
0010
,
0000
1010
0000
0000
0000
1000
1000
0000
,
0010
0001
1000
0100
,
1010
0101
0011
1100
,
1000
0000
0000
0001
0100
0000
0000
0000
,
0000
0000
0000
0000
0000
0001
0010
0100
,
1000
0010
0100
0001
0010
0100
1000
0000
,
1100
0000
1010
0110
,
0101
0000
1001
0000
,
0000
0000
0000
0000
0000
0100
0010
0001
,
0100
0010
1000
0010
0001
0010
1000
0000
,
0010
1000
0010
0000
0100
0001
0100
0000
,
0202
0000
0000
0000
0000
0000
0000
0000
0000
0000
0000
0303
0000
0000
0000
0000
;

//---------------dance-single - ----------------
#NOTEDATA:;
#CHARTNAME:;
#STEPSTYPE:dance-single;
#DESCRIPTION:;
#CHARTSTYLE:;
#DIFFICULTY:Hard;
#METER:11;
#RADARVALUES:0.479172,0.503326,0.187502,0.010417,0.067709,322.000000,304.000000,18.000000,1.000000,0.000000,0.000000,0.000000,0.000000,0.000000,0.479172,0.503326,0.187502,0.010417,0.067709,322.000000,304.000000,18.000000,1.000000,0.000000,0.000000,0.000000,0.000000,0.000000;
#CREDIT:;
#DISPLAYBPM:140.000000;
#NOTES:
0000
0000
0000
0000
,
0000
0000
0000
0000
,
0000
0000
0000
0000
,
0010
0001
0100
0000
0010
1000
0100
0000
,
0010
0000
0001
0000
1000
0000
0000
0000
0100
0000
1000
0000
0010
0000
1000
0100
,
0000
1000
0001
0000
1000
0100
0010
0000
,
0001
0000
0100
0000
0010
0000
0000
0000
0100
0000
0001
0000
0010
0000
0001
0100
,
0000
0001
1000
0000
0100
1000
0100
0000
,
0010
0000
0001
0000
0010
0000
0000
0000
0001
0000
0100
0000
0010
0000
0100
0001
,
1000
0100
1000
0100
1000
0100
1000
0100
,
0010
0001
0010
0001
0010
0001
0010
0001
,
1000
0001
1000
0001
1000
0001
1000
0001
,
0010
0001
1000
0100
1000
0010
0100
0000
,
0001
0001
0000
0110
1000
0000
0000
1000
,
0000
0010
0000
0100
0000
0001
0010
1000
,
0001
0001
0010
0010
1000
1000
0001
0001
,
0010
0010
1000
1000
0001
0100
0010
0000
,
0010
0001
0000
1000
0000
1000
0000
1010
,
0000
0110
0000
0101
0000
0000
0000
0001
,
0010
0100
1000
0010
0100
0001
0010
0100
,
1000
0000
0010
1100
0000
0010
0101
0000
,
0010
1000
0000
0100
0000
0100
0000
1100
,
0000
0011
0000
0000
0000
1000
0010
0001
,
1000
0100
1000
0000
0001
0100
0001
0000
,
1001
0000
0110
0000
0001
0010
1000
0000
,
0001
0010
0100
0000
1000
0010
0100
0000
,
0001
0000
0010
0000
0100
0000
0000
0000
1000
0000
0010
0000
0100
0000
0001
0010
,
0000
0100
1000
0000
1000
0100
0010
0000
,
0100
0000
0010
0000
0001
0000
0000
0000
1000
0000
0100
0000
0010
0000
0001
0010
,
0000
0100
0100
0000
1000
0001
0001
0000
,
0100
0000
0010
0000
0010
0000
0000
0000
0001
0000
1000
0000
1000
0000
0100
1000
,
0000
0001
0100
0000
0010
0100
0001
0000
,
0010
0000
0100
0000
1000
0000
0000
0000
0010
0000
0100
0000
0001
0000
0100
1000
,
0000
0100
0001
0000
1000
0100
0001
0000
,
0001
0000
0100
0000
1000
0000
0000
0000
0001
0000
0100
0000
1000
0000
0001
1000
,
0000
0100
0001
0000
0001
0100
1000
0000
,
1000
0000
0100
0000
0001
0000
0000
0000
1000
0000
0100
0000
0001
0000
1000
0001
,
0100
0001
0000
1000
0000
1000
0000
1010
,
0000
0101
0000
0000
0000
0010
0100
0100
,
1001
0000
0100
1001
0000
0000
1000
0100
,
0000
0000
0000
0000
,
0001
0100
0000
0010
0000
0010
0000
1010
,
0000
0101
0000
0000
0000
1000
0010
0001
,
1000
1000
0001
0001
0010
1000
0100
0000
,
0011
0000
1100
0000
1000
0100
0001
0000
,
0010
0100
1000
0000
0100
1000
0001
0000
,
1000
0000
0001
0000
0010
0000
0000
0000
0001
0000
0010
0000
0100
0000
0010
0001
,
0000
1000
0100
0000
1000
0100
0010
0000
,
0100
0000
0010
0000
0001
0000
0000
0000
0010
0000
0001
0000
1000
0000
0010
0100
,
0000
0010
0100
0000
0001
1000
0100
0000
,
0010
0000
0100
0000
1000
0000
0000
0000
0010
0000
0100
0000
0010
0000
1000
0100
,
0000
0010
0001
0000
1000
0100
0010
0000
,
0001
0000
0100
0000
0010
0000
0000
0000
1000
0000
0100
0000
0010
0000
0001
0200
,
0000
0000
0000
0000
0000
0000
0000
0000
0000
0000
0000
0300
0000
0000
0000
0000
;

//---------------dance-double - ----------------
#NOTEDATA:;
#CHARTNAME:;
#STEPSTYPE:dance-double;
#DESCRIPTION:;
#CHARTSTYLE:;
#DIFFICULTY:Easy;
#METER:3;
#RADARVALUES:0.235121,0.303649,0.093751,0.000000,0.000000,158.000000,149.000000,9.000000,0.000000,0.000000,0.000000,0.000000,0.000000,0.000000,0.235121,0.303649,0.093751,0.000000,0.000000,158.000000,149.000000,9.000000,0.000000,0.000000,0.000000,0.000000,0.000000,0.000000;
#CREDIT:;
#DISPLAYBPM:140.000000;
#NOTES:
00000000
00000000
00000000
00000000
,
00000000
00000000
00000000
00000000
,
00000000
00000000
00000000
00000000
,
00001000
00000000
00010000
00000000
,
00001000
00000000
00010000
00000000
,
00001000
00000010
00000001
00000001
,
00001000
00000010
00000100
00001000
,
00010000
00100000
10000000
10000000
,
00010000
00100000
01000000
00010000
,
00001000
00010000
00001000
00000000
,
00000000
00000000
01000000
00100000
,
10000000
00000000
00010000
00000000
,
00001000
00000000
00000001
00000000
,
00000010
00000001
00000100
00000000
,
00000000
00000000
00000010
00001000
,
00000001
00000000
00001000
00000000
,
00010000
00000000
10000000
00000000
,
01000000
01000000
01000000
00100000
,
00010000
00100000
00010000
00000000
,
00001000
00001000
00000100
00000100
,
00000001
00000000
00000000
00000000
,
00001000
00000001
00001000
00000010
,
00001000
00010000
00000000
00000000
,
01000000
00000000
00100000
00000000
,
10000000
01000000
00100000
00010000
,
00001000
00000100
00000010
00000000
,
00000001
00000000
00001000
00000000
,
00001000
00000100
00001000
00000100
,
00010000
00000000
00000010
00000100
,
00001000
00010000
00100000
00000000
,
01000000
00000000
10000000
00000000
,
01000000
00010000
01000000
00001000
,
00010000
00000000
00000000
00000000
,
00010000
00001000
00000010
00000010
,
00000001
00000100
00001000
00010000
,
00001000
00010000
00100000
00100000
,
10000000
01000000
00010000
00001000
,
00011000
00000000
00011000
00000000
,
00010000
00001000
00000000
00000000
,
00000001
00000100
00000010
00001000
,
00010000
00000000
00000000
00000000
,
00011000
00000000
00011000
00000000
,
00010000
10000000
00000000
00000000
,
10000000
01000000
00100000
00010000
,
10010000
00000000
01100000
00000000
,
00010000
00001000
00010000
00000000
,
00001000
00000100
00000010
00000001
,
00000100
00000010
00001000
00010000
,
00100000
01000000
01100000
01100000
,
10000000
00000000
00010000
00000000
,
10000000
01000000
00010000
00001000
,
00000010
00000001
00001000
00000100
,
00010000
00001000
00100000
00001000
,
00011000
00000000
00000000
00000000
,
00000000
00000000
00000000
00000000
;

//---------------dance-double - ----------------
#NOTEDATA:;
#CHARTNAME:;
#STEPSTYPE:dance-double;
#DESCRIPTION:;
#CHARTSTYLE:;
#DIFFICULTY:Medium;
#METER:7;
#RADARVALUES:0.358635,0.441671,0.177085,0.000000,0.000000,241.000000,224.000000,17.000000,0.000000,0.000000,0.000000,0.000000,0.000000,0.000000,0.358635,0.441671,0.177085,0.000000,0.000000,241.000000,224.000000,17.000000,0.000000,0.000000,0.000000,0.000000,0.000000,0.000000;
#CREDIT:;
#DISPLAYBPM:140.000000;
#NOTES:
00000000
00000000
00000000
00000000
,
00000000
00000000
00000000
00000000
,
00000000
00000000
00000000
00000000
,
00010000
00100000
10000000
01000000
,
00100000
00001000
00010000
00001000
,
00000010
00000000
00000001
00000000
00000100
00000001
00000100
00000000
,
00000010
00000000
00001000
00000000
00010000
00001000
00010000
00000000
,
01000000
00000000
00010000
00000000
10000000
00010000
10000000
00000000
,
01000000
00000000
00100000
00000000
00010000
00100000
00010000
00000000
,
00000000
10000000
00000000
10000000
00000000
10000000
00000000
00100000
,
00000000
00100000
00000000
00100000
00000000
01000000
00100000
01000000
,
00010000
01000000
00100000
10000000
01000000
00100000
00010000
00000000
,
00100000
01000000
10000000
01000000
00100000
00001000
00010000
00000000
,
00000000
00000010
00000000
00000010
00000000
00000010
00000000
00000001
,
00000000
00000001
00000000
00000001
00000000
00001000
00000001
00001000
,
00000100
00001000
00000010
00000100
00001000
00010000
00001000
00000000
,
00100000
01000000
10000000
01000000
00100000
01000000
10000000
00000000
,
10010000
00000000
10010000
00000000
,
00100000
01000000
00100000
00000000
,
00010000
01000000
00100000
10000000
,
01000000
00100000
00011000
00000000
,
00001001
00000000
00001001
00000000
,
00000010
00000100
00000010
00000000
,
00000101
00000010
00000100
00001010
,
00001000
00010000
00001000
00010000
,
00011000
00000000
00000000
00001000
01000000
00000000
00000000
00000000
,
00010000
00100000
01000000
00000000
10000000
00100000
01000000
00000000
,
01000000
00001000
00100000
00001000
,
00100000
00010000
01000000
00000000
00001000
00010000
00001000
00000000
,
00010000
00000100
00010000
00000010
,
00001000
00000100
00000010
00000000
00000001
00000100
00000010
00000000
,
00001000
00000100
00000010
00000001
,
00001000
00000010
00000001
00000000
00001000
00000100
00000001
00000000
,
00000100
00000001
00001000
00000000
00000100
00001000
00000010
00000000
,
00000100
00001000
00010000
00000000
00001000
00010000
00100000
00000000
,
10000000
00100000
10000000
00000000
00010000
00100000
01000000
00000000
,
10000000
00100000
01000000
00000000
00010000
00100000
01000000
00000000
,
00110000
00000000
00000000
00000000
,
00001001
00000000
00000000
00000000
00000000
00000001
00000001
00000100
,
00000010
00000000
00001000
00000000
,
00010000
00000000
00001000
00000000
,
00001010
00000000
00000000
00000000
,
10010000
00000000
00000000
00000000
00000000
10000000
10000000
01000000
,
00100000
00000000
00010000
00000000
,
10000000
00100000
01000000
00010000
,
00011000
00000000
00000000
00001000
00000100
00000000
00000000
00000000
,
00000001
00000001
00001000
00000000
00000010
00000010
00001000
00000000
,
00000001
00000100
00000010
00000000
00001000
00001000
00000100
00000000
,
00000010
00000010
00000100
00000000
00001100
00000000
00011000
00000000
,
00110000
00000000
00000000
00100000
10000000
00000000
00000000
00000000
,
10000000
00100000
10000000
00000000
00010000
00100000
00010000
00000000
,
00010000
00001000
00010000
00000000
00000100
00001000
00000100
00000000
,
00000010
00000001
00000100
00000000
00001000
00010000
00001000
00000000
,
00011000
00000000
00000000
00000000
,
00000000
00000000
00000000
00000000
;

//---------------dance-double - ----------------
#NOTEDATA:;
#CHARTNAME:;
#STEPSTYPE:dance-double;
#DESCRIPTION:;
#CHARTSTYLE:;
#DIFFICULTY:Hard;
#METER:8;
#RADARVALUES:0.467267,0.552089,0.218752,0.000000,0.000000,314.000000,293.000000,21.000000,0.000000,0.000000,0.000000,0.000000,0.000000,0.000000,0.467267,0.552089,0.218752,0.000000,0.000000,314.000000,293.000000,21.000000,0.000000,0.000000,0.000000,0.000000,0.000000,0.000000;
#CREDIT:;
#DISPLAYBPM:140.000000;
#NOTES:
00000000
00000000
00000000
00000000
,
00000000
00000000
00000000
00000000
,
00000000
00000000
00000000
00000000
,
00001000
00010000
00001000
00000000
00010000
00001000
00010000
00000000
,
00001000
00010000
00001000
00000000
00010000
00001000
00010000
00000000
,
00001000
00000010
00000001
00000000
00001000
00000100
00000001
00000000
,
00001000
00000010
00000100
00000000
00000010
00010000
00001000
00000000
,
00010000
00100000
10000000
00000000
00010000
01000000
10000000
00000000
,
00010000
00100000
01000000
00000000
00100000
00001000
00010000
00000000
,
00000100
00001000
00000100
00001000
00000100
00001000
00000100
00001000
,
00010000
00100000
00010000
00100000
00010000
00100000
00010000
00100000
,
01000000
10000000
01000000
10000000
01000000
00100000
00010000
00001000
,
00010000
00001000
00000100
00000010
00000001
00000010
00000001
00000010
,
00000100
00001000
00000100
00010000
00000100
00001000
00000100
00010000
,
00001000
00100000
00010000
00100000
00001000
00100000
00010000
00100000
,
01000000
10000000
01000000
00100000
00010000
00001000
00000100
00000010
,
00000001
00000100
00000010
00001000
00010000
00001000
00010000
00000000
,
00010000
01100000
10000000
00000000
,
00010000
00000000
01010000
00000000
,
10000000
10000000
01000000
00010000
00010000
00001000
00010000
01000000
,
00000000
00000000
00000000
00000000
,
00001000
00010000
00001000
00000010
00000100
00000010
00000100
00000000
,
00001100
00000011
00000000
00000000
,
00001000
00000100
00000100
00000000
00000010
00001000
00001000
00000000
,
00010100
00000000
00101000
00000000
,
00010000
00010000
01000000
00000000
10010000
00000000
00000000
00000000
,
10000000
00100000
01000000
00000000
00001000
00100000
00010000
00000000
,
00001000
00010000
00000010
00000000
00000001
00001000
00000100
00000000
,
00000010
00000100
00001000
00000000
00000001
00000010
00000100
00001000
,
00010000
00100000
01000000
00000000
10010000
00000000
00000000
00000000
,
00010000
00100000
01000000
00000000
01000000
00001000
00010000
00000000
,
00010000
10000000
01000000
00000000
01000000
00100000
00001000
00000000
,
00001000
01000000
00010000
00000000
00010000
00000010
00000100
00000010
,
00000001
00000010
00000010
00000000
00000100
00001000
00001000
00000000
,
00010000
00100000
00100000
00000000
01000000
10000000
10000000
00010000
,
10000000
01000000
01000000
00000000
00100000
00010000
00010000
00000000
,
00001000
00000100
00000100
00000000
00000010
00000001
00000001
00000000
,
00001100
00001000
00011000
00010000
,
00110000
00000000
00100000
00000000
00000000
00100000
10000000
01000000
,
00010000
01000000
10000000
01000000
00010000
01000000
10000000
01000000
,
00000000
00000000
00000000
00000000
,
01010000
00010000
00011000
00001000
,
00001010
00000000
00000010
00000000
00000000
00000001
00000010
00001000
,
00001001
00000100
00011000
01000000
,
01010000
00100000
01000000
10000000
10010000
00010000
00100000
00001000
,
00011000
00010000
00000100
00001000
00001001
00000001
00000100
00000000
,
00001000
00000100
00000010
00000000
00000001
00000100
00000010
00000000
,
00001000
00010000
01000000
00000000
00100000
10000000
01000000
00000000
,
00100000
00010000
00001000
00000100
00000010
00000001
00001000
00000010
,
00000100
00000001
00000010
00000100
00001000
00010000
00100000
01000000
,
10000000
01000000
00100000
00000000
01000000
10000000
01000000
00000000
,
00100000
00010000
00100000
00000000
00001000
00010000
00001000
00000000
,
00000010
00001000
00000010
00000001
00000010
00000100
00001000
00000000
,
00011000
00000000
00000000
00000000
,
00000000
00000000
00000000
00000000
;

//---------------dance-single - ----------------
#NOTEDATA:;
#CHARTNAME:;
#STEPSTYPE:dance-single;
#DESCRIPTION:;
#CHARTSTYLE:;
#DIFFICULTY:Challenge;
#METER:15;
#RADARVALUES:0.730662,0.915244,0.072917,0.468755,0.713549,491.000000,484.000000,7.000000,45.000000,0.000000,0.000000,0.000000,0.000000,0.000000,0.730662,0.915244,0.072917,0.468755,0.713549,491.000000,484.000000,7.000000,45.000000,0.000000,0.000000,0.000000,0.000000,0.000000;
#CREDIT:;
#DISPLAYBPM:140.000000;
#NOTES:
// measure 0
0000
0000
0000
0000
,  // measure 1
0000
0000
0000
0000
,  // measure 2
0000
0000
0000
0000
,  // measure 3
0010
0000
0001
0000
1000
0000
0001
0100
0000
0000
0010
0000
1000
0000
0010
1000
,  // measure 4
0010
0000
0100
0000
0001
0000
1000
0001
1000
0000
0001
1000
0001
1000
0100
1000
,  // measure 5
0100
0000
0010
0000
0001
0000
0001
0010
0000
0000
0010
0000
0100
0000
1000
0010
,  // measure 6
0000
0000
0100
0000
0001
0000
1000
0100
0000
0000
0010
0000
0001
1000
0001
1000
,  // measure 7
0100
0000
1000
0000
0010
0000
0100
0001
0000
0000
1000
0000
0001
0000
1000
0100
,  // measure 8
0000
0000
0010
0000
0001
0000
1000
0010
0000
0000
0100
0000
0001
0010
0001
0010
,  // measure 9
0001
0100
1000
0010
0001
0000
1001
0000
,  // measure 10
2010
0000
0000
0000
3100
0000
0000
0000
0100
1000
0100
0000
0010
0000
0100
0000
,  // measure 11
0001
0010
0001
0010
0001
0010
0001
0010
0001
0010
0001
0010
0001
0010
0002
0000
,  // measure 12
0000
0013
0200
1000
0300
1000
0100
0000
,  // measure 13
1000
0010
1000
0000
0010
0000
0100
0000
0010
0100
0010
0000
0100
0000
0001
0000
,  // measure 14
1000
0001
1000
0000
0001
0000
0010
0000
0001
0010
0001
0000
0100
0000
0001
0000
,  // measure 15
1000
0100
1000
0100
1000
0100
1000
0100
1000
0100
1000
0100
1000
0100
2000
0000
,  // measure 16
0000
3100
0020
0001
0030
0010
0110
0000
,  // measure 17
0100
1000
0100
0000
0010
0000
0100
0000
1000
0000
0010
0000
0100
0000
2000
0000
,  // measure 18
0000
0000
0010
0000
0000
0000
3100
0000
0000
0000
0100
0010
0001
0000
0011
0000
,  // measure 19
0001
0100
0001
0000
1000
0000
0001
0000
0010
0000
0001
0000
1000
0000
0002
0000
,  // measure 20
0000
0010
0000
0103
0000
0101
0101
0000
,  // measure 21
1000
0010
1000
0000
0100
0000
0001
0000
1000
0000
0001
0000
0010
0000
0200
0000
,  // measure 22
0000
0010
0000
0310
0100
1000
0010
1000
,  // measure 23
0200
0001
0320
1000
,  // measure 24
2030
0010
3002
1000
,  // measure 25
0103
0001
0100
0001
0100
0001
0100
0001
0010
0001
0010
0001
0010
0001
0010
0001
,  // measure 26
0010
0001
0010
0001
0010
0001
0010
0001
0010
0000
0002
0000
0023
0000
0230
0000
,  // measure 27
2300
0000
3020
0000
0230
0000
0302
2000
0003
3000
0200
0000
0320
0000
0230
2000
,  // measure 28
0300
3000
0010
0000
0100
0000
0001
0000
2000
0000
3002
0000
0023
0000
0032
0000
,  // measure 29
1003
0010
1000
0010
1000
0010
1000
0010
1000
0001
1000
0001
1000
0001
1000
0001
,  // measure 30
1000
0001
1000
0001
1000
0001
1000
0001
1000
0000
2000
0000
3020
0000
0230
0000
,  // measure 31
0302
0000
2003
0000
3200
0000
0320
0002
0030
0003
0020
0000
0032
0000
2003
0200
,  // measure 32
3000
0300
0010
0000
1000
0000
0001
0000
0100
0000
0010
0000
1000
0001
0010
0000
,  // measure 33
0010
0000
0001
0000
1000
0000
0010
1000
0000
0000
0100
0000
1000
0000
0010
0100
,  // measure 34
0000
0000
0100
0000
0010
0000
0001
0100
0000
0000
0010
0000
1000
0000
0100
1000
,  // measure 35
0000
0000
0010
0000
1000
0000
0001
1000
0000
0000
0100
0000
0010
0000
1000
0010
,  // measure 36
0200
0000
0010
0000
0010
0010
0010
0010
,  // measure 37
0310
0001
0010
0000
0001
0000
1000
0000
0100
1000
0100
0000
0010
0000
0200
0000
,  // measure 38
0001
0000
0000
0000
0010
0000
0000
0000
0301
0000
1000
0010
0100
0000
0001
0000
,  // measure 39
1000
0000
0010
0000
0100
0000
0001
1000
0100
0000
0010
0000
0001
0000
1000
0001
,  // measure 40
0020
0000
0001
0000
0100
0100
0031
0001
,  // measure 41
1000
0010
1000
0000
0001
0000
0100
0000
0001
0010
0001
0000
1000
0000
0100
0000
,  // measure 42
1000
0010
1000
0000
0001
0000
0100
0000
0001
0010
0001
0000
1000
0000
0010
0000
,  // measure 43
0100
0000
0000
0100
0001
0000
0000
0001
1000
0000
0000
1000
0010
0000
0000
0010
,  // measure 44
1000
0100
1000
0000
0010
1000
0010
0000
1000
0100
1000
0000
0010
1000
0010
0000
,  // measure 45
0010
1000
0010
1000
0010
1000
0010
1000
0100
1000
0100
1000
0100
1000
0100
1000
,  // measure 46
0100
1000
0100
1000
0100
1000
0100
1000
0100
0000
1000
0000
0001
0000
0100
0000
,  // measure 47
0010
0001
0010
0001
1000
0001
1000
0001
0100
0001
0100
0001
0010
0001
0010
0001
,  // measure 48
0010
0000
0001
0000
1000
0000
0010
0000
0100
0001
0100
0001
1000
0100
1000
0100
,  // measure 49
0010
0001
0010
0001
0010
0001
0010
0001
0010
0100
0010
0100
0010
0100
0010
0100
,  // measure 50
0010
0100
0010
0100
0010
0100
0010
0100
0010
0000
1000
0000
0001
0000
0100
0000
,  // measure 51
0010
1000
0010
1000
0001
1000
0001
1000
0100
1000
0100
1000
0001
1000
0001
1000
,  // measure 52
0010
0000
1000
0000
0001
0000
0100
0001
0000
0000
1000
0100
0001
0000
0100
0000
,  // measure 53
2002
3003
0000
0000
;
