#VERSION:0.83;
#TITLE:My Fire (UKS Remix);
#SUBTITLE:;
#ARTIST:X-Treme;
#TITLETRANSLIT:;
#SUBTITLETRANSLIT:;
#ARTISTTRANSLIT:;
#GENRE:;
#ORIGIN:;
#CREDIT:;
#BANNER:My Fire (UKS Remix).png;
#BACKGROUND:My Fire (UKS Remix)-bg.png;
#PREVIEWVID:;
#JACKET:My Fire (UKS Remix)-jacket.png;
#CDIMAGE:;
#DISCIMAGE:;
#LYRICSPATH:;
#CDTITLE:cdtitle.png;
#MUSIC:My Fire (UKS Remix).ogg;
#OFFSET:0.000000;
#SAMPLESTART:17.750000;
#SAMPLELENGTH:15.000000;
#SELECTABLE:YES;
#DISPLAYBPM:130.000000;
#BPMS:0.000=28.125,
4.000=130.278;
#STOPS:;
#DELAYS:;
#WARPS:;
#TIMESIGNATURES:0.000=4=4;
#TICKCOUNTS:0.000=4;
#COMBOS:0.000=1;
#SPEEDS:0.000=1.000=0.000=0;
#SCROLLS:0.000=1.000;
#FAKES:;
#LABELS:0.000=Song Start;
#BGCHANGES:0.000=My Fire (UKS Remix).avi=1.000=0=0=0=StretchNoLoop====,
99999=-nosongbg-=1.000=0=0=0 // don't automatically add -songbackground-
;
#KEYSOUNDS:;
#ATTACKS:
;

//---------------dance-single - ----------------
#NOTEDATA:;
#CHARTNAME:;
#STEPSTYPE:dance-single;
#DESCRIPTION:;
#CHARTSTYLE:;
#DIFFICULTY:Beginner;
#METER:2;
#RADARVALUES:0.117064,0.154061,0.033221,0.000000,0.000000,74.000000,71.000000,3.000000,0.000000,0.000000,0.000000,0.000000,0.000000,0.000000,0.117064,0.154061,0.033221,0.000000,0.000000,74.000000,71.000000,3.000000,0.000000,0.000000,0.000000,0.000000,0.000000,0.000000;
#CREDIT:;
#DISPLAYBPM:130.000000;
#NOTES:
0000
0000
0000
0000
,
0000
0000
0000
0000
,
0000
0000
0000
0000
,
0000
0000
0000
0000
,
0000
0010
0000
0000
,
1001
0000
0000
0000
,
0001
0000
0001
0000
,
0100
0000
0000
0000
,
1000
0000
1000
0000
,
0100
0000
0000
0000
,
0001
0000
0001
0000
,
0100
0000
0000
0000
,
0010
0010
0000
0000
,
0100
0100
0000
0000
,
0000
1001
0000
0000
,
0000
1000
0000
0010
,
0000
0000
0000
0000
,
0000
0001
0000
0000
,
0001
0001
0001
0001
,
0000
1000
0000
0001
,
0000
1000
0000
0001
,
0000
0000
0000
0000
,
1000
1000
1000
1000
,
1000
0000
0001
0000
,
0100
0100
0100
0000
,
0001
0000
1000
0000
,
0010
0010
0010
0000
,
0010
0000
1000
0000
,
0001
0001
0001
0000
,
1000
0000
0010
0000
,
0100
0000
0001
0000
,
0100
0000
0001
0000
,
1000
1000
1000
0000
,
0001
0000
1000
0000
,
0001
0001
0001
0000
,
1000
0000
0100
0000
,
0010
0010
0010
0000
,
1000
1000
0000
0000
,
0010
0010
0000
0000
,
1001
0000
0000
0010
,
0000
0000
0000
0000
;

//---------------dance-single - ----------------
#NOTEDATA:;
#CHARTNAME:;
#STEPSTYPE:dance-single;
#DESCRIPTION:;
#CHARTSTYLE:;
#DIFFICULTY:Easy;
#METER:6;
#RADARVALUES:0.218308,0.287013,0.143957,0.000000,0.000000,138.000000,125.000000,13.000000,0.000000,0.000000,0.000000,0.000000,0.000000,0.000000,0.218308,0.287013,0.143957,0.000000,0.000000,138.000000,125.000000,13.000000,0.000000,0.000000,0.000000,0.000000,0.000000,0.000000;
#CREDIT:;
#DISPLAYBPM:130.000000;
#NOTES:
0000
0000
0000
0000
,
0000
0000
0000
0000
,
0000
0000
0000
0000
,
0000
0000
0000
0100
,
0000
0000
0000
0100
,
0000
0000
0000
0100
,
0000
0100
0000
0100
,
0000
0100
0000
0100
,
0000
0001
0010
0100
,
0000
1000
0010
0100
,
0000
0001
0100
1000
,
0000
1000
0100
0001
,
0100
0010
0001
0010
,
0100
0010
1000
0010
,
0100
1001
0000
0001
,
0000
0100
0000
0100
,
0000
0000
0000
0000
0000
0000
0100
0100
,
0000
0000
0000
0000
0001
0000
0100
0100
,
0000
0000
0000
0000
1000
0000
0100
0100
,
0000
0000
0100
0000
1000
0000
0100
0100
,
0000
0000
0100
0000
0001
0000
0100
0100
,
0100
0001
1000
0100
,
1000
0100
1000
0100
,
0000
1000
0001
0100
,
1001
0100
0010
0001
,
0000
0001
1000
0100
,
1001
0100
0010
1000
,
0000
0010
0100
1001
,
0100
0010
0100
1001
,
0000
0001
0010
1000
,
0100
1000
0010
0001
,
0010
0100
0001
0100
,
1001
0000
0110
0000
1000
0000
0001
0001
,
0001
1000
0100
1000
,
1001
0000
0110
0000
1000
0000
0100
0100
,
0100
0010
1000
0010
,
1001
0000
0110
0000
0001
0000
1000
1000
,
1000
0001
0010
0001
,
1001
0000
0110
0000
0001
0000
0010
0010
,
0010
0000
0001
0000
1000
0000
0100
0100
,
0000
0000
0000
0000
;

//---------------dance-single - ----------------
#NOTEDATA:;
#CHARTNAME:;
#STEPSTYPE:dance-single;
#DESCRIPTION:;
#CHARTSTYLE:;
#DIFFICULTY:Medium;
#METER:7;
#RADARVALUES:0.254692,0.287013,0.188251,0.000000,0.000000,161.000000,144.000000,17.000000,0.000000,0.000000,0.000000,0.000000,0.000000,0.000000,0.254692,0.287013,0.188251,0.000000,0.000000,161.000000,144.000000,17.000000,0.000000,0.000000,0.000000,0.000000,0.000000,0.000000;
#CREDIT:;
#DISPLAYBPM:130.000000;
#NOTES:
0000
0000
0000
0000
,
0000
0000
0000
0000
,
0000
0000
0000
0000
,
0000
0000
0000
0100
,
0000
0000
0000
0100
,
0000
0000
0000
0100
,
0000
0100
0001
0100
,
1000
0010
0100
0001
,
0100
0010
0001
0010
,
0100
0010
1000
0010
,
0000
0100
1000
0100
,
0001
0010
0100
1000
,
0100
0010
1000
0010
,
0100
0010
0001
0010
,
0100
1001
0000
0001
,
0000
0100
0000
0100
,
0010
0000
0001
0000
0100
0000
1000
1000
,
0000
0000
0001
0000
0000
0000
0001
0001
,
0010
0000
1000
0000
0100
0000
0001
0001
,
0000
0000
1000
0000
0000
0000
1000
1000
,
0010
0000
0001
0000
0100
0000
1000
1000
,
0100
0001
1000
0100
,
1000
0100
1000
0100
,
0010
0100
0001
0100
,
1001
0000
0110
0000
1000
0000
0001
0001
,
0001
1000
0100
1000
,
1001
0000
0110
0000
1000
0000
0100
0100
,
0100
0010
1000
0010
,
1001
0000
0110
0000
0001
0000
1000
1000
,
1000
0001
0010
0001
,
1001
0000
0110
0000
0001
0000
0010
0010
,
0010
0100
0001
0100
,
1100
0000
0101
0000
1000
0000
0001
0001
,
0001
1000
0100
1000
,
1100
0000
0101
0000
1000
0000
0100
0100
,
0100
0010
1000
0010
,
0101
0000
1100
0000
0001
0000
1000
1000
,
1000
0001
0010
0001
,
0101
0000
1100
0000
0001
0000
0010
0010
,
0010
0000
0001
0000
1000
0000
0100
0100
,
0000
0000
0000
0000
;

//---------------dance-single - ----------------
#NOTEDATA:;
#CHARTNAME:;
#STEPSTYPE:dance-single;
#DESCRIPTION:;
#CHARTSTYLE:;
#DIFFICULTY:Hard;
#METER:8;
#RADARVALUES:0.273676,0.287013,0.033221,0.000000,0.000000,173.000000,170.000000,3.000000,0.000000,0.000000,0.000000,0.000000,0.000000,0.000000,0.273676,0.287013,0.033221,0.000000,0.000000,173.000000,170.000000,3.000000,0.000000,0.000000,0.000000,0.000000,0.000000,0.000000;
#CREDIT:;
#DISPLAYBPM:130.000000;
#NOTES:
0000
0000
0000
0000
,
0000
0000
0000
0000
,
0000
0000
0000
0000
,
0000
0000
0000
0000
,
0000
0000
0000
0000
,
0000
0100
0000
0100
,
1000
0000
0100
0000
1000
0010
0001
0000
,
1000
0000
0100
0000
0010
0000
1000
0100
,
0001
0000
0100
0000
0001
0010
1000
0000
,
0001
0000
0100
0000
0010
0000
0001
0100
,
1000
0000
0010
0000
1000
0010
0001
0000
,
1100
0000
0001
0000
0010
0000
1000
0100
,
0001
0000
0010
0000
0001
0010
1000
0000
,
0101
0000
1000
0000
0010
0000
0001
0100
,
1000
1001
0000
0001
,
0000
0100
0000
0100
,
0001
0000
1000
0000
0010
0000
0001
0100
,
1000
0000
0001
0000
0010
0000
1000
0100
,
0001
0000
0100
0000
1000
0000
0010
0001
,
0100
0000
0001
0000
1000
0000
0010
0001
,
0100
0000
1000
0000
0001
0000
0010
1000
,
0100
0001
1000
0100
,
1000
0100
1000
0100
,
0010
0100
0001
0100
,
1000
0100
0001
0100
1000
0000
0001
0010
,
1000
0001
0010
0001
,
0001
0100
1000
0100
0001
0000
0010
1000
,
0100
0010
1000
0010
,
0001
0100
1000
0100
0001
0000
1000
0100
,
0001
1000
0100
1000
,
1000
0100
0001
0100
1000
0000
0100
0001
,
0010
1000
0001
0100
,
1000
0000
0100
0001
0010
0000
1000
0010
,
0001
0010
0100
1000
,
0010
0000
1000
0100
0001
0000
0010
0001
,
0100
0001
1000
0010
,
0001
0000
0010
1000
0100
0000
0001
0100
,
1000
0100
0010
0001
,
0100
0000
0001
0010
1000
0000
0100
1000
,
0010
0000
0001
0010
1000
0000
0100
0100
;

//---------------dance-single - ----------------
#NOTEDATA:;
#CHARTNAME:;
#STEPSTYPE:dance-single;
#DESCRIPTION:;
#CHARTSTYLE:;
#DIFFICULTY:Challenge;
#METER:13;
#RADARVALUES:0.526786,0.601711,0.011074,0.011074,0.614584,333.000000,332.000000,1.000000,1.000000,0.000000,0.000000,0.000000,0.000000,0.000000,0.526786,0.601711,0.011074,0.011074,0.614584,333.000000,332.000000,1.000000,1.000000,0.000000,0.000000,0.000000,0.000000,0.000000;
#CREDIT:;
#DISPLAYBPM:130.000000;
#NOTES:
// measure 0
0000
0000
0000
0000
,  // measure 1
0000
0000
0000
0000
,  // measure 2
0000
0000
0000
0000
,  // measure 3
0000
0000
0000
0000
,  // measure 4
1000
0100
1000
0100
0010
0100
0010
0100
1000
0100
1000
0100
0010
0000
0000
0000
,  // measure 5
0001
0100
0001
0100
0010
0100
0010
0100
0001
0100
0001
0100
0010
0000
0000
0000
,  // measure 6
1000
0001
1000
0001
1000
0000
0000
0000
0010
0100
0000
0000
0010
0100
0000
0000
,  // measure 7
0001
0010
0001
0010
0001
0000
0000
0000
0100
0010
0000
0000
0100
0010
0000
0000
,  // measure 8
1000
0100
1000
0100
1000
0000
0000
0000
0010
0100
0000
0000
0010
0100
0000
0000
,  // measure 9
0001
0000
0001
0000
1000
0100
0000
0000
0001
0000
0001
0000
1000
0100
0000
0000
,  // measure 10
0010
0100
0010
0100
0010
0000
0000
0000
0001
0100
0000
0000
0001
0100
0000
0000
,  // measure 11
0010
1000
0010
1000
0010
0000
0000
0000
0100
0001
0000
0000
0100
0001
0000
0000
,  // measure 12
0010
0000
0010
0000
0100
1000
0000
0000
0010
0000
0010
0000
0100
1000
0000
0000
,  // measure 13
0001
0000
0001
0000
0100
0010
0000
0000
0001
0000
0001
0000
0100
0010
0000
0000
,  // measure 14
1000
0100
0010
0001
1000
0000
1001
0000
,  // measure 15
1000
0100
1000
0100
1000
0000
0010
0000
0100
0000
0100
0000
0010
0100
0000
0000
,  // measure 16
0001
0010
0001
0010
0001
0000
0100
0000
0010
0000
0010
0000
0100
0010
0000
0000
,  // measure 17
1000
0100
1000
0100
1000
0000
0000
0000
0001
0100
0001
0100
0001
0000
0000
0000
,  // measure 18
0010
0100
0010
0100
0010
0000
0001
0000
1000
0000
1000
0000
0001
1000
0000
0000
,  // measure 19
0010
0100
0010
0100
0010
0000
1000
0000
0001
0000
0001
0000
0010
0000
0100
0000
,  // measure 20
1000
0010
1000
0010
1000
0000
0100
0000
0010
0000
0010
0000
0001
1000
0000
0000
,  // measure 21
0010
0100
0010
0100
0010
0000
0000
0000
1000
0100
1000
0100
1000
0000
0000
0000
,  // measure 22
0001
0100
0001
0100
0010
1000
0010
1000
0001
0010
0001
0010
0100
0000
0000
0000
,  // measure 23
1000
0100
1000
0000
0000
0000
0001
0100
0001
0100
0000
0000
0000
0000
0000
0000
,  // measure 24
0001
0100
0010
0000
0010
0000
0001
0100
0010
0000
0010
0000
0001
0100
0010
0000
,  // measure 25
1000
0000
0100
0000
0010
0001
0000
0000
0100
0010
1000
0000
1000
0000
0000
0000
,  // measure 26
1000
0000
0100
0000
0010
0001
0100
0000
0010
1000
0100
0000
0100
0000
0100
0000
,  // measure 27
0100
0000
0010
0000
0001
0100
0000
0000
0010
0100
0000
0000
0010
1000
0000
0000
,  // measure 28
0001
0000
0010
0000
0100
1000
0000
0100
0010
0001
0000
0000
0010
0100
0000
0000
,  // measure 29
1000
0000
1000
0000
1000
0001
0000
0000
0010
0000
0010
0000
0010
0100
0000
0000
,  // measure 30
1000
0000
1000
0000
1000
0010
0000
0000
0100
0000
0100
0000
0100
0001
0000
0000
,  // measure 31
0000
0000
0000
0000
0000
0000
1000
0100
1000
0000
0000
0000
0000
0000
0001
0010
,  // measure 32
0001
0000
1000
0010
1000
0000
0001
0010
0001
0000
0000
0000
0000
0000
0001
0000
,  // measure 33
1000
0000
1000
0000
0100
0010
0000
0000
0001
0000
0001
0000
0100
0010
0000
0000
,  // measure 34
1000
0000
0100
0000
0010
0100
0010
0000
0001
0100
0001
0000
0001
0000
0000
0000
,  // measure 35
1000
0000
1000
0000
0100
0010
0000
0001
1000
0000
0010
0100
0000
0001
0010
0000
,  // measure 36
0100
0000
0100
0000
1000
0010
0000
0100
0001
0000
0010
0100
0000
1000
0010
0000
,  // measure 37
0100
0000
0100
0000
0001
1000
0000
0000
0010
0000
0010
0000
1000
0001
0000
0000
,  // measure 38
0010
0100
1000
0000
1000
0000
0001
1000
0100
0000
0100
0000
0010
0000
0001
0000
,  // measure 39
1000
0000
0010
0000
0100
0001
0010
0100
1000
0010
0100
0001
0020
0000
0000
0000
,  // measure 40
0000
0030
0000
0000
;

//---------------dance-double - ----------------
#NOTEDATA:;
#CHARTNAME:;
#STEPSTYPE:dance-double;
#DESCRIPTION:;
#CHARTSTYLE:;
#DIFFICULTY:Easy;
#METER:6;
#RADARVALUES:0.200906,0.264935,0.110736,0.000000,0.000000,127.000000,117.000000,10.000000,0.000000,0.000000,0.000000,0.000000,0.000000,0.000000,0.200906,0.264935,0.110736,0.000000,0.000000,127.000000,117.000000,10.000000,0.000000,0.000000,0.000000,0.000000,0.000000,0.000000;
#CREDIT:;
#DISPLAYBPM:130.000000;
#NOTES:
00000000
00000000
00000000
00000000
,
00000000
00000000
00000000
00000000
,
00000000
00000000
00000000
00000000
,
00000000
00000000
00000000
00000000
,
00000000
00000000
00000000
00001000
,
00000000
00000000
00000000
00001000
,
00000000
00001000
00000000
00001000
,
00000000
00001000
00000000
00001000
,
00000000
00001000
00000100
00010000
,
00000000
00010000
01000000
00001000
,
00000100
00000001
00001000
00000010
,
00000100
00000001
00010000
00001000
,
01000000
10000000
00010000
00100000
,
01000000
10000000
00001000
00010000
,
01000000
00010000
00000000
00001000
,
00000000
00000100
00000000
00000100
,
00000000
00000000
00000000
01000000
,
00000000
00000000
00000100
00001000
,
00000000
00000000
01000000
01000000
,
00000000
00100000
00000100
00001000
,
00000000
00000100
01000000
00010000
,
00000100
00001000
00000100
00001000
,
00000100
00000001
00001000
00000001
,
00000000
00001000
00000001
00000100
,
00001001
00000100
00000010
00000001
,
00000000
00000001
00001000
00000100
,
00001001
00000100
00000010
00001000
,
00000000
00000010
00000100
00001001
,
00000100
00000010
00000100
00001001
,
00000000
00000100
00000001
00000010
,
00001000
00000100
00010000
00001000
,
01001000
00010000
00000010
00010000
,
00000100
00010000
00000010
00010000
,
00010100
00001000
00100000
00001000
,
01000000
00001000
00100000
00001000
,
01001000
00010100
00000001
00010000
,
00100000
00000100
00001000
01000000
,
00010100
01001000
10000000
00001000
,
00000010
01000000
00010000
00000100
,
00001000
00000000
00000001
00000000
00000010
00000000
00000100
00000100
,
00000000
00000000
00000000
00000000
;

//---------------dance-double - ----------------
#NOTEDATA:;
#CHARTNAME:;
#STEPSTYPE:dance-double;
#DESCRIPTION:;
#CHARTSTYLE:;
#DIFFICULTY:Medium;
#METER:7;
#RADARVALUES:0.254692,0.309091,0.276840,0.000000,0.000000,161.000000,136.000000,25.000000,0.000000,0.000000,0.000000,0.000000,0.000000,0.000000,0.254692,0.309091,0.276840,0.000000,0.000000,161.000000,136.000000,25.000000,0.000000,0.000000,0.000000,0.000000,0.000000,0.000000;
#CREDIT:;
#DISPLAYBPM:130.000000;
#NOTES:
00000000
00000000
00000000
00000000
,
00000000
00000000
00000000
00000000
,
00000000
00000000
00000000
00000000
,
00000000
00000000
00000000
00000000
,
00000000
00000000
00000000
00000000
,
00000000
00001000
00000000
00001000
,
00000000
00001000
00000000
00001000
,
00000000
00001000
00000000
00001000
,
00000101
00000010
00000100
00000010
,
00001001
00000100
00001000
00010000
,
11000000
00100000
01000000
00100000
,
10010000
01000000
00100000
00001000
,
00000100
00000001
00000010
00001000
,
00010000
01000000
10000000
00100000
,
01000000
10010000
00000000
00010000
,
00000000
01000000
00000000
01000000
,
00100000
00000000
01000000
00000000
10000000
00000000
00100000
00010000
,
01000000
00000000
10000000
00000000
01000000
00000000
00010000
01000000
,
10000000
00000000
01000000
00000000
00010000
00000000
01000000
00010000
,
10000000
00000000
00100000
00000000
00010000
00000000
01000000
10000000
,
00100000
10000000
01000000
00010000
,
00001000
00000010
00000001
00000100
,
00001000
00000100
00001000
00000100
,
01001000
00010000
00000010
01000000
,
00000100
00010000
00000010
00010000
,
00010100
00001000
00100000
00001000
,
01000000
00001000
00100000
00001000
,
01001000
00010100
00000001
00010000
,
01000000
00000100
00100000
00001000
,
00010100
01001000
10000000
00001000
,
00000100
01000000
00000010
00010000
,
10100000
01010000
11000000
00010000
,
00001000
00000010
00000001
00000100
,
00000011
00001100
00000101
00001000
,
00010000
00100000
10000000
01000000
,
00110000
01010000
00001100
00001010
,
00000100
00000010
00000001
00000100
,
00001010
00001100
01010000
00110000
,
01000000
00100000
10000000
01000000
,
10000000
00000000
00010000
00000000
00100000
00000000
01000000
01000000
,
00000000
00000000
00000000
00000000
;

//---------------dance-double - ----------------
#NOTEDATA:;
#CHARTNAME:;
#STEPSTYPE:dance-double;
#DESCRIPTION:;
#CHARTSTYLE:;
#DIFFICULTY:Hard;
#METER:9;
#RADARVALUES:0.357519,0.353247,0.088589,0.000000,0.000000,226.000000,218.000000,8.000000,0.000000,0.000000,0.000000,0.000000,0.000000,0.000000,0.357519,0.353247,0.088589,0.000000,0.000000,226.000000,218.000000,8.000000,0.000000,0.000000,0.000000,0.000000,0.000000,0.000000;
#CREDIT:;
#DISPLAYBPM:130.000000;
#NOTES:
00000000
00000000
00000000
00000000
,
00000000
00000000
00000000
00000000
,
00000000
00000000
00000000
00000000
,
00000000
00000000
00000000
00000000
,
00000000
00000000
00000000
00000000
,
00010000
00010000
00010000
00000000
10000000
10000000
10000000
00000000
,
00100000
00000000
01000000
00000000
00001000
00001000
00001000
00000000
,
00010000
00000100
00000010
00000001
00000100
00000010
00001000
00000100
,
00010000
00000000
00001000
00000000
00100000
00100000
00100000
00000000
,
00010000
10000000
01000000
00100000
00001000
00010000
00000100
00000010
,
00000001
00000000
00000100
00000000
00000010
00000010
00000010
00000000
,
00001000
00000100
00010000
00001000
00100000
00010000
10000000
01000000
,
00100000
00000000
00001000
00000000
00010000
00010000
00010000
00000000
,
00000100
00000000
00000010
00000000
00000001
00000001
00000001
00000000
,
00000000
00000000
00001000
00001000
00000000
00000000
00011000
00000000
,
00100000
00010000
01000000
00000000
00100000
10000000
01000000
00000000
,
00100000
00001000
00010000
00000000
00000100
00001000
00000001
00000100
,
00000010
00001000
00000100
00000000
00010000
00001000
00100000
00000000
,
00010000
10000000
01000000
00000000
00100000
00001000
00010000
00000100
,
00000010
00000001
00000100
00000000
00000010
00010000
00000100
00000000
,
00001000
00000010
00010000
00000000
00001000
01000000
00010000
10000000
,
00100000
01000000
00010000
00000000
00100000
00001000
00010000
00000000
,
00000100
00000010
00000001
00000100
00000010
00001000
00000100
00000000
,
00011000
00000000
10010000
00000000
01000000
00100000
00010000
00000000
,
01000000
00001000
00010000
00000100
00000010
00000001
00000100
00000000
,
00001100
00000000
00011000
00000000
00100000
00010000
10000000
00000000
,
01000000
00100000
00001000
00010000
00000100
00000010
00000001
00000000
,
00001100
00000000
00000101
00000000
00001000
00000100
00010000
00000000
,
00001000
00100000
00010000
10000000
01000000
00100000
00010000
00000000
,
01000000
01000000
01000000
00000000
00001000
00001000
00001000
00000000
,
00010000
00000100
00000010
00000001
00001000
00001000
00001000
00000000
,
00000010
00010000
00001000
01000000
00010000
00100000
01000000
00000000
,
10000000
10000000
10000000
00000000
00100000
01000000
00001000
00010000
,
00000100
00000000
00000010
00000010
00000000
00000001
00000001
00000000
,
00000100
00000010
00001000
00000100
00010000
00001000
00100000
00000000
,
10010000
00000000
00100000
01000000
00000000
10000000
00010000
00000000
,
01000000
00001000
00010000
00000100
00000010
00000001
00000100
00000010
,
00001000
00000100
00000100
00000000
00010000
00001000
00001000
00000000
,
00100000
00010000
10000000
01000000
00100000
00010000
01000000
00001000
,
00010000
00000000
00000100
00000100
00000100
00000000
00000010
00000001
,
00000000
00000000
00000000
00000000
;

//---------------dance-double - ----------------
#NOTEDATA:;
#CHARTNAME:;
#STEPSTYPE:dance-double;
#DESCRIPTION:;
#CHARTSTYLE:;
#DIFFICULTY:Challenge;
#METER:10;
#RADARVALUES:0.340117,0.353247,0.221472,0.132883,0.022147,215.000000,195.000000,20.000000,12.000000,0.000000,0.000000,0.000000,0.000000,0.000000,0.340117,0.353247,0.221472,0.132883,0.022147,215.000000,195.000000,20.000000,12.000000,0.000000,0.000000,0.000000,0.000000,0.000000;
#CREDIT:;
#DISPLAYBPM:130.000000;
#NOTES:
00000000
00000000
00000000
00000000
,
00000000
00000000
00000000
00000000
,
00000000
00000000
00000000
00000000
,
00000000
00000000
00000000
00000000
,
00000010
00000001
00000100
00000000
00001000
00000000
00010000
00001000
,
00000010
00001000
00100000
00000000
00010000
00000000
01000000
00000000
,
01001000
00000000
00011000
00000000
00001000
00000100
00000001
00000000
,
00000100
00001000
00000100
00000000
00010000
01000000
00010000
01000000
,
10000000
00000000
00110000
00000000
01000000
00010000
00001000
00100000
,
00000000
01000000
00010000
00000000
11000000
00000000
00110000
00000000
,
01001000
00000000
00110000
00000000
00001000
00010000
01000000
10000000
,
00100000
00010000
00001000
00000000
00000010
00001000
00000100
00001000
,
00000020
00000001
00000100
00001030
,
00020000
00000000
00001000
00000000
00000100
00000000
00031000
00010000
,
00000000
00000000
01000000
10000000
00000000
00000000
00100000
00010000
,
02000000
00000000
03000000
00001000
00020000
00000000
00030000
00000000
,
01000000
00100000
00000000
00100000
00010000
00000000
00010000
01000000
00000000
01000000
00100000
00000000
00010000
00000000
00001000
00000000
,
00000020
00000000
00000030
00001000
00010000
00200000
00000000
00300000
,
00010000
00000000
01100000
00000000
00001000
00000000
00010000
00000010
,
00001000
00000200
00000000
00000300
00000001
00000200
00000000
00000300
,
00000010
00000000
00000001
00000000
00000100
00000000
00000010
00000100
,
00001000
00010000
00000010
00001000
00000100
00000010
00001000
00010000
,
01000000
00000000
00100000
00001000
00010000
00000010
00001000
00000000
,
00000101
00000000
00001100
00000000
00000010
00000001
00000100
00000000
,
00000010
00001000
00000010
00000000
00010000
00100000
00010000
00001000
,
00000010
00000000
00000110
00000000
00000001
00000100
00001000
00010000
,
00000000
00010000
00001000
00000000
00101000
00000000
00110000
00000000
,
11000000
00000000
00100000
00000000
01000000
00001000
00100000
01000000
,
00010000
00001000
00000100
00000000
00000010
00010000
00001000
00000010
,
00002000
00000010
00010000
00003100
,
00020000
00100000
00001000
01030000
,
01100000
00000000
00101000
00000000
00010000
01000000
10000000
00000000
,
00100000
00010000
00001000
00000000
00000010
00001000
00010000
00100000
,
00010000
00000000
01100000
00000000
01000000
00001000
00010000
00100000
,
00000000
00010000
00001000
00000000
00010010
00000000
00001100
00000000
,
00000011
00000000
00001000
00000000
00000100
00010000
00001000
00000010
,
00000001
00000100
00001000
00000000
00010000
01000000
00100000
00010000
,
02000000
10000000
00100000
03010000
,
00002000
00000000
00010000
00000000
00100000
00000000
00013000
00001000
,
00000000
00000000
00000100
00000010
00000000
00000000
00000001
00000010
,
00000000
00000000
00000000
00000000
;

//---------------dance-couple - ----------------
#NOTEDATA:;
#CHARTNAME:;
#STEPSTYPE:dance-couple;
#DESCRIPTION:;
#CHARTSTYLE:;
#DIFFICULTY:Easy;
#METER:4;
#RADARVALUES:0.211980,0.287013,0.132883,0.000000,0.000000,134.000000,122.000000,12.000000,0.000000,0.000000,0.000000,0.000000,0.000000,0.000000,0.211980,0.287013,0.132883,0.000000,0.000000,134.000000,122.000000,12.000000,0.000000,0.000000,0.000000,0.000000,0.000000,0.000000;
#CREDIT:;
#DISPLAYBPM:130.000000;
#NOTES:
00000000
00000000
00000000
00000000
,
00000000
00000000
00000000
00000000
,
00000000
00000000
00000000
00000000
,
00000000
00000000
00000000
01000100
,
00000000
00000000
00000000
01000100
,
00000000
00000000
00000000
01000100
,
00000000
01000100
00000000
01000100
,
00000000
01000100
00000000
01000100
,
00000000
00010001
00100010
01000100
,
00000000
10001000
00100010
01000100
,
00000000
00010001
01000100
10001000
,
00000000
10001000
01000100
00010001
,
01000100
00100010
00011000
00100010
,
01000100
00100010
10000001
00100010
,
01000100
10011001
00000000
00011000
,
00000000
01000100
00000000
01000100
,
00000000
00000000
00000000
00000000
00000000
00000000
01000100
01000100
,
00000000
00000000
00000000
00000000
00011000
00000000
01000100
01000100
,
00000000
00000000
00000000
00000000
10000001
00000000
01000100
01000100
,
00000000
00000000
01000100
00000000
10000001
00000000
01000100
01000100
,
00000000
00000000
01000100
00000000
00011000
00000000
01000100
01000100
,
01000100
00011000
10000001
01000100
,
10000001
01000100
10000001
01000100
,
00000000
10001000
00000001
01000100
,
00001001
01000100
00000010
00010001
,
00000000
00010001
10000000
01000100
,
10010000
01000100
00100000
10001000
,
00000000
00100010
01000100
10011001
,
01000100
00100010
01000100
10011001
,
00000000
00010001
00100010
10001000
,
01000100
10001000
00100010
00010001
,
00100010
01000100
00010001
01000100
,
10011001
00000000
01100110
00000000
10001000
00000000
00010001
00010001
,
00010001
10001000
01000100
10001000
,
10011001
00000000
01100110
00000000
10001000
00000000
01000100
01000100
,
01000100
00100010
10001000
00100010
,
10011001
00000000
01100110
00000000
00010001
00000000
10001000
10001000
,
10001000
00010001
00100010
00010001
,
10011001
00000000
01100110
00000000
00010001
00000000
00100010
00100010
,
00100010
00000000
00010001
00000000
10001000
00000000
01000100
01000100
,
00000000
00000000
00000000
00000000
;

//---------------dance-couple - ----------------
#NOTEDATA:;
#CHARTNAME:;
#STEPSTYPE:dance-couple;
#DESCRIPTION:;
#CHARTSTYLE:;
#DIFFICULTY:Medium;
#METER:5;
#RADARVALUES:0.229381,0.287013,0.143957,0.000000,0.000000,145.000000,132.000000,13.000000,0.000000,0.000000,0.000000,0.000000,0.000000,0.000000,0.229381,0.287013,0.143957,0.000000,0.000000,145.000000,132.000000,13.000000,0.000000,0.000000,0.000000,0.000000,0.000000,0.000000;
#CREDIT:;
#DISPLAYBPM:130.000000;
#NOTES:
00000000
00000000
00000000
00000000
,
00000000
00000000
00000000
00000000
,
00000000
00000000
00000000
00000000
,
00000000
00000000
00000000
01000100
,
00000000
00000000
00000000
01000100
,
00000000
00000000
00000000
01000100
,
00000000
01000100
00010001
01000100
,
10001000
00100010
01000100
00010001
,
01000100
00100010
00010001
00100010
,
01000100
00100010
10001000
00100010
,
00000000
01000100
10001000
01000100
,
00010001
00100010
01000100
10001000
,
01000100
00100010
10001000
00100010
,
01000100
00100010
00010001
00100010
,
01000100
10011001
00000000
00010001
,
00000000
01000100
00000000
01000100
,
00100010
00000000
00011000
00000000
01000100
00000000
10000001
10000001
,
00000000
00000000
00011000
00000000
00000000
00000000
00011000
00011000
,
00100010
00000000
10000001
00000000
01000100
00000000
00011000
00011000
,
00000000
00000000
10000001
00000000
00000000
00000000
10000001
10000001
,
00100010
00000000
00011000
00000000
01000100
00000000
10000001
10000001
,
01000100
00011000
10000001
01000100
,
10000001
01000100
10000001
01000100
,
00100000
01000000
00010000
01000100
,
10010000
00000000
01100000
00000000
10000000
00000000
00010001
00010001
,
00000001
00001000
00000100
10001000
,
00001001
00000000
00000110
00000000
00001000
00000000
01000100
01000100
,
01000000
00100000
10000000
00100010
,
10010000
00000000
01100000
00000000
00010000
00000000
10001000
10001000
,
00001000
00000001
00000010
00010001
,
00001001
00000000
00000110
00000000
00000001
00000000
00100010
00100010
,
00100010
01000100
00010001
01000100
,
11001100
00000000
01010101
00000000
10001000
00000000
00010001
00010001
,
00010001
10001000
01000100
10001000
,
11001100
00000000
01010101
00000000
10001000
00000000
01000100
01000100
,
01000100
00100010
10001000
00100010
,
01010101
00000000
11001100
00000000
00010001
00000000
10001000
10001000
,
10001000
00010001
00100010
00010001
,
01010101
00000000
11001100
00000000
00010001
00000000
00100010
00100010
,
00100010
00000000
00010001
00000000
10001000
00000000
01000100
01000100
,
00000000
00000000
00000000
00000000
;

//---------------dance-couple - ----------------
#NOTEDATA:;
#CHARTNAME:;
#STEPSTYPE:dance-couple;
#DESCRIPTION:;
#CHARTSTYLE:;
#DIFFICULTY:Hard;
#METER:6;
#RADARVALUES:0.248365,0.287013,0.033221,0.000000,0.000000,157.000000,154.000000,3.000000,0.000000,0.000000,0.000000,0.000000,0.000000,0.000000,0.248365,0.287013,0.033221,0.000000,0.000000,157.000000,154.000000,3.000000,0.000000,0.000000,0.000000,0.000000,0.000000,0.000000;
#CREDIT:;
#DISPLAYBPM:130.000000;
#NOTES:
00000000
00000000
00000000
00000000
,
00000000
00000000
00000000
00000000
,
00000000
00000000
00000000
00000000
,
00000000
00000000
00000000
00000000
,
00000000
00000000
00000000
00000000
,
00000000
01000100
00000000
01000100
,
10001000
00000000
01000100
00000000
10001000
00100010
00010001
00000000
,
10001000
00000000
01000100
00000000
00100010
00000000
10001000
01000100
,
00010001
00000000
01000100
00000000
00010001
00100010
10001000
00000000
,
00010001
00000000
01000100
00000000
00100010
00000000
00010001
01000100
,
10001000
00000000
00100010
00000000
10001000
00100010
00010001
00000000
,
11001100
00000000
00010001
00000000
00100010
00000000
10001000
01000100
,
00010001
00000000
00100010
00000000
00010001
00100010
10001000
00000000
,
01010101
00000000
10001000
00000000
00100010
00000000
00010001
01000100
,
10001000
10011001
00000000
00010001
,
00000000
01000100
00000000
01000100
,
10000001
00000000
00011000
00000000
00100010
00000000
10000001
01000100
,
00011000
00000000
10000001
00000000
00100010
00000000
00011000
01000100
,
10000001
00000000
01000100
00000000
00011000
00000000
00100010
10000001
,
01000100
00000000
10000001
00000000
00011000
00000000
00100010
10000001
,
01000100
00000000
00011000
00000000
10000001
00000000
00100010
00011000
,
01000100
10000001
00011000
01000100
,
00011000
01000100
00011000
01000100
,
00100010
01000000
00010000
01000000
,
10000000
01000000
00010000
01000000
10000000
00000000
00010001
00100010
,
10001000
00000001
00000010
00000001
,
00000001
00000100
00001000
00000100
00000001
00000000
00100010
10001000
,
01000100
00100000
10000000
00100000
,
00010000
01000000
10000000
01000000
00010000
00000000
10001000
01000100
,
00010001
00001000
00000100
00001000
,
00001000
00000100
00000001
00000100
00001000
00000000
01000100
00010001
,
00100010
10001000
00010001
01000100
,
10001000
00000000
01000100
00010001
00100010
00000000
10001000
00100010
,
00010001
00100010
01000100
10001000
,
00100010
00000000
10001000
01000100
00010001
00000000
00100010
00010001
,
01000100
00010001
10001000
00100010
,
00010001
00000000
00100010
10001000
01000100
00000000
00010001
01000100
,
10001000
01000100
00100010
00010001
,
01000100
00000000
00010001
00100010
10001000
00000000
01000100
10001000
,
00100010
00000000
00010001
00100010
10001000
00000000
01000100
01000100
,
00000000
00000000
00000000
00000000
;

//---------------dance-solo - ----------------
#NOTEDATA:;
#CHARTNAME:;
#STEPSTYPE:dance-solo;
#DESCRIPTION:;
#CHARTSTYLE:;
#DIFFICULTY:Easy;
#METER:4;
#RADARVALUES:0.218308,0.287013,0.143957,0.000000,0.000000,138.000000,125.000000,13.000000,0.000000,0.000000,0.000000,0.000000,0.000000,0.000000,0.218308,0.287013,0.143957,0.000000,0.000000,138.000000,125.000000,13.000000,0.000000,0.000000,0.000000,0.000000,0.000000,0.000000;
#CREDIT:;
#DISPLAYBPM:130.000000;
#NOTES:
000000
000000
000000
000000
,
000000
000000
000000
000000
,
000000
000000
000000
000000
,
000000
000000
000000
001000
,
000000
000000
000000
001000
,
000000
000000
000000
000010
,
000000
010000
000000
000010
,
000000
010000
000000
000010
,
000000
000001
000100
001000
,
000000
100000
000100
001000
,
000000
000001
001000
010000
,
000000
100000
001000
000010
,
001000
000100
000001
000100
,
001000
000100
100000
000100
,
001000
100001
000000
000010
,
000000
001000
000000
001000
,
000000
000000
000000
000000
000000
000000
001000
001000
,
000000
000000
000000
000000
000010
000000
001000
001000
,
000000
000000
000000
000000
010000
000000
001000
001000
,
000000
000000
001000
000000
100000
000000
001000
001000
,
000000
000000
001000
000000
000001
000000
001000
001000
,
001000
000001
100000
001000
,
010000
001000
100000
001000
,
000000
010000
000001
001000
,
100001
001000
000100
000001
,
000000
000010
010000
001000
,
100001
001000
000100
100000
,
000000
000100
001000
100001
,
001000
000100
001000
100001
,
000000
000010
000100
100000
,
001000
010000
000100
000001
,
000100
001000
000001
001000
,
100001
000000
001100
000000
100000
000000
000010
000010
,
000010
100000
001000
100000
,
100001
000000
001100
000000
100000
000000
001000
001000
,
001000
000100
010000
000100
,
100001
000000
001100
000000
000001
000000
010000
010000
,
010000
000010
000100
000001
,
100001
000000
001100
000000
000001
000000
000100
000100
,
000100
000000
000001
000000
010000
000000
001000
001000
;

//---------------dance-solo - ----------------
#NOTEDATA:;
#CHARTNAME:;
#STEPSTYPE:dance-solo;
#DESCRIPTION:;
#CHARTSTYLE:;
#DIFFICULTY:Medium;
#METER:6;
#RADARVALUES:0.218308,0.242858,0.011074,0.000000,0.000000,138.000000,137.000000,1.000000,0.000000,0.000000,0.000000,0.000000,0.000000,0.000000,0.218308,0.242858,0.011074,0.000000,0.000000,138.000000,137.000000,1.000000,0.000000,0.000000,0.000000,0.000000,0.000000,0.000000;
#CREDIT:;
#DISPLAYBPM:130.000000;
#NOTES:
000000
000000
000000
000000
,
000000
000000
000000
000000
,
000000
000000
000000
000000
,
000000
000000
000000
001000
,
000000
000000
000000
001000
,
000000
000000
000000
001000
,
000000
000010
000000
100000
000000
001000
000000
000100
,
000000
000001
000000
000010
000000
000001
000000
000010
,
000000
010000
000000
000001
000000
001000
000000
000100
,
000000
100000
000000
010000
000000
100000
000000
010000
,
000000
001000
000000
000100
000000
000001
000000
001000
,
000000
000010
000000
000001
000000
000010
000000
000001
,
000000
100000
000000
001000
000000
100000
000000
001000
,
000000
100000
000000
001000
000000
100000
000000
001000
,
001000
000000
000000
100001
,
000000
001000
000000
001000
,
000100
000000
000001
000000
001000
000000
000010
000010
,
000000
000000
000001
000000
000000
000000
010000
010000
,
000100
000000
100000
000000
001000
000000
000001
000001
,
000000
000000
100000
000000
000000
000000
100000
100000
,
000100
000000
000010
000000
001000
000000
100000
100000
,
001000
000001
010000
001000
,
100000
001000
010000
001000
,
000000
000010
000000
100000
000000
001000
000000
000100
,
000000
000001
000000
000010
000000
000001
000000
000010
,
000000
010000
000000
000001
000000
001000
000000
000100
,
000000
100000
000000
010000
000000
100000
000000
010000
,
000000
001000
000000
000100
000000
000001
000000
001000
,
000000
000010
000000
000001
000000
000010
000000
000001
,
000000
100000
000000
001000
000000
100000
000000
001000
,
000000
100000
000000
001000
000000
100000
000000
010000
,
000000
000010
000000
100000
000000
001000
000000
000100
,
000000
000001
000000
000010
000000
000001
000000
000010
,
000000
010000
000000
000001
000000
001000
000000
000100
,
000000
100000
000000
010000
000000
100000
000000
010000
,
000000
001000
000000
000100
000000
000001
000000
001000
,
000000
000010
000000
000001
000000
000010
000000
000001
,
000000
100000
000000
001000
000000
100000
000000
001000
,
000000
100000
000000
001000
000000
100000
000000
001000
,
001000
000000
000100
000000
000001
000000
010000
010000
;

//---------------dance-solo - ----------------
#NOTEDATA:;
#CHARTNAME:;
#STEPSTYPE:dance-solo;
#DESCRIPTION:;
#CHARTSTYLE:;
#DIFFICULTY:Hard;
#METER:6;
#RADARVALUES:0.273676,0.287013,0.033221,0.000000,0.000000,173.000000,170.000000,3.000000,0.000000,0.000000,0.000000,0.000000,0.000000,0.000000,0.273676,0.287013,0.033221,0.000000,0.000000,173.000000,170.000000,3.000000,0.000000,0.000000,0.000000,0.000000,0.000000,0.000000;
#CREDIT:;
#DISPLAYBPM:130.000000;
#NOTES:
000000
000000
000000
000000
,
000000
000000
000000
000000
,
000000
000000
000000
000000
,
000000
000000
000000
000000
,
000000
000000
000000
000000
,
000000
001000
000000
001000
,
010000
000000
001000
000000
100000
000100
000001
000000
,
100000
000000
001000
000000
010000
000000
100000
001000
,
000001
000000
001000
000000
000001
000100
100000
000000
,
000001
000000
001000
000000
000010
000000
000001
001000
,
010000
000000
000100
000000
100000
000100
000001
000000
,
011000
000000
000001
000000
000100
000000
100000
001000
,
000010
000000
000100
000000
000001
000100
100000
000000
,
001010
000000
100000
000000
000100
000000
000001
001000
,
010000
100001
000000
000001
,
000000
001000
000000
001000
,
000010
000000
100000
000000
000100
000000
000001
001000
,
010000
000000
000001
000000
000100
000000
100000
001000
,
000010
000000
001000
000000
100000
000000
000100
000001
,
001000
000000
000010
000000
100000
000000
000100
000010
,
001000
000000
100000
000000
000001
000000
000100
010000
,
001000
000001
100000
001000
,
100000
001000
010000
001000
,
000100
001000
000001
001000
,
100000
001000
000001
001000
010000
000000
000001
000100
,
100000
000001
000100
000001
,
000001
001000
100000
001000
000010
000000
000100
010000
,
001000
000100
100000
000100
,
000001
001000
100000
001000
000010
000000
100000
001000
,
000010
100000
001000
100000
,
100000
001000
000001
001000
010000
000000
001000
000001
,
000100
100000
000010
001000
,
100000
000000
001000
000001
000100
000000
100000
000100
,
000001
000100
001000
100000
,
000100
000000
100000
001000
000010
000000
000100
000010
,
001000
000001
100000
000100
,
000001
000000
000100
100000
001000
000000
000001
001000
,
010000
001000
000100
000001
,
001000
000000
000001
000100
100000
000000
001000
010000
,
000100
000000
000001
000100
100000
000000
001000
001000
;

//---------------dance-single - edit----------------
#NOTEDATA:;
#CHARTNAME:;
#STEPSTYPE:dance-single;
#DESCRIPTION:edit;
#CHARTSTYLE:;
#DIFFICULTY:Edit;
#METER:14;
#RADARVALUES:0.699218,0.735424,0.155030,0.044294,0.863740,442.000000,428.000000,14.000000,4.000000,0.000000,0.000000,0.000000,0.000000,0.000000,0.699218,0.735424,0.155030,0.044294,0.863740,442.000000,428.000000,14.000000,4.000000,0.000000,0.000000,0.000000,0.000000,0.000000;
#CREDIT:;
#DISPLAYBPM:130.000000;
#NOTES:
0000
0000
0000
0000
,
0000
0000
0000
0000
,
0000
0000
0000
0000
,
0000
0000
0000
0000
,
1000
0010
0001
0010
1000
0100
0010
0001
,
0100
0000
0010
0000
1000
0000
0001
0000
0020
0000
0000
0000
0130
0010
0001
0010
,
1000
0000
0001
0000
0100
0010
1000
0001
0010
0000
0100
0000
1000
0100
0010
0001
,
0100
0000
0010
0100
0001
0000
0100
0010
1000
0000
0010
0100
0001
1000
0100
0010
,
0001
0000
0100
0000
0010
0001
1000
0001
0100
0000
0010
1000
0001
0000
0100
0000
,
0000
0000
0100
0000
0010
0000
0000
0000
1000
0100
0010
0000
0100
0010
0001
0010
,
0100
1000
0100
0000
0010
0000
0100
0000
0001
0010
0001
0000
0100
0000
0010
0000
,
1000
0000
0001
0100
0001
0000
0010
0001
0010
0000
0100
0000
0010
0000
1000
0100
,
1000
0100
1000
0100
1000
0100
1000
0100
1000
0010
1000
0010
1000
0010
1000
0010
,
0100
0001
0100
0010
0100
1000
0100
0010
0100
0000
0000
0000
0110
0000
0110
0000
,
0000
0000
1001
0000
1001
0000
1001
0000
0000
0000
0110
0000
0010
1000
0001
0100
,
0010
0000
0001
0000
1000
0010
0001
0100
1000
0000
1001
0000
0001
0010
0100
0000
,
1000
0100
0000
0100
0010
0000
0001
0010
0000
0010
0100
1000
0010
0100
0001
0010
,
0100
0000
1001
0000
0100
0000
1000
0010
0001
0100
1000
0000
1001
0000
0001
0000
,
0010
0001
0000
0100
0001
0000
1000
0010
0000
0100
1000
0000
0100
1000
0001
0000
,
0100
1000
0100
0001
0100
0000
0010
0000
0100
0001
0100
1000
0100
0000
0010
0000
,
0100
0001
0000
1000
0010
0000
0001
0010
0000
0011
0000
0010
0100
1000
0100
0000
,
1000
0010
1000
0001
1000
0100
0010
0001
0100
0010
1000
0001
0010
0001
0100
0001
,
0020
0000
0000
0000
0030
0000
0001
0100
1000
0000
0010
0100
0000
0000
1001
0000
,
0001
0100
0001
1000
0001
0010
0001
0100
0001
1000
0001
0010
0001
0100
0001
1000
,
0001
0000
0010
0001
0010
0000
0100
0010
0100
0000
1000
0100
1000
0100
0001
1000
,
0100
0000
0010
0000
0001
0010
0100
1000
0010
0100
0001
0000
0100
0000
0010
1000
,
0001
0000
0100
0001
1000
0000
0010
1000
0001
0000
0100
0000
1000
0100
0010
0001
,
0100
0001
1000
0000
0010
0000
0100
0000
0001
1000
0010
0000
0100
0000
0001
0000
,
1000
0000
0010
1000
0100
0000
0010
0001
0100
0000
0010
0000
1000
0000
0001
0100
,
0001
0100
0001
0100
0001
0100
0001
0100
0001
0010
0001
0010
0001
0010
0001
0010
,
1000
0001
0100
0001
0010
0001
0100
0001
1000
0001
0100
0001
0010
0100
1000
0100
,
0010
0001
0010
0000
0100
1000
0100
0010
0001
0000
0100
0000
1000
0010
0100
0001
,
0010
0000
0001
0010
0100
0000
0010
0100
1000
0000
0010
0000
1000
0010
0100
0001
,
0010
0000
0110
0000
0100
0001
1000
0001
0010
0000
0001
0010
0100
1000
0010
0000
,
0100
0000
1000
0010
0100
0000
0010
0100
0001
0000
0010
0000
1000
0100
0010
0001
,
0010
0100
1000
0000
0100
0000
1000
0010
0100
0000
0001
0000
0010
0000
0001
0010
,
0100
0000
0010
0100
1000
0000
0010
0000
1000
0000
0100
0001
0010
0000
0001
0100
,
0010
0100
1000
0001
0100
0010
0100
1000
0001
0100
0010
0100
1000
0010
0100
0010
,
0001
1000
0010
0100
0010
0001
1000
0010
0100
0010
0001
1000
0100
0010
0001
0100
,
0010
0000
1001
0000
0100
0001
1000
0000
0110
0000
1000
0010
0002
0000
0000
0000
,
2000
3003
0000
0000
;
