#VERSION:0.83;
#TITLE:My Favorite Things;
#SUBTITLE:;
#ARTIST:SLOTH MUSIC PROJECT feat.ALISON WADE;
#TITLETRANSLIT:;
#SUBTITLETRANSLIT:;
#ARTISTTRANSLIT:;
#GENRE:;
#ORIGIN:;
#CREDIT:;
#BANNER:My Favorite Things.png;
#BACKGROUND:My Favorite Things-bg.png;
#PREVIEWVID:;
#JACKET:My Favorite Things-jacket.png;
#CDIMAGE:;
#DISCIMAGE:;
#LYRICSPATH:;
#CDTITLE:;
#MUSIC:My Favorite Things.ogg;
#OFFSET:0.000000;
#SAMPLESTART:30.459999;
#SAMPLELENGTH:15.000000;
#SELECTABLE:YES;
#DISPLAYBPM:130.000000;
#BPMS:0.000=130.435,
3.000=130.003;
#STOPS:;
#DELAYS:;
#WARPS:;
#TIMESIGNATURES:0.000=4=4;
#TICKCOUNTS:0.000=4;
#COMBOS:0.000=1;
#SPEEDS:0.000=1.000=0.000=0;
#SCROLLS:0.000=1.000;
#FAKES:;
#LABELS:0.000=Song Start;
#BGCHANGES:;
#KEYSOUNDS:;
#ATTACKS:
;

//---------------dance-single - ----------------
#NOTEDATA:;
#CHARTNAME:;
#STEPSTYPE:dance-single;
#DESCRIPTION:;
#CHARTSTYLE:;
#DIFFICULTY:Beginner;
#METER:2;
#RADARVALUES:0.102052,0.178591,0.020410,0.000000,0.000000,70.000000,68.000000,2.000000,0.000000,0.000000,0.000000,0.000000,0.000000,0.000000,0.102052,0.178591,0.020410,0.000000,0.000000,70.000000,68.000000,2.000000,0.000000,0.000000,0.000000,0.000000,0.000000,0.000000;
#CREDIT:;
#DISPLAYBPM:130.000000;
#NOTES:
0000
0000
0000
0000
,
0000
0000
0000
0000
,
0000
0000
0000
0000
,
0000
0000
0000
0000
,
0000
0000
1000
0000
,
0000
1000
0000
0000
,
0010
0000
0000
0000
,
0000
0000
0001
0000
,
0000
0001
0000
0000
,
0010
0000
0000
0000
,
0000
0000
1000
0000
,
0000
1000
0000
0000
,
0001
0000
0000
0001
,
0000
0000
0010
0000
,
0000
0010
0000
0000
,
0100
0000
0000
0000
,
0000
0000
0001
0000
,
0001
0000
0010
0000
,
0000
0000
1000
0000
,
1000
0000
0010
0000
,
0000
0000
0001
0000
,
0001
0000
1000
0000
,
1000
0000
0010
0000
,
0010
0000
0100
0000
,
0000
0000
0000
0000
,
0000
0000
0000
0000
,
0000
0000
1000
0000
,
1000
0000
1000
0000
,
0010
0000
0001
0000
,
0001
0000
0001
0000
,
0010
0000
1000
1000
,
1000
0000
0001
0001
,
0001
0000
1000
0000
,
0100
0000
0001
0000
,
0010
0000
0001
0000
,
0001
1000
1000
0000
,
1000
0001
0001
0000
,
0001
1000
1000
0000
,
0000
0000
1000
0000
,
0100
0000
0000
0000
,
0000
0000
0001
0000
,
0100
0000
0000
0000
,
1000
0000
1001
0000
,
0000
0000
0000
0000
,
0000
0000
0100
0000
,
0000
0000
0001
0000
,
0000
0000
0100
0000
,
0000
0000
1000
0000
,
0000
0000
0100
0000
,
0001
0000
1000
0000
,
1001
0000
0000
0000
,
0000
0000
0000
0000
;

//---------------dance-single - ----------------
#NOTEDATA:;
#CHARTNAME:;
#STEPSTYPE:dance-single;
#DESCRIPTION:;
#CHARTSTYLE:;
#DIFFICULTY:Easy;
#METER:5;
#RADARVALUES:0.202647,0.331670,0.142873,0.000000,0.005103,139.000000,125.000000,14.000000,0.000000,0.000000,0.000000,0.000000,0.000000,0.000000,0.202647,0.331670,0.142873,0.000000,0.005103,139.000000,125.000000,14.000000,0.000000,0.000000,0.000000,0.000000,0.000000,0.000000;
#CREDIT:;
#DISPLAYBPM:130.000000;
#NOTES:
0000
0000
0000
0000
,
0000
0000
0000
0000
,
0000
0000
0000
0000
,
0000
0000
0000
0000
,
0000
0000
1000
0010
,
0000
0001
0100
0000
,
1000
0001
0000
0010
,
0100
0000
0001
0010
,
0000
1000
0100
0000
,
0001
1000
0000
0010
,
0100
0000
1000
0001
,
0000
0100
0010
0000
,
0100
1001
0000
0100
,
0000
0000
1000
1000
,
0000
0001
0001
0000
,
0010
0100
0000
1001
,
0000
0000
1000
0010
,
0000
0000
0001
0100
,
1001
0000
1000
0001
,
0000
0010
0100
0010
,
1001
0000
1000
0001
,
0100
0010
1000
0100
,
1001
0000
1000
0000
,
0001
0000
0010
0100
,
1001
0000
1000
0000
,
0010
0000
0100
0000
,
1001
0000
0001
0010
,
0000
0000
1000
0100
,
1001
0000
0001
1000
,
0000
0010
0100
0010
,
1001
0000
0000
0000
0001
1000
0001
0000
,
0100
0010
0100
0000
0010
0100
0010
0000
,
1001
0000
0001
0000
,
1000
0000
0010
0100
,
1001
1100
0001
0000
,
0001
1000
0010
0000
,
0010
0100
1000
0000
,
1000
0001
1000
0000
,
0000
0000
0000
0000
1000
0000
0000
0010
,
0001
0000
0000
0000
0001
0000
0000
0100
,
0010
0000
0000
0000
1000
0000
0000
0010
,
0001
0000
0000
0000
,
1000
0000
0001
0000
,
0100
0000
1000
0000
,
0100
0000
0001
0000
,
0100
0000
1000
0000
,
0100
0000
0000
0000
0001
0000
0000
0010
,
1000
0000
0000
0000
1000
0000
0000
0100
,
0010
0000
0000
0000
0001
0000
0000
0010
,
1000
0000
0000
0000
0000
0000
0000
0000
0100
0000
0000
0010
0000
0000
1001
0000
,
1001
0000
0000
0000
,
0000
0000
0000
0000
;

//---------------dance-single - ----------------
#NOTEDATA:;
#CHARTNAME:;
#STEPSTYPE:dance-single;
#DESCRIPTION:;
#CHARTSTYLE:;
#DIFFICULTY:Medium;
#METER:7;
#RADARVALUES:0.271167,0.331670,0.193899,0.081642,0.040821,186.000000,167.000000,19.000000,8.000000,0.000000,0.000000,0.000000,0.000000,0.000000,0.271167,0.331670,0.193899,0.081642,0.040821,186.000000,167.000000,19.000000,8.000000,0.000000,0.000000,0.000000,0.000000,0.000000;
#CREDIT:;
#DISPLAYBPM:130.000000;
#NOTES:
0000
0000
0000
0000
,
0000
0000
0000
0000
,
0000
0000
0000
0000
,
0000
0000
0000
0000
,
0000
0000
2000
0010
,
3010
0002
0100
0103
,
2000
0001
3001
0010
,
0100
0000
0002
0010
,
0013
2000
0100
3100
,
0002
1000
1003
0010
,
0100
0000
1000
0010
,
0001
1000
0100
0001
,
0001
0010
1000
0110
,
0000
0000
1000
1000
,
1000
0001
0001
0001
,
0010
0100
0010
1001
,
0000
0000
1000
0010
,
0010
0001
0100
0100
,
1001
0000
0001
0010
,
0010
1000
0100
0100
,
1001
0000
0000
0000
1000
0010
0001
0000
,
1000
0100
0001
0000
0001
0010
1000
0000
,
0110
0000
0000
0000
1000
1000
1000
0000
,
0001
0001
0001
0000
0010
0100
0010
0000
,
0101
0000
1000
0100
,
0001
0100
1000
0100
,
1001
0000
0001
0010
,
0010
1000
0100
0100
,
1001
0000
1000
0010
,
0010
0001
0100
0100
,
1001
0000
0000
0000
0001
0010
1000
0000
,
0001
0100
1000
0000
1000
0010
0001
0000
,
0110
0000
0000
0000
0001
0001
0001
0000
,
1000
1000
1000
0000
0010
0100
0010
0000
,
1010
0000
1100
0000
0000
0001
0000
0000
,
1000
0000
1001
0000
0000
0010
0000
0000
,
0100
0000
0110
0000
0000
1000
0000
0000
,
0001
1001
1000
0100
,
0001
0000
0000
0000
0000
0000
0000
0000
1000
0000
0000
1000
0000
0000
0010
0000
,
0001
0000
0000
0000
0000
0000
0000
0000
0001
0000
0000
0001
0000
0000
0100
0000
,
0010
0000
0000
0000
0000
0000
0000
0000
1000
0000
0000
0100
0000
0000
0010
0000
,
0000
0002
0000
0000
0000
0000
0000
0000
0000
0000
0000
0000
0000
0000
0000
0000
,
2003
0000
0001
0000
,
0100
0000
3001
0000
,
0100
0000
1000
0000
,
0100
0000
0001
0000
,
0100
0000
0000
0000
0000
0000
0000
0000
0001
0000
0000
0001
0000
0000
0010
0000
,
1000
0000
0000
0000
0000
0000
0000
0000
1000
0000
0000
1000
0000
0000
0100
0000
,
0010
0000
0000
0000
0000
0000
0000
0000
0001
0000
0000
0100
0000
0000
0010
0000
,
1000
0000
0000
0000
0000
0000
0000
0000
1001
0000
0000
1001
0000
0000
1100
0000
,
0101
0000
0000
0000
,
0000
0000
0000
0000
;

//---------------dance-single - ----------------
#NOTEDATA:;
#CHARTNAME:;
#STEPSTYPE:dance-single;
#DESCRIPTION:;
#CHARTSTYLE:;
#DIFFICULTY:Hard;
#METER:11;
#RADARVALUES:0.379051,0.510261,0.387799,0.346978,0.081642,260.000000,222.000000,38.000000,34.000000,0.000000,0.000000,0.000000,0.000000,0.000000,0.379051,0.510261,0.387799,0.346978,0.081642,260.000000,222.000000,38.000000,34.000000,0.000000,0.000000,0.000000,0.000000,0.000000;
#CREDIT:;
#DISPLAYBPM:130.000000;
#NOTES:
0000
0000
0000
0000
,
0000
0000
0000
0000
,
0000
0000
0000
0000
,
0000
0000
0000
0000
,
0000
0000
2100
0010
,
3010
0012
0100
0103
,
2100
0001
3001
0011
,
1100
0000
0102
0010
,
0013
2010
0100
3100
,
0102
1000
1003
1010
,
0101
0000
0020
2030
,
3200
0302
0023
1030
,
0101
0020
0031
2200
,
0000
3300
1000
1000
,
1100
0001
0001
0101
,
0020
2030
3001
2200
,
0000
0000
3300
0000
0002
0010
0000
1003
,
2000
0100
3000
0200
1000
0000
1300
0000
,
0001
0100
0000
0000
2000
0010
0000
3001
,
0002
0100
0003
0200
0001
0000
0301
0000
,
1000
0100
0000
0000
0100
1000
0100
0000
,
0010
0000
0101
0000
0100
0001
0010
0000
,
1100
0000
0000
0000
0100
0001
0100
0000
,
0010
0000
1100
0000
0100
1000
0010
0000
,
0101
0000
0000
0000
1000
0100
0001
0000
,
1000
0100
0001
0000
0010
0000
0001
0100
,
1000
0000
1001
0000
2000
0010
0000
3001
,
0002
0100
0000
0203
1000
0000
0301
0000
,
1000
0001
0000
0000
0002
0010
0000
1003
,
2000
0100
0000
3200
0001
0000
1300
0000
,
0001
1000
0000
0000
0100
0001
0100
0010
,
1000
0000
0101
0000
0100
1000
0010
0000
,
0101
0000
0000
0000
0100
1000
0100
0010
,
0001
0000
1100
0000
0100
0001
0010
0000
,
1100
0000
0101
0000
0000
1001
0000
0000
,
1000
0010
0001
0000
0000
1001
0000
0000
,
0001
0100
1000
0000
0000
1001
0000
0000
,
1001
1001
0101
0000
1000
0000
0100
0000
,
0001
0000
0000
0000
0000
0000
0001
0000
0001
0000
0000
0100
0000
0000
1000
0000
,
0100
0000
0000
0001
0000
0000
0010
0000
0010
0000
0000
1000
0000
0000
0001
0000
,
0100
0000
0000
0000
1000
0000
0000
0000
0001
0000
0000
0010
0000
0000
0100
0000
,
0000
0022
0000
0000
0000
0000
0000
0000
0000
0000
0000
0000
0033
0000
0000
0000
,
2200
0000
3300
0000
0001
0100
1000
0100
,
0001
0000
0100
0000
0110
0100
0010
0000
1000
0000
0100
0000
0001
0000
0100
0000
,
1000
0000
0100
0000
0010
0100
0010
0000
0100
0000
1000
0000
0010
0000
1000
0000
,
0100
0000
1000
0000
0001
1000
0001
0000
0010
0000
0001
0000
0100
0000
0001
0000
,
0010
0000
0001
0000
1000
0001
1000
0000
0010
0000
0000
1000
0000
0000
0100
0000
,
0001
0000
0000
0010
0000
0000
1000
0000
0001
0000
0000
0100
0000
0000
1000
0000
,
0010
0000
0000
0001
0000
0000
0100
0000
0010
0000
0000
0010
0000
0000
0100
0000
,
0010
0000
0000
0010
0000
0000
0100
0000
1001
0000
0000
1001
0000
0000
1100
0000
,
0101
0000
0000
0000
,
0000
0000
0000
0000
;

//---------------dance-double - ----------------
#NOTEDATA:;
#CHARTNAME:;
#STEPSTYPE:dance-double;
#DESCRIPTION:;
#CHARTSTYLE:;
#DIFFICULTY:Easy;
#METER:5;
#RADARVALUES:0.201189,0.306157,0.122463,0.000000,0.005103,138.000000,126.000000,12.000000,0.000000,0.000000,0.000000,0.000000,0.000000,0.000000,0.201189,0.306157,0.122463,0.000000,0.005103,138.000000,126.000000,12.000000,0.000000,0.000000,0.000000,0.000000,0.000000,0.000000;
#CREDIT:;
#DISPLAYBPM:130.000000;
#NOTES:
00000000
00000000
00000000
00000000
,
00000000
00000000
00000000
00000000
,
00000000
00000000
00000000
00000000
,
00000000
00000000
00000000
00000000
,
00000000
00000000
00000100
00000010
,
00000000
00000001
00000100
00000000
,
00001000
00000100
00000000
00010000
,
00001000
00000000
01000000
00100000
,
00000000
10000000
01000000
00000000
,
00010000
01000000
00000000
00001000
,
00010000
00000000
10000000
00100000
,
00000000
01000000
00010000
00000000
,
00001000
00010000
00000000
00000100
,
00000000
00000000
00000001
00000010
,
00000000
00000100
00001000
00000000
,
00010000
00001000
00000000
01000000
,
00000000
00000000
10000000
00100000
,
00000000
00000000
00010000
00000100
,
00001000
00000000
00000001
00000010
,
00000000
00000100
00001000
01000000
,
00010000
00000000
10000000
01000000
,
00010000
11000000
00010000
00001000
,
00000100
00000000
00001000
00000000
,
00000101
00000000
00001000
00010000
,
01000000
00000000
10000000
00000000
,
01000000
00000000
00010000
00000000
,
01000000
00000000
01000000
00100000
,
00000000
01000000
00010000
00001000
,
00010000
00000000
00000100
00000010
,
00000000
00000100
00001000
00010000
,
00001000
00000000
00000000
00000000
00010000
00100000
00010000
00000000
,
01000000
00010000
01000000
00000000
00001000
00010000
00001000
00000000
,
00000101
00000000
00000010
00000000
,
00010000
00000000
00100000
00010000
,
00001000
00000100
00000001
00000000
,
00000110
00001001
00000100
00000000
,
00001100
00010100
01000000
00000000
,
01100000
10010000
10010000
00000000
,
00000000
00000000
00000000
00000000
10000000
00000000
00000000
10000000
,
01000000
00000000
00000000
00000000
00010000
00000000
00000000
00010000
,
00001000
00000000
00000000
00000000
00000010
00000000
00000000
00000010
,
00000001
00000000
00000000
00000000
,
00001001
00000000
00000010
00000000
,
00000001
00000000
00001000
00000000
,
00000100
00000000
00010000
00000000
,
00001000
00000000
00100000
00000000
,
00010000
00000000
00000000
00000000
10000000
00000000
00000000
01000000
,
00100000
00000000
00000000
00000000
00010000
00000000
00000000
00001000
,
00000100
00000000
00000000
00000000
00000010
00000000
00000000
00000100
,
00000001
00000000
00000000
00000000
00000000
00000000
00000000
00000000
00000010
00000000
00000000
00001000
00000000
00000000
00010000
00000000
,
00011000
00000000
00000000
00000000
,
00000000
00000000
00000000
00000000
;

//---------------dance-double - ----------------
#NOTEDATA:;
#CHARTNAME:;
#STEPSTYPE:dance-double;
#DESCRIPTION:;
#CHARTSTYLE:;
#DIFFICULTY:Medium;
#METER:8;
#RADARVALUES:0.274083,0.331670,0.204105,0.081642,0.035718,188.000000,168.000000,20.000000,8.000000,0.000000,0.000000,0.000000,0.000000,0.000000,0.274083,0.331670,0.204105,0.081642,0.035718,188.000000,168.000000,20.000000,8.000000,0.000000,0.000000,0.000000,0.000000,0.000000;
#CREDIT:;
#DISPLAYBPM:130.000000;
#NOTES:
00000000
00000000
00000000
00000000
,
00000000
00000000
00000000
00000000
,
00000000
00000000
00000000
00000000
,
00000000
00000000
00000000
00000000
,
00000000
00000000
00002000
00000010
,
00003010
00000002
00000100
00000103
,
00002000
00000100
00003100
00010000
,
00001000
00000000
00020000
00100000
,
00130000
20000000
01000000
31000000
,
00020000
01000000
01030000
00001000
,
00010000
00000000
00100000
00010000
,
00001000
00010000
00001000
00000100
,
00000001
00000010
00001000
01010000
,
00000000
00000000
10000000
10000000
,
10000000
00010000
00010000
00010000
,
00001000
00000010
00001000
00000101
,
00000000
00000000
00001000
00000010
,
00000010
00000001
00000100
00000100
,
00001100
00000000
00010000
00100000
,
00100000
10000000
01000000
01000000
,
01010000
00000000
00000000
00000000
00100000
00010000
00001000
00000000
,
00010000
00001000
00000100
00000000
00000001
00000010
00001000
00000000
,
01010000
00000000
00000000
00000000
10000000
10000000
10000000
00000000
,
00010000
00010000
00010000
00000000
00001000
00000010
00001000
00000000
,
00000101
00000000
00001000
00000100
,
00000001
00000100
00001000
00010000
,
01000000
10000000
00010000
00100000
,
00100000
10000000
01000000
01000000
,
01010000
00000000
00001000
00000010
,
00000010
00000001
00000100
00000100
,
00001100
00000000
00000000
00000000
00000010
00001000
00010000
00000000
,
00001000
00010000
01000000
00000000
10000000
00100000
00010000
00000000
,
00001100
00000000
00000000
00000000
00000001
00000001
00000001
00000000
,
00001000
00001000
00001000
00000000
00010000
00100000
00010000
00000000
,
10100000
00000000
01010000
00000000
00000000
00001000
00000000
00000000
,
00101000
00000000
00011000
00000000
00000000
00010000
00000000
00000000
,
00010010
00000000
00011000
00000000
00000000
00100000
00000000
00000000
,
00010000
10010000
10000000
01000000
,
00010000
00000000
00000000
00000000
00000000
00000000
00000000
00000000
00010000
00000000
00000000
00010000
00000000
00000000
00001000
00000000
,
00000100
00000000
00000000
00000000
00000000
00000000
00000000
00000000
00000001
00000000
00000000
00000001
00000000
00000000
00000010
00000000
,
00001000
00000000
00000000
00000000
00000000
00000000
00000000
00000000
00000100
00000000
00000000
00001000
00000000
00000000
00010000
00000000
,
00200000
00000000
00000000
00000000
,
20300000
00000000
00010000
00000000
,
01000000
00000000
30010000
00000000
,
00100000
00000000
00010000
00000000
,
00001000
00000000
00000010
00000000
,
00000100
00000000
00000000
00000000
00000000
00000000
00000000
00000000
00010000
00000000
00000000
00010000
00000000
00000000
00001000
00000000
,
01000000
00000000
00000000
00000000
00000000
00000000
00000000
00000000
10000000
00000000
00000000
10000000
00000000
00000000
00010000
00000000
,
01000000
00000000
00000000
00000000
00000000
00000000
00000000
00000000
00001000
00000000
00000000
00001000
00000000
00000000
01000000
00000000
,
00010000
00000000
00000000
00000000
00000000
00000000
00000000
00000000
00011000
00000000
00000000
00001100
00000000
00000000
00000101
00000000
,
00001001
00000000
00000000
00000000
,
00000000
00000000
00000000
00000000
;

//---------------dance-double - ----------------
#NOTEDATA:;
#CHARTNAME:;
#STEPSTYPE:dance-double;
#DESCRIPTION:;
#CHARTSTYLE:;
#DIFFICULTY:Hard;
#METER:11;
#RADARVALUES:0.371762,0.484748,0.326567,0.367388,0.081642,255.000000,223.000000,32.000000,36.000000,0.000000,0.000000,0.000000,0.000000,0.000000,0.371762,0.484748,0.326567,0.367388,0.081642,255.000000,223.000000,32.000000,36.000000,0.000000,0.000000,0.000000,0.000000,0.000000;
#CREDIT:;
#DISPLAYBPM:130.000000;
#NOTES:
00000000
00000000
00000000
00000000
,
00000000
00000000
00000000
00000000
,
00000000
00000000
00000000
00000000
,
00000000
00000000
00000000
00000000
,
00000000
00000000
00002100
00000010
,
00003010
00000012
00000100
00000103
,
00001200
00010000
00010300
00010010
,
00011000
00000000
01020000
00100000
,
00130000
20100000
01000000
31000000
,
02010000
00001000
03001000
00101000
,
00011000
00000000
00002000
00003020
,
00000032
00002003
00003002
00000203
,
00002300
00203000
00320000
02030000
,
00010000
03010000
00001000
00001000
,
00001000
00000100
00000100
00000100
,
00000020
00000032
00001003
00000202
,
00000000
00000000
00000303
00000000
00002000
00000010
00000000
00003001
,
00000002
00000100
00000000
00000203
00001000
00000000
00001300
00000000
,
00010000
00001000
00000000
00000000
00020000
00100000
00000000
10030000
,
20000000
01000000
00000000
32000000
00010000
00000000
03010000
00000000
,
00001000
00010000
00000000
00000000
00001000
00010000
00001000
00000000
,
00000010
00000000
00000101
00000000
00001000
00010000
00100000
00000000
,
11000000
00000000
00000000
00000000
00010000
00001000
00010000
00000000
,
00100000
00000000
11000000
00000000
00010000
00001000
00000010
00000000
,
00000101
00000000
00001000
00000000
,
00010000
00000000
00000000
00000000
00001000
00010000
00100000
10000000
,
00010000
00000000
01000000
00000000
00020000
00100000
00000000
10030000
,
20000000
01000000
00000000
32000000
10000000
00000000
03010000
00000000
,
00001000
00010000
00000000
00000000
00002000
00000010
00000000
00003001
,
00000002
00000100
00000000
00000203
00000001
00000000
00001300
00000000
,
00010000
00001000
00000000
00000000
00010000
00001000
00010000
00100000
,
10000000
00000000
11000000
00000000
00010000
00001000
00000010
00000000
,
00001100
00000000
00000101
00000000
00001000
00010000
00001000
00000010
,
00000001
00000000
00000101
00000000
00001000
00010000
00100000
00000000
,
11000000
00000000
01010000
00000000
00000000
00011000
00000000
00000000
,
00001000
00000100
00000001
00000100
00000000
00011000
00000000
00000000
,
00010000
01000000
10000000
01000000
00000000
00011000
00000000
00000000
,
00011000
00001100
00000001
00000100
,
00001000
00000000
00000000
00000000
00000000
00000000
00010000
00000000
00010000
00000000
00000000
01000000
00000000
00000000
10000000
00000000
,
01000000
00000000
00000000
00010000
00000000
00000000
00001000
00000000
00001000
00000000
00000000
00000100
00000000
00000000
00000001
00000000
,
00000100
00000000
00000000
00000000
00001000
00000000
00000000
00000000
00010000
00000000
00000000
00100000
00000000
00000000
01000000
00000000
,
00000000
00220000
00000000
00000000
00000000
00000000
00000000
00000000
00000000
00000000
00000000
00000000
00330000
00000000
00000000
00000000
,
00022000
00000000
00033000
00000000
00001000
00000100
00000001
00000100
,
00001000
00000000
00000100
00000000
00000010
00000100
00000010
00000000
00001000
00000000
00010000
00000000
00100000
00000000
00010000
00000000
,
00001000
00000000
00010000
00000000
00001000
00010000
00001000
00000000
00010000
00000000
01000000
00000000
10000000
00000000
01000000
00000000
,
00010000
00000000
01000000
00000000
00100000
01000000
00100000
00000000
00010000
00000000
00001000
00000000
00000010
00000000
00001000
00000000
,
00010000
00000000
00001000
00000000
00010000
00001000
00010000
00000000
00100000
00000000
00000000
10000000
00000000
00000000
01000000
00000000
,
00010000
00000000
00000000
00001000
00000000
00000000
00000100
00000000
00000001
00000000
00000000
00000010
00000000
00000000
00000100
00000000
,
00001000
00000000
00000000
00010000
00000000
00000000
01000000
00000000
00100000
00000000
00000000
00100000
00000000
00000000
01000000
00000000
,
00100000
00000000
00000000
00100000
00000000
00000000
01000000
00000000
10010000
00000000
00000000
10010000
00000000
00000000
01010000
00000000
,
00011000
00000000
00000000
00000000
,
00000000
00000000
00000000
00000000
;

//---------------dance-single - ----------------
#NOTEDATA:;
#CHARTNAME:;
#STEPSTYPE:dance-single;
#DESCRIPTION:;
#CHARTSTYLE:;
#DIFFICULTY:Challenge;
#METER:14;
#RADARVALUES:0.645845,0.895190,0.346978,0.438825,0.755187,443.000000,409.000000,34.000000,43.000000,0.000000,0.000000,0.000000,0.000000,0.000000,0.645845,0.895190,0.346978,0.438825,0.755187,443.000000,409.000000,34.000000,43.000000,0.000000,0.000000,0.000000,0.000000,0.000000;
#CREDIT:;
#DISPLAYBPM:130.000000;
#NOTES:
// measure 0
0000
0000
0000
0000
,  // measure 1
0000
0000
0000
0000
,  // measure 2
0000
0000
0000
0000
,  // measure 3
0000
0000
0000
0000
,  // measure 4
0000
0000
0000
0000
0000
0000
0000
0000
1000
0000
0000
1000
0100
0000
0000
0100
,  // measure 5
0020
0000
0000
0000
0031
0000
0000
0001
0100
0000
0000
0100
0020
0000
0000
0000
,  // measure 6
1030
0000
0000
1000
0001
0000
0000
0001
0200
0000
0000
0000
0310
0000
0001
0010
,  // measure 7
0100
1000
0100
0010
0001
0000
0010
0000
0100
0000
0000
0100
0010
0000
0000
0010
,  // measure 8
2000
0000
0000
0000
3100
0000
0000
0100
0010
0000
0000
0010
0002
0000
0000
0000
,  // measure 9
0103
0000
0000
0100
0010
0000
0000
0010
0200
0000
0000
0000
0310
0000
0001
0000
,  // measure 10
0100
0000
0010
0000
1000
0000
0001
0000
0010
0000
0000
0010
0001
0000
0000
0001
,  // measure 11
0100
0020
2030
3200
,  // measure 12
0301
0000
0000
0001
0010
0000
0000
0010
0100
0000
0000
0000
2000
0000
0100
0000
,  // measure 13
0200
3300
0101
1010
,  // measure 14
1100
0000
0000
0000
0011
0000
0010
0001
0010
0000
0001
0000
0002
0000
0000
0000
,  // measure 15
0023
0230
0302
0200
,  // measure 16
0000
0000
0000
0000
0303
0000
0000
0000
1010
0000
1000
0001
1000
0000
0101
0000
,  // measure 17
0100
0000
0010
0100
0010
0000
1100
0000
1000
0000
0001
0100
0001
0000
0100
0010
,  // measure 18
0200
0000
0320
0000
1000
0000
1030
0000
1001
0000
0001
0100
0001
0000
0011
0000
,  // measure 19
0010
0000
0100
0010
0100
0000
1100
0000
1000
0000
0001
1000
0001
0000
0100
0001
,  // measure 20
0200
0000
0302
0000
1000
0000
1003
0000
0001
0000
0010
0001
0000
0001
0100
0000
,  // measure 21
0010
0000
1000
0100
0000
0100
1000
0000
0010
0000
0100
0010
0000
0010
0100
0000
,  // measure 22
0010
0001
0100
0001
1000
0100
0010
0001
0100
0000
0000
0110
0000
0000
0101
0000
,  // measure 23
0001
0000
0000
1100
0000
0000
0101
0000
0002
0000
0000
0100
0000
0000
1000
0000
,  // measure 24
0013
1000
0001
1000
0100
0010
1000
0001
0010
0100
1000
0001
0100
0000
0010
1000
,  // measure 25
0100
0000
0020
0000
0000
0000
0130
0000
0010
0000
0001
0100
0010
1000
0001
0010
,  // measure 26
0100
1000
0100
0010
0001
0100
0010
1000
0020
0000
0000
0130
0000
0000
0101
0000
,  // measure 27
0200
0000
0000
0310
0000
0000
1010
0000
0002
0000
0000
0013
0000
0000
0101
0000
,  // measure 28
2000
0000
0000
3001
0000
0001
1000
0000
0200
0000
0000
0310
0000
0010
0100
0000
,  // measure 29
0020
0000
0000
0130
0000
0100
0010
0000
2000
0000
0000
3100
0000
0100
1000
0000
,  // measure 30
0002
0000
0000
0013
0000
0010
0001
0000
0100
0000
0010
0100
0010
0000
1000
0000
,  // measure 31
0001
0000
0100
0001
0100
0000
0010
0000
1000
0000
0001
0010
0001
0000
0100
0000
,  // measure 32
0010
0100
0001
0010
1000
0100
0010
0001
0100
0000
0000
1001
0000
0000
0110
0000
,  // measure 33
0010
0000
0000
0101
0000
0000
1100
0000
1000
0000
0000
0011
0000
0000
0101
0000
,  // measure 34
0001
0000
0010
0100
1000
0100
0010
0001
0010
0000
0200
0000
0000
0000
1000
0000
,  // measure 35
0301
0000
1000
0000
0001
0010
0100
1000
0010
0000
0020
0000
0000
0000
0001
0000
,  // measure 36
1030
0000
0100
0000
1000
0100
0010
0001
0100
0000
2000
0000
0000
0000
3100
0000
,  // measure 37
0002
0013
0110
1010
,  // measure 38
1100
0000
0000
0000
0101
0000
0001
0100
0001
0000
0010
0001
0000
0001
0010
0000
,  // measure 39
0100
0000
1000
0100
0000
0100
1000
0100
0010
0000
0000
0011
0000
0000
0101
0000
,  // measure 40
0200
0000
0000
0000
0310
0000
0100
0010
0200
0000
0000
0010
0000
0000
1300
0000
,  // measure 41
2200
3300
0202
0303
,  // measure 42
0201
0000
0000
0000
1000
0000
0000
0000
0310
0001
0100
0010
1000
0100
0010
0001
,  // measure 43
0100
0000
0010
0000
1000
0000
0100
0000
0010
0001
0010
0000
0001
0000
0100
0000
0010
0000
1000
0000
0100
0000
0010
0000
0001
0000
0100
0000
0010
0000
1000
0000
,  // measure 44
0001
0000
0010
0000
0100
0000
1000
0000
0100
0010
0100
0000
0010
0000
0001
0000
0010
0000
0100
0000
0001
0000
0100
0000
0010
0000
1000
0000
0100
0000
0010
0000
,  // measure 45
0001
0000
0100
0000
0010
0000
1000
0000
0100
0010
0100
0000
0010
0000
0001
0000
0100
0000
0010
0000
1000
0000
0100
0000
0010
0000
0001
0000
0100
0000
1000
0000
,  // measure 46
0100
0000
0001
0000
0010
0000
0100
0000
1000
0010
1000
0000
0010
0000
0100
0000
0001
0000
0000
0000
0010
0000
0100
0000
0000
0000
0100
0000
1000
0000
0001
0000
,  // measure 47
1000
0000
0010
0100
0000
0100
0010
0001
0100
0000
0010
0100
0000
0100
0010
1000
,  // measure 48
0100
0000
0010
0001
0000
0001
0100
0010
1000
0000
0001
0100
0000
0100
1100
0000
,  // measure 49
1000
0000
0001
0100
0000
0100
1000
0000
1000
0000
0001
0100
0000
0100
0001
0000
,  // measure 50
0202
0303
0000
0000
0000
0000
0000
0000
;
