#TITLE:Mr.T. (take me higher);
#SUBTITLE:;
#ARTIST:Risky Men feat. Asuka M;
#TITLETRANSLIT:;
#SUBTITLETRANSLIT:;
#ARTISTTRANSLIT:;
#GENRE:;
#CREDIT:;
#BANNER:Mr.T. (take me higher).png;
#BACKGROUND:Mr.T. (take me higher)-bg.png;
#LYRICSPATH:;
#CDTITLE:;
#MUSIC:Mr.T. (take me higher).ogg;
#OFFSET:0.000000;
#SAMPLESTART:53.654999;
#SAMPLELENGTH:15.000000;
#SELECTABLE:YES;
#DISPLAYBPM:128.000000;
#BPMS:0.000000=127.396004
,4.000000=128.091995
;
#STOPS:
;
#BGCHANGES:;
#KEYSOUNDS:;
#ATTACKS:;

//---------------dance-single - ----------------
#NOTES:
     dance-single:
     :
     Beginner:
     3:
     0.144206,0.203775,0.160379,0.018868,0.000000,107.000000,90.000000,17.000000,2.000000,0.000000,0.000000,0.144206,0.203775,0.160379,0.018868,0.000000,107.000000,90.000000,17.000000,2.000000,0.000000,0.000000:
0000
0000
0000
0000
,
0000
0000
0000
0000
,
0000
0000
0000
0000
,
1001
0000
0000
0000
,
0000
0000
0000
0000
,
1000
0000
0100
0000
,
0001
0000
0100
0000
,
1000
0000
0100
0000
,
1001
0000
1001
0000
,
0010
0000
0100
0000
,
0010
0000
0100
0000
,
0010
0000
0100
0000
,
0110
0000
0110
0000
,
1000
0000
0000
0000
,
1000
0000
0000
0000
,
1000
0000
0100
0000
,
0001
0000
0001
0000
,
0001
0000
0000
0000
,
0001
0000
0000
0000
,
0010
0000
0100
0000
,
1000
0000
1000
0000
,
1001
0000
0000
0000
,
0010
0000
0100
0000
,
0001
0000
0010
0000
,
1000
0000
0100
0000
,
1001
0000
0000
0000
,
1001
0000
0000
0000
,
0010
0000
0100
0000
,
0010
0000
0100
0100
,
0100
0100
0100
0100
,
0100
0000
0000
0000
,
0010
0000
0001
0000
,
0010
0000
1001
0000
,
0010
0010
0010
0010
,
0010
0000
0000
0000
,
1000
0000
0100
0000
,
0001
0000
1001
0000
,
0100
0100
0100
0100
,
0100
0000
0000
0000
,
0010
0000
0001
0000
,
0010
0000
1001
0000
,
0010
0010
0010
0010
,
0010
0000
0000
0000
,
1000
0000
0100
0000
,
0001
0000
1001
0000
,
1000
0000
0000
0000
,
0100
0000
0000
0000
,
0001
0000
0000
0000
,
1001
0000
1001
0000
,
1000
0000
0000
0000
,
0010
0000
0000
0000
,
0001
0000
0000
0000
,
1001
0000
0110
0000
,
2002
0000
0000
0000
,
3003
0000
0000
0000
;

//---------------dance-single - ----------------
#NOTES:
     dance-single:
     :
     Easy:
     4:
     0.163074,0.229247,0.009434,0.018868,0.000000,121.000000,120.000000,1.000000,2.000000,0.000000,0.000000,0.163074,0.229247,0.009434,0.018868,0.000000,121.000000,120.000000,1.000000,2.000000,0.000000,0.000000:
0000
0000
0000
0000
,
0000
0000
0000
0000
,
0000
0000
0000
0000
,
1000
0000
0001
0001
,
0100
0000
0001
0001
,
1000
0000
0001
0000
,
0100
0000
0001
0000
,
1000
0000
0100
0000
,
1000
0000
0010
0000
,
0100
0000
0001
0001
,
0010
0000
0100
0100
,
1000
0000
0001
0001
,
1000
0100
0010
0001
,
1000
0000
0000
0000
,
1000
0000
0000
0000
,
0010
0010
1000
0010
,
0100
0100
0001
0100
,
0001
0000
0000
0000
,
0001
0000
0000
0000
,
1000
1000
0001
0100
,
0010
0010
1000
0001
,
1000
0000
0000
0000
,
1000
0000
0010
0000
,
0100
0000
0000
0000
,
0001
0000
1000
0000
,
0001
0001
0001
0000
,
0100
0000
0100
0000
,
0001
0001
0001
0000
,
1000
0000
0100
0000
,
1000
0000
0000
0000
,
0001
0010
0100
1000
,
0001
0000
0000
0000
,
1000
0100
0010
0001
,
1000
0000
0000
0000
,
0010
0000
1000
1000
,
0001
0000
0000
0000
,
0100
0000
0001
0001
,
1000
0000
0000
0000
,
0001
0100
0010
1000
,
0001
0000
0000
0000
,
1000
0010
0100
0001
,
1000
0000
0000
0000
,
0100
0000
1000
1000
,
0001
0000
0000
0000
,
0010
0000
0001
0001
,
1000
0000
0010
0100
,
0001
0000
1000
0100
,
1000
0000
0001
0000
,
0100
0000
0010
0000
,
1000
0001
1000
0100
,
0010
0001
0010
0100
,
1000
0000
0000
0000
,
1000
0000
0000
0000
,
2002
0000
0000
0000
,
3003
0000
0000
0000
;

//---------------dance-single - ----------------
#NOTES:
     dance-single:
     :
     Medium:
     7:
     0.307281,0.356607,0.179247,0.018868,0.000000,228.000000,209.000000,19.000000,2.000000,0.000000,0.000000,0.307281,0.356607,0.179247,0.018868,0.000000,228.000000,209.000000,19.000000,2.000000,0.000000,0.000000:
0000
0000
0000
0000
,
0000
0000
0000
0000
,
0000
0000
0000
0000
,
0001
0000
0100
0001
,
1000
0000
0010
1000
,
0001
1001
0100
0100
,
1000
1001
0010
0010
,
1000
1010
0001
0100
,
0001
0001
0001
1000
,
0001
0011
0001
0010
,
0100
1100
0100
1000
,
0001
1001
0010
0100
,
0001
0001
1000
1000
,
0001
0000
0000
0000
0100
1000
0100
0000
,
0010
0000
0000
0000
0100
1000
0100
0000
,
0001
0000
0001
0000
,
1000
0100
0010
0001
,
0100
0000
0000
0000
0001
0010
0001
0000
,
1000
0000
0000
0000
0010
0100
0010
0000
,
1000
0000
1000
0000
,
0001
0010
0100
1000
,
0001
0000
0100
0000
0010
1000
0010
0000
,
0100
0000
0100
0000
0001
0010
0100
0000
,
1000
1000
1000
1000
,
0010
1000
0001
0000
0010
0100
1000
0000
,
0010
0000
0100
0000
0001
0010
0100
0000
,
1000
0000
0001
0000
0100
1000
0100
0000
,
0001
0001
0001
0001
,
0100
0001
1000
0000
0100
0010
0001
0000
,
1000
1100
0010
0011
,
0001
1000
0010
0000
0100
0000
0100
0000
,
0001
1000
0010
1000
,
0001
0001
0010
0001
,
1000
1010
0100
0101
,
0001
1000
0100
0000
0010
0000
0010
0000
,
0001
1000
0100
0010
,
0100
0100
1000
0001
,
0100
0100
0001
0000
0100
0000
0101
0000
,
1000
1000
0100
0000
0010
0000
0110
0000
,
1000
1000
1000
1001
,
0010
1000
0010
1010
,
0001
0001
1000
0000
0001
0000
1001
0000
,
0010
0010
0001
0000
1000
0000
1010
0000
,
0100
0100
0100
0101
,
1000
0100
0010
0011
,
1000
0000
1000
0000
,
0010
1000
0100
0010
,
0001
0000
0001
0000
,
0001
0100
1000
0000
0100
0001
0010
0000
,
0001
0000
0001
0000
,
1000
0010
0100
0001
,
1000
0100
0001
0000
0100
1000
0010
0000
,
0100
1000
0100
0000
0001
0010
0100
0000
,
2002
0000
0000
0000
,
3003
0000
0000
0000
;

//---------------dance-single - ----------------
#NOTES:
     dance-single:
     :
     Hard:
     11:
     0.443400,0.483967,0.179247,0.018868,0.018868,329.000000,310.000000,19.000000,2.000000,0.000000,0.000000,0.443400,0.483967,0.179247,0.018868,0.018868,329.000000,310.000000,19.000000,2.000000,0.000000,0.000000:
0000
0000
0000
0000
,
0000
0000
0000
0000
,
0000
0000
0000
0000
,
1000
0000
0010
0000
1000
0100
0000
0010
,
0001
0100
1000
0000
0100
0001
0010
0000
,
0011
0100
1000
1000
,
1001
0000
0100
0000
0010
1000
0010
0000
,
1010
0000
0100
0000
0001
0010
0001
0000
,
1000
1000
1001
0000
0001
0001
1001
0000
,
1010
0000
0100
0000
0010
1000
0010
0000
,
1010
0000
0100
0000
0010
0100
0010
0000
,
0110
0000
0100
0000
0001
0100
1000
0000
,
0100
0100
0110
0000
1000
1000
1001
0000
,
1000
0010
0100
0001
0010
0100
1000
0000
,
0001
0001
0100
0010
1000
0100
0010
0000
,
0001
0001
0000
0000
0100
0100
0000
0000
,
1000
0000
0100
0000
0001
1000
0100
0000
,
0010
0100
0010
0100
1000
0010
0100
0000
,
0001
0001
0010
0100
1000
0010
0100
0000
,
0001
0001
0000
0000
1000
1000
0000
0000
,
0001
0000
0010
0000
0100
0001
0100
0000
,
1000
0000
0100
0000
0010
0001
1000
0000
,
0100
0100
0100
0000
0001
0100
1000
0000
,
0010
1000
0010
0100
0010
0010
1000
0000
,
0001
0010
0001
1000
0001
0100
1000
0000
,
0100
0000
0100
0000
0010
1000
0100
0000
,
0010
0010
0010
0000
0001
0100
1000
0000
,
0100
0010
1000
0100
0010
0010
0001
0000
,
1000
0010
1000
0001
1000
0100
1000
0000
,
0010
1000
0010
1000
0010
1000
0100
0001
,
0100
0010
0100
0010
0100
0010
0001
1000
,
1001
0000
1000
0000
0100
0100
1100
0000
,
0001
0100
1000
0000
0100
0100
0101
0000
,
0010
0100
0010
0100
0010
0100
0001
0010
,
0100
1000
0100
1000
0100
1000
0100
0010
,
0110
0000
0100
0000
1000
1000
1001
0000
,
1000
0100
0001
0000
0100
0100
0110
0000
,
1000
0000
0010
0100
0001
0000
0001
0000
,
0010
0100
1000
0000
0001
0010
0100
0000
,
0001
0001
0100
0000
1000
0100
1000
0000
,
0001
0100
1000
0100
0001
0000
0001
0000
,
1000
0000
0100
0010
0001
0000
0001
0000
,
0100
0010
1000
0000
0001
0100
0010
0000
,
1000
1000
0100
0000
1000
0010
1000
0000
,
0001
0010
0100
0010
0001
0000
0001
0000
,
1000
0000
0100
1000
0100
0000
0010
0000
0001
0000
1000
0000
0001
0000
0100
0000
,
0010
0000
1000
0010
1000
0000
0001
0000
0010
0000
0001
0000
1000
0000
0100
0000
,
0010
0001
0010
0001
0100
0001
0010
0000
,
0001
0001
1001
0000
1000
1000
1001
0000
,
0001
0000
0100
0001
0100
0000
0010
0000
1000
0000
0001
0000
1000
0000
0100
0000
,
0010
0000
0001
0010
0001
0000
1000
0000
0010
0000
1000
0000
0001
0000
0100
0000
,
0010
0010
1000
0000
0001
0001
0100
0000
,
0010
1000
0100
0000
0010
0001
0100
0000
,
2002
0000
0000
0000
,
3003
0000
0000
0000
;

//---------------dance-double - ----------------
#NOTES:
     dance-double:
     :
     Easy:
     3:
     0.210245,0.325003,0.330192,0.000000,0.000000,156.000000,121.000000,35.000000,0.000000,0.000000,0.000000,0.210245,0.325003,0.330192,0.000000,0.000000,156.000000,121.000000,35.000000,0.000000,0.000000,0.000000:
00000000
00000000
00000000
00000000
,
00000000
00000000
00000000
00000000
,
00000000
00000000
00000000
00000000
,
00010000
00000000
00000000
00000000
,
00000100
00000000
00010000
00010000
,
00010000
00011000
00000000
00000000
,
00000100
00001100
00000000
00000000
,
00000010
00011000
00000000
00000000
,
00001000
00001000
01000000
01000000
,
00010000
01010000
00000000
00000000
,
00001000
00011000
00000000
00000000
,
00000100
00001100
00000000
00000000
,
00000010
00010000
00001000
01000000
,
00010000
00000000
10000000
00000000
,
10000000
00000000
01000000
00000000
,
00100000
00000000
00001000
00000000
,
00010000
00000000
00000010
00000010
,
00000100
00000000
00000001
00000000
,
00000001
00000000
00000010
00000000
,
00000100
00000000
00010000
00000000
,
00001000
00000000
01000000
01000000
,
10010000
00000000
01000000
01000000
,
00001000
00010000
00001000
00100000
,
00110000
00000000
00001000
00001000
,
00010000
00001000
00010000
00000100
,
00001100
00001100
00001001
00000000
,
00000010
00000000
00000100
00000000
,
00000010
00000000
00010000
00000000
,
00001000
00000000
00000000
00000000
,
00011000
00000000
00000000
00000000
,
00011000
00000000
01000000
00000000
,
00010000
00010000
01000000
01000000
,
00100000
00000000
10000000
00000000
,
10010000
00000000
00000000
00000000
,
10010000
00000000
01000000
00000000
,
00001000
00001000
00010000
00010000
,
00000010
00000000
00001000
00000000
,
00001001
00000000
00000000
00000000
,
00000101
00000101
00001001
00000000
,
00000100
00001001
00000100
00001001
,
00001000
00000000
00001000
00000000
,
00001100
00000000
00000000
00000000
,
00011000
00011000
00110000
00000000
,
00010000
10010000
10000000
10010000
,
01000000
00000000
00001000
00000000
,
00010000
00000000
00000100
00000000
,
00000101
00000000
00000000
00000000
,
00001001
00000000
00000000
00000000
,
00001010
00000000
00000000
00000000
,
00011000
00000000
00000000
00000000
,
00011000
00010000
00001000
01000000
,
10010000
00010000
01000000
00001000
,
00011000
00001000
00010000
00001000
,
00011000
00000000
00000000
00000000
,
00000000
00000000
00000000
00000000
;

//---------------dance-double - ----------------
#NOTES:
     dance-double:
     :
     Medium:
     5:
     0.314019,0.375004,0.094341,0.000000,0.000000,233.000000,223.000000,10.000000,0.000000,0.000000,0.000000,0.314019,0.375004,0.094341,0.000000,0.000000,233.000000,223.000000,10.000000,0.000000,0.000000,0.000000:
00000000
00000000
00000000
00000000
,
00000000
00000000
00000000
00000000
,
00000000
00000000
00000000
00000000
,
00011000
00000000
00000000
00000000
,
00001000
00000000
00010000
00000000
,
00000100
00000000
00000000
00000000
00000001
00000100
00001000
00000000
,
00000100
00000000
00000000
00000000
00010000
00001000
01000000
00000000
,
10000000
00000000
00000000
00000000
01000000
00010000
00100000
00000000
,
00001000
00010000
00001000
01000000
,
00010000
00000000
00000000
00000000
00100000
01000000
10000000
00000000
,
00010000
00000000
00000000
00000000
01000000
00001000
00010000
00000000
,
00000010
00000000
00000000
00000000
00000100
00001000
00000100
00000000
,
00000001
00001000
00000001
00000100
,
00000010
00001000
00000000
00000000
00000001
00000000
00000100
00000000
,
00000010
00001000
00000000
00000000
00000001
00000000
00000100
00000000
,
00000010
00010000
00000000
00000000
00001000
00000000
01000000
00000000
,
00010000
00100000
00010000
10000000
00010000
01000000
00001000
00000000
,
00010000
00001000
00001000
00000000
00010000
00000000
00000100
00000000
,
00000010
00000001
00000001
00000000
00000100
00000000
00001000
00000000
,
00000100
00000010
00000010
00000000
00000100
00000000
00000001
00000000
,
00001000
00000100
00001000
00000001
00001000
00000010
00001000
00000000
,
00001001
00001100
00000010
00000010
,
00000011
00001001
00000010
00000010
,
00011000
01010000
00100000
00100000
,
10100000
00000000
10010000
00000000
00100000
00100000
00100000
00000000
,
01000000
10000000
01000000
00010000
01000000
01000000
00010000
00000000
,
01000000
00000000
00001000
00000000
,
00010000
00000000
00000100
00000000
,
00000010
00000000
00000001
00000000
,
00000100
00000001
00000100
00000000
00000010
00000000
00000000
00000000
,
00010000
00001000
00010000
00000000
00001000
00000000
00000000
00000000
,
01000000
00000000
01000000
00000000
,
00010000
10000000
01000000
00000000
00010000
01000000
10000000
00000000
,
00010000
01000000
00001000
00000000
00010000
00000000
00000000
00000000
,
00000010
00001000
00000001
00000000
00000100
00000000
00000000
00000000
,
00000010
00000010
00010000
00001000
,
01000000
10000000
01000000
00000000
00001000
00100000
00001000
00000000
,
00010000
00001000
00010000
00000100
00001000
00000000
00000000
00000000
,
00000010
00000010
00000010
00000000
,
00001000
00000010
00001000
00000001
00000100
00000100
00000010
00000000
,
00010000
00001000
01000000
00000000
00100000
01000000
10000000
00000000
,
01000000
00100000
01000000
10000000
01000000
00000000
00000000
00000000
,
00001000
00001000
00001000
00000000
,
00010000
00001000
00010000
00000100
00000010
00000010
00000001
00000000
,
00000100
00001000
00000100
00000000
00000010
00010000
00001000
00000000
,
00010000
00010000
00001000
01000000
,
00100000
00100000
10000000
01000000
,
00010000
01000000
10000000
00000000
00010000
00010000
01000000
00000000
,
00001000
00001000
00001000
00000000
00010000
00000100
00001000
00000000
,
00000001
00000001
00000100
00000010
,
00001000
00001000
00000100
00010000
,
00001000
01000000
00100000
00000000
10000000
10000000
01000000
00000000
,
00100000
00100000
00100000
00000000
00001000
00001000
00001000
00000000
,
00011000
00000000
00000000
00000000
,
00000000
00000000
00000000
00000000
;

//---------------dance-double - ----------------
#NOTES:
     dance-double:
     :
     Hard:
     7:
     0.401621,0.425004,0.056604,0.000000,0.061321,298.000000,292.000000,6.000000,0.000000,0.000000,0.000000,0.401621,0.425004,0.056604,0.000000,0.061321,298.000000,292.000000,6.000000,0.000000,0.000000,0.000000:
00000000
00000000
00000000
00000000
,
00000000
00000000
00000000
00000000
,
00000000
00000000
00000000
00000000
,
10000000
00010000
00000010
00000001
,
00000100
00000000
00001000
00000000
01000000
01000000
01100000
00000000
,
10000000
00000000
10000000
00000000
00100000
10000000
00100000
00000000
,
01000000
00000000
01000000
00000000
00010000
01000000
00001000
00000000
,
00010000
00000000
00010000
00000000
00000010
00001000
00000100
00000000
,
00000010
00000001
00000100
00000000
00001000
00000100
00000001
00000000
,
00001000
00000000
00000100
00000000
00010000
00001000
01000000
00000000
,
00100000
00000000
01000000
00000000
00100000
01000000
00010000
00000000
,
10000000
00000000
10000000
00000000
10000000
01000000
00100000
00000000
,
00010000
00000000
01000000
00000000
00001000
00010000
00010000
00000000
,
00000010
00000100
00001000
00000100
00000001
00000010
00000100
00001000
,
00000010
00000000
00000010
00010000
00001000
01000000
00100000
01000000
,
00010000
00100000
01000000
00100000
,
00001000
00010000
00000010
00000100
00000001
00001000
00000010
00000100
,
00000001
00000010
00000100
00010000
00001000
00100000
00010000
10000000
,
01000000
00000000
01000000
00010000
00001000
00000010
00000100
00001000
,
00000100
00000100
00000100
00000100
,
00001000
00000001
00000100
00001000
00000100
00000001
00001000
00000000
,
00000010
00001000
00000000
00000000
00000100
00000000
00000000
00000000
00010000
00001000
00000000
00000000
01000000
00000000
00000000
00000000
,
00010000
00000000
00100000
00000000
00010000
00000000
10000000
00000000
00100000
10000000
00000000
00000000
00100000
10000000
00000000
00000000
,
00010000
01000000
00000000
00000000
00001000
00000000
00000000
00000000
00010000
00001000
00000000
00000000
00010000
00000000
00000000
00000000
,
00000010
00000000
00000100
00000000
00001000
00000000
00000100
00000000
00000001
00000100
00000000
00000000
00000001
00000100
00000000
00000000
,
00000010
00000000
00000110
00000000
,
00000010
00001000
00000100
00010000
00001000
00001000
01000000
00000000
,
00100000
00000000
00100000
00000000
10000000
01000000
00100000
00000000
,
00011000
00000000
00000000
00000000
,
00001000
00000100
00000001
00000010
00001000
00010000
00001000
00000010
,
00000100
00001000
00001000
00010000
00100000
01000000
10000000
00010000
,
01000000
00100000
00001000
00010000
00001000
00000010
00000100
00000001
,
00001000
00000100
00010000
00000000
00001000
01000000
00100000
00000000
,
01000000
00010000
01000000
00001000
00010000
00000010
00000100
00000001
,
00000100
00000010
00000010
00000100
00000001
00000010
00000100
00001000
,
00000100
00010000
00001000
00100000
00010000
10000000
01000000
00100000
,
00001000
00010000
00000100
00000000
00000010
00000100
00001000
00000000
,
00001001
00000000
00000010
00000010
,
00000100
00001000
00000100
00000001
00001000
00000100
00010000
00001000
,
00010000
00000000
00010000
00010000
,
00001000
00000000
00000000
00000000
01000000
00100000
10000000
00000000
,
10010000
10000000
10000000
10000000
,
01000000
00010000
01000000
10000000
00100000
10000000
00010000
01000000
,
00001000
00000000
00010000
00010000
,
00000010
00000000
00001000
00000000
00000001
00000100
00001000
00000000
,
00000000
00000000
00000100
00000001
00000000
00000000
00000100
00000000
00000010
00000000
00001000
00000000
00000010
00000000
00001000
00000000
,
00000000
00000000
00000100
00010000
00000000
00000000
00001000
00000000
01000000
00000000
00010000
00000000
01000000
00000000
00010000
00000000
,
00000000
00000000
00100000
00010000
00000000
00000000
01000000
00000000
10000000
00000000
01000000
00000000
10000000
00000000
01000000
00000000
,
00001000
00010000
00000100
00000010
,
00000000
00000000
00000001
00000100
00000000
00000000
00000001
00000000
00000010
00000000
00000100
00000000
00000010
00000000
00000100
00000000
,
00000000
00000000
00010000
00001000
00000000
00000000
01000000
00000000
00100000
00000000
10000000
00000000
00100000
00000000
10000000
00000000
,
01000000
00010000
00001000
00010000
,
01000000
00100000
00010000
10000000
,
10010000
00000000
00000000
00000000
,
00000000
00000000
00000000
00000000
;

//---------------dance-single - ----------------
#NOTES:
     dance-single:
     :
     Challenge:
     14:
     0.673861,0.713214,0.650950,0.160379,0.542458,500.000000,431.000000,69.000000,17.000000,0.000000,0.000000,0.673861,0.713214,0.650950,0.160379,0.542458,500.000000,431.000000,69.000000,17.000000,0.000000,0.000000:
// measure 0
0000
0000
0000
0000
,  // measure 1
0000
0000
0000
0000
,  // measure 2
0000
0000
0000
0000
,  // measure 3
0020
0000
0000
0000
0000
0000
0000
0000
0000
0000
0000
0000
0030
0000
0000
0100
,  // measure 4
0010
0000
0011
0000
0011
0000
0000
0010
1000
0000
1010
0000
2000
0000
0001
0000
,  // measure 5
3001
1000
0001
0000
0100
0000
0010
0100
0010
0000
1000
0000
0010
0001
0010
0000
,  // measure 6
0001
0010
0001
0000
0100
0000
0010
1000
0010
0000
1000
0000
0010
0100
0010
0000
,  // measure 7
0001
1000
0001
0000
0100
0000
0010
1000
0010
0000
0100
0000
1000
0000
0000
1000
,  // measure 8
0010
0000
1010
0000
1010
0000
0000
0010
0001
0000
0011
0000
0002
0000
1000
0000
,  // measure 9
1003
0001
1000
0000
0010
0000
0100
0001
0100
0000
0010
0000
0100
1000
0100
0000
,  // measure 10
0010
0001
0010
0000
0100
0000
1000
0010
1000
0000
0100
0000
0010
0000
0000
0010
,  // measure 11
0001
0000
0101
0000
0101
0000
0000
0100
1000
0000
1100
0000
1100
0000
0000
1000
,  // measure 12
0010
0000
0110
0000
0110
0000
0000
0010
0001
0000
1000
0001
1000
0000
0001
0000
,  // measure 13
0010
0000
0100
0010
0100
0000
1000
0000
0010
0000
0100
0001
0100
0000
0010
0000
,  // measure 14
1000
0000
0100
1000
0100
0010
0000
0010
0100
0000
0001
0010
0001
0000
0100
0000
,  // measure 15
0010
0000
1000
0100
1000
0000
0010
0000
0100
0000
0001
0010
0001
0000
0100
0000
,  // measure 16
0000
0000
1010
0000
1001
0000
0000
0001
0010
0000
0110
0000
0000
0000
0100
0000
,  // measure 17
0010
0000
0001
0010
0001
0000
0100
0000
0010
0000
1000
0100
1000
0000
0010
0000
,  // measure 18
0100
0000
0001
0010
0001
0000
0100
0000
0010
0000
1000
0100
1000
0000
0010
0000
,  // measure 19
0001
0000
0100
0001
0100
0000
0010
0000
1000
0000
0100
1000
0100
0000
0010
0000
,  // measure 20
0000
0000
0011
0000
0101
0000
0000
0100
0010
0000
1010
0000
0010
0100
0001
1000
,  // measure 21
0200
0000
0000
0000
1000
0000
0000
0000
0301
0000
0000
0000
0010
0000
0100
0010
,  // measure 22
0200
0000
0000
0000
0001
0000
0000
0000
1300
0000
0000
0000
0010
0000
1000
0010
,  // measure 23
2000
0000
0001
0000
3100
1000
0010
0100
,  // measure 24
0000
0101
0000
1010
0000
0101
0000
0000
,  // measure 25
0020
0000
0000
0000
0001
0000
0000
1030
0000
0000
0010
0000
0001
0000
0100
0000
,  // measure 26
0000
0000
0010
0000
1000
0000
0100
0010
0000
0000
1001
0000
0000
0000
0010
0000
,  // measure 27
0100
0000
0010
0100
0010
0000
1000
0000
0001
0000
0100
0010
0100
0000
0220
0000
,  // measure 28
0000
0000
0000
0330
1001
0110
0000
0010
,  // measure 29
0100
0010
0100
0010
0100
0010
0100
0010
0100
0010
0100
0010
0100
0010
0100
0010
,  // measure 30
0100
0000
0000
0000
0110
0000
0000
0010
0001
0000
0100
0000
0010
0000
1000
0100
,  // measure 31
0010
0000
0001
0000
0100
0000
0010
1000
0100
0000
0010
0000
0001
0000
0010
0001
,  // measure 32
0000
0000
1001
0000
1010
0000
1000
0100
0000
0000
0110
0000
0011
0000
0000
0000
,  // measure 33
1000
0001
1000
0001
1000
0001
1000
0001
1000
0001
1000
0001
1000
0001
1000
0001
,  // measure 34
1000
0000
0000
0000
0101
0000
0000
0001
0010
0000
1000
0000
0100
0000
0001
0010
,  // measure 35
1000
0000
0100
0000
0010
0000
1000
0100
0010
0000
0001
0000
0100
0000
0010
0100
,  // measure 36
0000
0000
1100
0000
1010
0000
0010
0001
0000
0000
0101
0000
0011
0000
0000
0000
,  // measure 37
0010
1000
0010
1000
0010
1000
0010
1000
0010
0000
0010
0000
1000
0000
0100
0001
,  // measure 38
0010
0000
0100
0000
0010
0000
1000
0010
0100
0000
0010
0000
0001
0000
0100
0010
,  // measure 39
0000
0000
0110
0000
0110
0000
1000
0001
0000
0000
1001
0000
1001
0000
0001
0100
,  // measure 40
0000
1010
1100
0000
0011
0000
0101
0000
,  // measure 41
0010
0001
0010
0001
0010
0001
0010
0001
0010
0001
0010
0001
0010
0001
0010
0001
,  // measure 42
0010
0000
0000
0000
0011
0000
0000
0001
0100
0000
0010
0000
1000
0000
0100
0010
,  // measure 43
0000
0000
0011
0000
1100
0000
0001
0100
0000
0000
1010
0000
0101
0000
1000
0001
,  // measure 44
0000
0110
1001
0010
0200
0000
1300
0000
,  // measure 45
1000
0000
0100
1000
0000
0010
0100
0000
0010
0001
0000
0100
0001
0000
1000
0000
,  // measure 46
0010
0000
0001
0010
0000
0100
0010
0000
1000
0100
0000
0010
0001
0000
0100
0000
,  // measure 47
0010
0000
1000
0010
0000
0100
0001
0000
0010
1000
0000
0001
0100
0000
0010
1000
,  // measure 48
0000
0000
1001
0000
0110
0000
0001
1000
0000
0000
1001
0000
0110
0000
0000
0000
,  // measure 49
1001
0000
0110
0000
0000
1010
0000
0000
1100
0000
0000
0101
0000
0000
0011
0000
,  // measure 50
0020
0000
0032
0000
0000
0203
0000
0000
0320
0000
0000
2030
0000
0000
3100
0010
,  // measure 51
0001
0000
0011
0000
0101
0000
0001
0010
0100
0000
1100
0000
1010
0000
1000
0100
,  // measure 52
0001
0000
1001
0000
0110
0000
0001
0010
1000
0000
0110
0000
1001
0000
0000
0000
,  // measure 53
2002
0000
0000
0000
,  // measure 54
3003
0000
0000
0000
;
